#VERSION:0.83;
#TITLE:5.1.1.;
#SUBTITLE:(ANOTHER);
#ARTIST:dj nagureo;
#TITLETRANSLIT:;
#SUBTITLETRANSLIT:;
#ARTISTTRANSLIT:;
#GENRE:;
#ORIGIN:;
#CREDIT:;
#BANNER:5.1.1. (ANOTHER) [ITG Edit].png;
#BACKGROUND:5.1.1. (ANOTHER) [ITG Edit]-bg.png;
#PREVIEWVID:;
#JACKET:;
#CDIMAGE:;
#DISCIMAGE:;
#LYRICSPATH:;
#CDTITLE:;
#MUSIC:5.1.1. (ANOTHER) [ITG Edit].ogg;
#OFFSET:1.613000;
#SAMPLESTART:10.280000;
#SAMPLELENGTH:15.000000;
#SELECTABLE:YES;
#BPMS:0.000=101.000;
#STOPS:;
#DELAYS:;
#WARPS:;
#TIMESIGNATURES:0.000=4=4;
#TICKCOUNTS:0.000=4;
#COMBOS:0.000=1;
#SPEEDS:0.000=1.000=0.000=0;
#SCROLLS:0.000=1.000;
#FAKES:;
#LABELS:0.000=Song Start;
#BGCHANGES:;
#KEYSOUNDS:;
#ATTACKS:
;

//---------------dance-single - ----------------
#NOTEDATA:;
#CHARTNAME:Peak ITG [Meme];
#STEPSTYPE:dance-single;
#DESCRIPTION:;
#CHARTSTYLE:;
#DIFFICULTY:Challenge;
#METER:15;
#RADARVALUES:1.646499,1.915747,1.996098,0.789417,3.253527,1022.000000,843.000000,177.000000,70.000000,22.000000,36.000000,0.000000,0.000000,0.000000,1.646499,1.915747,1.996098,0.789417,3.253527,1022.000000,843.000000,177.000000,70.000000,22.000000,36.000000,0.000000,0.000000,0.000000;
#CREDIT:led_light;
#NOTES:
0000
0000
0000
0000
,
2111
0000
3001
1100
0011
1100
0001
0000
1010
0100
1000
0101
1000
0010
2200
3310
,
1000
0100
1010
0100
1000
0101
1000
0001
1010
0100
1000
0011
1000
0010
1100
0001
,
2020
0000
0000
0000
3130
0000
1000
0000
0010
0M00
0010
0000
0001
0000
0000
0000
2200
0000
0000
0000
3310
0M00
0010
0000
0001
0000
0000
0000
2200
0000
0000
0000
,
3301
0000
0100
00M0
0100
0000
0000
0000
1010
0000
0100
00M0
0100
0000
0001
0000
1000
0000
0000
0000
0001
0000
0100
0000
0011
0000
0000
0000
1100
0000
0101
0000
,
2020
3130
0010
0100
1000
0010
1000
0010
0001
0010
0001
0010
1000
0010
0001
0010
,
2200
3301
0010
0001
1000
0100
1000
0100
0001
0100
0001
0100
1010
0001
1100
0010
,
0202
0313
1000
0001
0010
0100
0022
0133
1000
0001
0010
0001
2200
3310
0001
0010
,
2200
3301
1000
0100
0001
0100
2020
3031
1000
0010
1000
0010
0202
0313
1000
0001
,
1010
0100
0010
0001
1000
0001
0100
0010
1100
0001
0100
0010
1000
0001
1000
0010
1100
0001
0010
0100
0010
0001
1000
0001
1010
0100
0010
0100
1000
0001
0010
0100
,
1010
0001
0100
0010
1000
0010
0100
0001
1100
0001
0010
0100
1000
0100
0010
0001
1010
0001
0010
0001
0100
0010
1000
0010
1100
0010
0100
0001
1000
0100
0010
0001
,
2200
0000
0000
0000
3311
0000
0100
0000
0010
0M00
1010
0000
0002
0000
0000
0000
1013
0000
0100
0000
0010
0M00
0011
0000
1000
0000
0000
0000
0202
0000
0000
0000
,
2323
0000
0000
0000
3131
0000
0010
0000
0100
00M0
1100
0000
0002
0000
0000
0000
1103
0000
0010
0000
0100
00M0
0101
0000
1000
0000
0000
0000
0022
0000
0000
0000
,
2233
3310
0100
0010
1000
0100
1000
0100
0001
0100
0001
0100
1000
0100
0011
0100
,
2020
3031
0100
0001
1000
0010
1000
0010
0001
0010
0001
0010
1000
0001
1010
0100
,
0022
0133
1000
0001
0010
0100
0010
0100
1000
0001
0010
0001
1000
0010
0101
0010
,
2200
3301
1000
0010
0001
0010
1000
0001
1000
0100
1000
0100
0001
0100
1000
0001
,
1100
0010
0100
0001
1000
0001
0010
0100
1010
0001
0010
0100
1000
0001
1000
0100
1010
0001
0100
0010
0100
0001
1000
0001
1100
0010
0100
0010
1000
0001
0100
0010
,
1100
0001
0010
0100
1000
0100
0010
0001
1010
0001
0100
0010
1000
0010
0100
0001
1100
0001
0100
0001
0010
0100
1000
0100
1010
0100
0010
0001
1000
0010
0100
0001
,
2020
0000
0000
0000
3131
0000
0010
0000
0100
00M0
1100
0000
0002
0000
0000
0000
1103
0000
0010
0000
0100
00M0
0101
0000
1000
0000
0000
0000
0022
0000
0000
0000
,
2233
0000
0000
0000
3311
0000
0100
0000
0010
0M00
1010
0000
0202
0000
0000
0000
1313
0000
0001
0000
1000
0000
0011
0000
1100
0000
0011
0000
1010
0000
0101
0000
,
1010
0000
0100
0000
1000
0000
0100
0000
0010
0000
0001
0000
0010
0000
0001
0000
1000
0000
0100
0000
1000
0000
0001
0000
0100
00M0
0100
0000
1000
0000
0001
0000
1000
0000
0010
0000
0100
0000
0001
0000
1000
0000
0100
0000
0010
0000
0001
0000
1000
0000
0010
0000
0100
0000
0001
0000
1100
0000
0010
0000
1000
0000
0001
0000
,
1100
0000
0010
0000
1000
0000
0010
0000
0100
0000
0001
0000
0100
0000
0001
0000
1000
0000
0010
0000
1000
0000
0001
0000
0010
0M00
0010
0000
1000
0000
0001
0000
1000
0000
0100
0000
0010
0000
0001
0000
1000
0000
0010
0000
0100
0000
0001
0000
1010
0000
0100
0000
0010
0000
0001
0000
0010
0000
0100
0000
1000
0000
0001
0000
,
1010
0000
0100
0000
0010
0000
0001
0000
0100
0000
0001
0000
0100
0000
0001
0000
1000
0000
0010
0000
1000
0000
0010
0000
0100
0000
0001
0000
0010
0M00
0010
0000
1000
0000
0100
0000
1000
0000
0001
0000
1000
0000
0100
0000
0010
0000
0001
0000
1010
0000
0100
0000
0010
0000
0001
0000
1010
0000
0001
0000
0100
0000
0010
0000
,
1100
0000
0010
0000
0100
0000
0001
0000
0010
0000
0001
0000
0010
0000
0001
0000
1000
0000
0100
0000
1000
0000
0100
0000
0010
0000
0001
0000
0100
00M0
0100
0000
1000
0000
0010
0000
1000
0000
0001
0000
1000
0000
0010
0000
0100
0000
0001
0000
1100
0000
0010
0000
0100
0000
0001
0000
1100
0000
0001
0000
0010
0000
0100
0000
,
1010
0100
1000
0000
0001
0000
0100
00M0
0100
0000
1000
0000
0001
0000
0010
0000
0100
0000
1000
0000
0001
0000
1000
0000
0100
0000
0010
0000
0001
0000
1000
0000
0011
0100
0001
0000
1000
0000
0100
00M0
0100
0000
0001
0000
1000
0000
0010
0000
0100
0000
0001
0000
1000
0000
0001
0000
0100
0000
0010
0000
1000
0000
0001
0000
,
1100
0010
1000
0000
0001
0000
0010
0M00
0010
0000
1000
0000
0001
0000
0100
0000
0010
0000
1000
0000
0001
0000
1000
0000
0010
0000
0100
0000
0001
0000
1000
0000
0101
0010
0001
0000
1000
0000
0010
0M00
0010
0000
0001
0000
1000
0000
0100
0000
0010
0000
0001
0000
1000
0000
0001
0000
0010
0000
0100
0000
1000
0000
0001
0000
,
1010
0001
0100
0000
0010
0000
1000
0000
0100
0000
0010
0000
0100
0000
1000
0000
0001
0000
1000
0000
0100
0000
1000
0000
0001
0000
0010
0000
0100
0000
1000
0000
0101
1000
0010
0000
0100
0000
0001
0000
0010
0000
0100
0000
0010
0000
0001
0000
1000
0000
0001
0000
0010
0000
0001
0000
1000
0000
0100
0000
0010
0000
0001
0000
,
1100
0000
0000
0010
0000
0000
0100
0000
0000
0000
0000
0000
1000
0000
0000
000M
0000
0000
1000
0000
0000
0000
0000
0000
0011
0000
0000
0000
0000
0000
1000
0000
0000
0000
0000
0000
0001
0000
0000
0000
0000
0000
1000
0000
0000
0000
0000
0000
0101
0000
0000
0010
0000
0000
0100
0000
0000
0000
0000
0000
0001
0000
0000
M000
0000
0000
0001
0000
0000
0000
0000
0000
1010
0000
0000
0000
0000
0000
0001
0000
0000
0000
0000
0000
1000
0000
0000
0000
0000
0000
0001
0000
0000
0000
0000
0000
1010
0000
0000
0100
0000
0000
0010
0000
0000
0000
0000
0000
1000
0000
0000
000M
0000
0000
1000
0000
0000
0000
0000
0000
0101
0000
0000
0000
0000
0000
1000
0000
0000
0000
0000
0000
0001
0000
0000
0000
0000
0000
1000
0000
0000
0000
0000
0000
0101
0000
0000
0000
0010
0000
0000
0000
0100
0000
0000
0000
1000
0000
0000
0000
0001
0000
0000
0000
0100
0000
0000
0000
0011
0000
0000
0000
1100
0000
0000
0000
0011
0000
0000
0000
1100
0000
0000
0000
0011
0000
0000
0000
1100
0000
0000
0000
,
0022
0000
1033
0101
1010
0101
1000
0000
0011
0100
0001
1100
0010
0100
0022
0133
,
0001
0000
0000
0000
0000
0000
0010
0000
0000
0000
0000
0000
0001
0000
0000
0000
0000
0000
0010
0000
0000
0000
0000
0000
0101
0000
0000
0000
0000
0000
0010
0000
0000
0000
0000
0000
0100
0000
0000
0000
0000
0000
0010
0000
0000
0000
0000
0000
0001
0000
0000
0000
0000
0000
1000
0000
0000
0000
0000
0000
0101
0000
0000
0000
0000
0000
1000
0000
0000
0000
0000
0000
0001
0000
0000
0000
0000
0000
0100
0000
0000
0000
0000
0000
0010
0000
0000
0000
0000
0000
1000
0000
0000
0000
0000
0000
0011
0000
0000
0000
0100
0000
0000
0000
0010
0000
0000
0000
1000
0000
0000
0000
0010
0000
0000
0000
0100
0000
0000
0000
0001
0000
0000
0000
1000
0000
0000
0000
0001
0000
0000
0000
0010
0000
0000
0000
0100
0000
0000
0000
0010
0000
0000
0000
0100
0000
0000
0000
1000
0000
0000
0000
0001
0000
0000
0000
1000
0000
0000
0000
0100
0000
0000
0000
0010
0000
0000
0000
0101
0000
0000
0000
1010
0000
0000
0000
0101
0000
0000
0000
1010
0000
0000
0000
0101
0000
0000
0000
1010
0000
0000
0000
,
0202
0000
1303
0011
1100
0011
1000
0000
0101
0010
0001
1010
0100
0010
0202
0313
,
0001
0000
0000
0000
0000
0000
0100
0000
0000
0000
0000
0000
0001
0000
0000
0000
0000
0000
0100
0000
0000
0000
0000
0000
0011
0000
0000
0000
0000
0000
0100
0000
0000
0000
0000
0000
0010
0000
0000
0000
0000
0000
0100
0000
0000
0000
0000
0000
0001
0000
0000
0000
0000
0000
1000
0000
0000
0000
0000
0000
0011
0000
0000
0000
0000
0000
1000
0000
0000
0000
0000
0000
0001
0000
0000
0000
0000
0000
0010
0000
0000
0000
0000
0000
0100
0000
0000
0000
0000
0000
1000
0000
0000
0000
0000
0000
0101
0000
0000
0000
0010
0000
0000
0000
0100
0000
0000
0000
1000
0000
0000
0000
0100
0000
0000
0000
0010
0000
0000
0000
0001
0000
0000
0000
1000
0000
0000
0000
0001
0000
0000
0000
0100
0000
0000
0000
0010
0000
0000
0000
0100
0000
0000
0000
0010
0000
0000
0000
1000
0000
0000
0000
0001
0000
0000
0000
1000
0000
0000
0000
0010
0000
0000
0000
0100
0000
0000
0000
0011
0000
0000
0000
1100
0000
0000
0000
0011
0000
0000
0000
1100
0000
0000
0000
0011
0000
0000
0000
1100
0000
0000
0000
,
0022
0000
1033
0101
1010
0101
1000
0000
0011
0100
0001
1100
0010
0100
0022
0133
,
0001
0000
0000
0000
0000
0000
0010
0000
0000
0000
0000
0000
0001
0000
0000
0000
0000
0000
0010
0000
0000
0000
0000
0000
0101
0000
0000
0000
0000
0000
0010
0000
0000
0000
0000
0000
0100
0000
0000
0000
0000
0000
0010
0000
0000
0000
0000
0000
0001
0000
0000
0000
0000
0000
1000
0000
0000
0000
0000
0000
0101
0000
0000
0000
0000
0000
1000
0000
0000
0000
0000
0000
0001
0000
0000
0000
0000
0000
0100
0000
0000
0000
0000
0000
0010
0000
0000
0000
0000
0000
1000
0000
0000
0000
0000
0000
0011
0000
0000
0000
0100
0000
0000
0000
0010
0000
0000
0000
1000
0000
0000
0000
0010
0000
0000
0000
0100
0000
0000
0000
0001
0000
0000
0000
1000
0000
0000
0000
0001
0000
0000
0000
0010
0000
0000
0000
0100
0000
0000
0000
0010
0000
0000
0000
0100
0000
0000
0000
1000
0000
0000
0000
0001
0000
0000
0000
1000
0000
0000
0000
0100
0000
0000
0000
0010
0000
0000
0000
0101
0000
0000
0000
1010
0000
0000
0000
0101
0000
0000
0000
1010
0000
0000
0000
0101
0000
0000
0000
1010
0000
0000
0000
,
0202
0000
1303
0011
1100
0011
1000
0000
0101
0010
0001
1010
0100
0010
0202
0313
,
0001
0000
0000
0000
0000
0000
0100
0000
0000
0000
0000
0000
0001
0000
0000
0000
0000
0000
0100
0000
0000
0000
0000
0000
0011
0000
0000
0000
0000
0000
0100
0000
0000
0000
0000
0000
0010
0000
0000
0000
0000
0000
0100
0000
0000
0000
0000
0000
0001
0000
0000
0000
0000
0000
1000
0000
0000
0000
0000
0000
0011
0000
0000
0000
0000
0000
1000
0000
0000
0000
0000
0000
0001
0000
0000
0000
0000
0000
0010
0000
0000
0000
0000
0000
0100
0000
0000
0000
0000
0000
1000
0000
0000
0000
0000
0000
0101
0000
0000
0000
0010
0000
0000
0000
0100
0000
0000
0000
1000
0000
0000
0000
0100
0000
0000
0000
0010
0000
0000
0000
0001
0000
0000
0000
1000
0000
0000
0000
0001
0000
0000
0000
0100
0000
0000
0000
0010
0000
0000
0000
0100
0000
0000
0000
0101
0000
0000
0000
1010
0000
0000
0000
0101
0000
0000
0000
1010
0000
0000
0000
0101
0000
0000
0000
1100
0000
0000
0000
0011
0000
0000
0000
1100
0000
0000
0000
0101
0000
0000
0000
2020
0000
0000
0000
0000
0000
0000
0000
0000
0000
0000
0000
,
0000
0000
0000
3030
;
