#TITLE:3y3s;
#SUBTITLE:;
#ARTIST:青龍;
#TITLETRANSLIT:;
#SUBTITLETRANSLIT:;
#ARTISTTRANSLIT:Seiryu;
#GENRE:BEMANI;
#CREDIT:;
#BANNER:3y3s.png;
#BACKGROUND:3y3s-bg.png;
#LYRICSPATH:;
#CDTITLE:../cdtitle.png;
#MUSIC:3y3s.ogg;
#OFFSET:0.907000;
#SAMPLESTART:97.101997;
#SAMPLELENGTH:15.000000;
#SELECTABLE:YES;
#BPMS:0.000000=191.000000
;
#STOPS:
;
#BGCHANGES:-99.000=../bg.avi=1.000=0=0=1=====,
99999=-nosongbg-=1.000=0=0=0 // don't automatically add -songbackground-
;
#KEYSOUNDS:;
#ATTACKS:;

//---------------dance-double - ----------------
#NOTES:
     dance-double:
     :
     Medium:
     14:
     0.655350,0.785033,0.525645,0.063715,0.063715,576.000000,510.000000,66.000000,8.000000,0.000000,0.000000,0.655350,0.785033,0.525645,0.063715,0.063715,576.000000,510.000000,66.000000,8.000000,0.000000,0.000000:
// measure 0
00000000
00000000
00000000
00000000
,  // measure 1
00000000
00000000
00000000
00000000
,  // measure 2
00000000
00000000
00000000
00000000
,  // measure 3
00010000
00100000
10000000
00100000
00000000
00010000
01000000
00001000
,  // measure 4
01000000
00011000
00000010
00011000
,  // measure 5
00001000
00000100
00000001
00000100
00000000
00001000
00000010
00010000
,  // measure 6
00000010
00000000
00001100
00000000
00011000
00000000
01000000
00100000
,  // measure 7
00000000
00001000
00010000
00001000
00000000
00001000
00000100
00001000
,  // measure 8
00010000
00000000
00010010
00000000
00101000
00000000
00010000
00010000
,  // measure 9
00000000
00000000
00000000
00000100
00000100
00000000
00000000
00000001
,  // measure 10
00000001
00000000
00000000
00000000
00000000
00001000
00000100
00000001
,  // measure 11
00000000
00000000
00000000
00000000
,  // measure 12
00001000
00000100
00000001
00000001
00001000
00000010
00000001
00000001
,  // measure 13
00000100
00001000
00010000
00010000
00001000
00010000
00100000
00100000
,  // measure 14
00010000
00100000
10000000
10000000
00010000
01000000
10000000
10000000
,  // measure 15
00100000
00010000
00001000
00001000
00010000
00001000
00000100
00000100
,  // measure 16
00001100
00000101
00001010
00000011
,  // measure 17
00000101
00001100
00011000
01010000
,  // measure 18
10100000
01010000
11000000
00110000
,  // measure 19
00021000
00000100
01000000
00030100
,  // measure 20
00000010
00000001
00000100
00000001
00001000
00000001
00000100
00000001
,  // measure 21
00001000
00000100
00000010
00000100
00000001
00000100
00000010
00000100
,  // measure 22
00010000
00000010
00001000
00000010
00000100
00000010
00001000
00000010
,  // measure 23
00010000
00001000
00100000
00001000
00010000
00001000
01000000
00001000
,  // measure 24
00011000
00010000
01000000
10000000
00100000
10000000
01000000
00010000
,  // measure 25
00011000
00001000
00000010
00000001
00000100
00000001
00000010
00001000
,  // measure 26
00022000
00033000
00011000
00011000
,  // measure 27
20010000
00100000
01000000
30010000
,  // measure 28
10010000
00000000
00000000
01000000
00000000
00000000
00010000
00000000
00000000
00001000
00000000
00000000
00000010
00000000
00000001
00000000
,  // measure 29
00001001
00000000
00000000
00000100
00000000
00000000
00001000
00000000
00000000
00010000
00000000
00000000
00100000
00000000
10000000
00000000
,  // measure 30
10010000
00000000
00000000
00100000
00000000
00000000
00010000
00000000
00000000
00001000
00000000
00000000
00000100
00000000
00000001
00000000
,  // measure 31
00001001
00000000
00000000
00000010
00000000
00000000
00001000
00000000
00000000
00010000
00000000
00000000
01000000
00000000
10000000
00000000
,  // measure 32
10010000
00000000
00100000
00000000
00000000
00000000
00010000
00001000
,  // measure 33
00011000
00000000
00000100
00000000
00000000
00000000
00000010
00000100
,  // measure 34
00000110
00001001
00011000
10010000
,  // measure 35
00012000
00023000
00032000
00023000
,  // measure 36
01030000
10000000
00100000
01000000
00010000
10000000
00100000
10000000
,  // measure 37
00010000
00100000
10000000
00010000
01000000
00100000
10000000
00100000
,  // measure 38
00010000
01000000
10000000
00010000
00100000
01000000
10000000
01000000
,  // measure 39
00010000
00100000
00010000
00001000
00000100
00001000
00000010
00000010
,  // measure 40
00000100
00000001
00000010
00000100
00001000
00000001
00000010
00000001
,  // measure 41
00001000
00000010
00000001
00001000
00000100
00000010
00000001
00000010
,  // measure 42
00001000
00000100
00000001
00001000
00000010
00000100
00000001
00000100
,  // measure 43
00001000
00000010
00001000
00010000
01000000
00010000
10000000
01000000
,  // measure 44
00010000
01000000
10000000
00100000
00010000
00001000
00000100
00000001
,  // measure 45
00000010
00000001
00000100
00001000
00000100
00001000
00010000
01000000
,  // measure 46
10000000
00100000
10000000
00100000
00010000
00100000
00010000
00001000
,  // measure 47
00000010
00000001
00001000
00000100
00000001
00000100
00001000
00000010
,  // measure 48
00001001
00000000
00000000
00000001
00000000
00000000
00000100
00000000
00000000
00001000
00000000
00000000
00011000
00000000
00000000
00000000
,  // measure 49
00011000
00000000
00000000
00010000
00000000
00000000
01000000
00000000
00000000
10000000
00000000
00000000
10010000
00000000
10010000
00000000
,  // measure 50
00100000
00100000
10000000
10000000
01000000
01000000
00010000
00010000
,  // measure 51
01000000
00100000
00010000
00001000
00100000
00010000
00001000
00000100
,  // measure 52
00010000
00001000
00000100
00000010
00001000
00000100
00000010
00000001
,  // measure 53
00000000
00000000
00000000
00000000
,  // measure 54
00000000
00000000
00000000
00000000
,  // measure 55
00000000
00100000
00000000
00100000
10000000
10000000
10010000
00000000
,  // measure 56
00010000
01000000
10000000
01000000
00000000
00010000
00100000
00001000
,  // measure 57
00100000
00011000
00000100
00011000
,  // measure 58
00001000
00000010
00000001
00000010
00000000
00001000
00000100
00010000
,  // measure 59
00000100
00000000
00001010
00000000
00011000
00000000
00100000
01000000
,  // measure 60
00000000
00001000
00010000
00001000
00000000
00001000
00000010
00001000
,  // measure 61
00010000
00000000
00010100
00000000
01001000
00000000
00010000
00010000
,  // measure 62
00000000
00000000
00000000
00000010
00000010
00000000
00000000
00000001
,  // measure 63
00000001
00000000
00000000
00000000
00000000
00001000
00000010
00000001
,  // measure 64
00001000
00000010
00000001
00000010
00000000
00001000
00000100
00010000
,  // measure 65
00000100
00011000
00100000
00011000
,  // measure 66
00010000
01000000
10000000
01000000
00000000
00010000
00100000
00001000
,  // measure 67
00100000
00000000
01010000
00000000
00011000
00000000
00000100
00000010
,  // measure 68
00000000
00010000
00001000
00010000
00000000
00010000
01000000
00010000
,  // measure 69
00001000
00000000
00101000
00000000
00010010
00000000
00001000
00001000
,  // measure 70
00000000
00000000
00000000
01000000
01000000
00000000
00000000
10000000
,  // measure 71
10000000
00000000
00000000
00000000
00000000
00010000
00100000
10000000
,  // measure 72
00000000
00000000
00000000
01000000
01000000
00000000
00000000
10000000
,  // measure 73
00000000
00000000
00000000
01000000
00000000
00010000
00000000
01000000
,  // measure 74
10000000
00100000
10000000
00000000
01000000
00000000
00010000
00000000
00001000
00010000
00001000
00000000
00000100
00000000
00000001
00000000
,  // measure 75
00001000
00000010
00001000
00000000
00000001
00000010
00000001
00000000
00001000
00000000
00000100
00000000
00000001
00000000
00000010
00000000
,  // measure 76
00000000
00000000
00000000
00000000
,  // measure 77
00000000
00000000
00000000
00000000
,  // measure 78
00001000
00000100
00000001
00000100
00000000
00001000
00000010
00010000
,  // measure 79
00000010
00011000
01000000
00011000
,  // measure 80
00010000
00100000
10000000
00100000
00000000
00010000
01000000
00001000
,  // measure 81
01000000
00000000
00110000
00000000
00011000
00000000
00000010
00000100
,  // measure 82
00000000
00010000
00001000
00010000
00000000
00010000
00100000
00010000
,  // measure 83
00001000
00000000
01001000
00000000
00010100
00000000
00001000
00001000
,  // measure 84
00000000
00000000
00000000
00100000
00100000
00000000
00000000
10000000
,  // measure 85
10000000
00000000
00000000
00000000
00000000
00010000
00100000
10000000
,  // measure 86
00010000
00100000
10000000
00100000
00000000
00010000
01000000
00001000
,  // measure 87
01000000
00011000
00000010
00011000
,  // measure 88
00001000
00000100
00000001
00000100
00000000
00001000
00000010
00010000
,  // measure 89
00000010
00000000
00001100
00000000
00011000
00000000
01000000
00100000
,  // measure 90
00000000
00001000
00010000
00001000
00000000
00001000
00000100
00001000
,  // measure 91
00010000
00000000
00010010
00000000
00101000
00000000
00010000
00010000
,  // measure 92
00000000
00000000
00000000
00000100
00000100
00000000
00000000
00000001
,  // measure 93
00000001
00000000
00000000
00000000
00000000
00001000
00000100
00000001
;

//---------------dance-double - ----------------
#NOTES:
     dance-double:
     :
     Easy:
     11:
     0.507441,0.635503,0.533609,0.000000,0.000000,446.000000,379.000000,67.000000,0.000000,0.000000,0.000000,0.507441,0.635503,0.533609,0.000000,0.000000,446.000000,379.000000,67.000000,0.000000,0.000000,0.000000:
00000000
00000000
00000000
00000000
,
00000000
00000000
00000000
00000000
,
00000000
00000000
00000000
00000000
,
00001000
00000000
00010000
00001000
00000000
00010000
00001000
00000000
,
00010000
01000000
10000000
10010000
,
00100000
00000000
00010000
00001000
00000000
00010000
00001000
00000000
,
00000100
00000001
00000100
00001100
,
00001000
00000000
00010000
00001000
00000000
00010000
00001000
00000000
,
00010000
00100000
10000000
01000000
,
10010000
00000000
01100000
00000000
,
10010000
00000000
00000000
00000000
00000000
00001000
00010000
00001000
,
00000000
00000000
00000000
00000000
,
00010000
00010000
10000000
10000000
,
01000000
01000000
00100000
00100000
,
00001000
00001000
00000100
00000100
,
00000001
00000001
00000010
00000010
,
00001000
00000101
00000001
00001010
,
00001000
00010100
00010000
00101000
,
00010000
11000000
10000000
00110000
,
00011000
00010000
00001000
00010000
,
00110000
00000000
10000000
00000000
01000000
01000000
01000000
00000000
,
01010000
00000000
00010000
00000000
00001000
00000010
00000010
00000000
,
00001100
00000000
00000001
00000000
00000010
00000010
00000010
00000000
,
00001001
00000000
00001000
00000000
00010000
00100000
00100000
00000000
,
10010000
01000000
00100000
01000000
,
00011000
00000100
00000010
00000100
,
00001001
00000000
00010100
01001000
,
00011000
00001000
00010000
00010000
,
10000000
00000000
00000000
01000000
00000000
00000000
11000000
00000000
,
00100000
00000000
00000000
00010000
00000000
00000000
00110000
00000000
,
00001000
00000000
00000000
00000100
00000000
00000000
00001100
00000000
,
00000010
00000000
00000000
00000001
00000000
00000000
00000011
00000000
,
00001001
00000100
00000000
00000100
,
00001001
00000100
00000000
00000010
,
00000110
00000100
00011000
00010000
,
01100000
10010000
01100000
10010000
,
00010000
01000000
00100000
00000000
10000000
01000000
00010000
00001000
,
00010000
00000000
00001000
00000100
00000010
00000000
00001001
00000000
,
00001000
00000100
00000010
00000000
00000001
00000100
00001000
00010000
,
00001000
00000000
00010000
01000000
00100000
00000000
10010000
00000000
,
00010000
00100000
01000000
00000000
10000000
00100000
00010000
00001000
,
00010000
00000000
00001000
00000010
00000100
00000000
00001001
00000000
,
00001000
00000010
00000100
00000000
00000001
00000010
00001000
00010000
,
00001000
00000000
00010000
00100000
01000000
00000000
10010000
00000000
,
10000000
00100000
00100000
00000000
00010000
00100000
00100000
00010000
,
00001000
00000000
00001000
00000100
00000001
00000000
00000110
00000000
,
00000001
00000100
00000100
00000000
00001000
00000100
00000100
00001000
,
00010000
00000000
00010000
00100000
10000000
00000000
01100000
00000000
,
10000000
00000000
00000000
00010000
00000000
00000000
10010000
00000000
,
00001000
00000000
00000000
00000001
00000000
00000000
00001001
00000000
,
00000001
00000110
00001000
00000110
,
00000100
00000001
00000100
00000001
00000010
00001000
00000010
00001000
,
01000000
00010000
01000000
00010000
00100000
10000000
00100000
10000000
,
00000000
00000000
00000000
00000000
,
00000000
00000000
00000000
00000000
,
00000000
01000000
00000000
01000000
01000000
00000000
01000000
00000000
,
00001000
00000000
00010000
00001000
00000000
00010000
00001000
00000000
,
00010000
00100000
10000000
10010000
,
01000000
00000000
00010000
00001000
00000000
00010000
00001000
00000000
,
00000010
00000001
00000010
00001010
,
00001000
00000000
00010000
00001000
00000000
00010000
00001000
00000000
,
00010000
01000000
10000000
00100000
,
10010000
00000000
01100000
00000000
,
10010000
00000000
00000000
00000000
00000000
00001000
00010000
00001000
,
00010000
00000000
00001000
00010000
00000000
00001000
00010000
00000000
,
00001000
00000100
00000001
00001001
,
00000010
00000000
00001000
00010000
00000000
00001000
00010000
00000000
,
01000000
10000000
01000000
01010000
,
00010000
00000000
00001000
00010000
00000000
00001000
00010000
00000000
,
00001000
00000010
00000001
00000100
,
00001001
00000000
00000110
00000000
,
00001001
00000000
00000000
00000000
00000000
00010000
00001000
00010000
,
00000000
00000000
00110000
00000000
,
01100000
00000000
10010000
00000000
,
01000000
00100000
01000000
00100000
00010000
00001000
00010000
00001000
,
00000100
00000010
00000100
00000010
00010000
00001000
00010000
00001000
,
00000000
00000000
00000000
00000000
,
00000000
00000000
00000000
00000000
,
00010000
00000000
00001000
00010000
00000000
00001000
00010000
00000000
,
00001000
00000010
00000001
00001001
,
00000100
00000000
00001000
00010000
00000000
00001000
00010000
00000000
,
00100000
10000000
00100000
00110000
,
00010000
00000000
00001000
00010000
00000000
00001000
00010000
00000000
,
00001000
00000100
00000001
00000010
,
00001001
00000000
00000110
00000000
,
00001001
00000000
00000000
00000000
00000000
00010000
00001000
00010000
,
00001000
00000000
00010000
00001000
00000000
00010000
00001000
00000000
,
00010000
01000000
10000000
10010000
,
00100000
00000000
00010000
00001000
00000000
00010000
00001000
00000000
,
00000100
00000001
00000100
00001100
,
00001000
00000000
00010000
00001000
00000000
00010000
00001000
00000000
,
00010000
00100000
10000000
01000000
,
10010000
00000000
01100000
00000000
,
10010000
00000000
00000000
00000000
00000000
00001000
00010000
00001000
;

//---------------dance-double - ----------------
#NOTES:
     dance-double:
     :
     Hard:
     17:
     0.887453,1.233623,0.868111,0.079643,0.565467,780.000000,671.000000,109.000000,10.000000,0.000000,0.000000,0.887453,1.233623,0.868111,0.079643,0.565467,780.000000,671.000000,109.000000,10.000000,0.000000,0.000000:
00000000
00000000
00000000
00000000
,
00000000
00000000
00000000
00000000
,
00000000
00000000
00000000
00000000
,
01000000
10000000
00100000
00010000
00000000
00001000
00000100
00000001
,
00000011
00001010
00001100
00000101
,
00000010
00000001
00000100
00001000
00000000
00010000
01000000
10000000
,
10100000
00000000
11000000
00000000
01010000
00000000
00010000
00011000
,
00000000
00001000
00000100
00000001
00000000
00001000
00000010
00000001
,
00000101
00000000
00001100
00000000
00011000
00000000
01000000
01100000
,
00000000
00000000
00000000
00100000
00101000
00000000
00000000
00010000
,
00011000
00000000
00000000
00000000
00000000
00002000
00003200
00000301
,
00000000
00000000
00000000
00000000
,
10000000
00100000
10000000
00000000
10000000
01000000
10000000
00000000
00010000
00100000
00010000
00000000
00010000
01000000
00010000
00000000
,
00100000
00010000
00100000
00000000
00001000
00010000
00001000
00000000
00010000
00001000
00010000
00000000
00000100
00001000
00000100
00000000
,
00001000
00000100
00000010
00000000
00000010
00000100
00001000
00000000
00000001
00000010
00000100
00000000
00000100
00000010
00000001
00000000
,
00000001
00000100
00001000
00000000
00000100
00001000
00010000
00000000
00001000
00010000
01000000
00000000
00010000
01000000
10000000
00000000
,
00010000
10000000
00010000
00000000
10000000
00010000
10000000
00000000
01000000
00100000
01000000
00000000
00100000
01000000
00100000
00000000
,
00001000
00010000
00001000
00000000
00010000
00001000
00010000
00000000
00000010
00001000
00000100
00000000
00001000
00000100
00000010
00000000
,
00000001
00000010
00000100
00000000
00001000
00000010
00000100
00000000
00000001
00000100
00000010
00000000
00001000
00000001
00001000
00000000
,
00001001
00000010
00000100
00001000
00010000
00100000
01000000
10000000
,
01010000
00010000
01000000
00010000
11000000
01000000
10000000
01000000
,
01010000
00001000
00010000
00001000
00011000
00000010
00001000
00000001
,
00001001
00000100
00000100
00000100
00001001
00000010
00000010
00001000
,
00010010
00001000
00000100
00010000
00110000
00100000
10000000
01000000
,
10010000
01000000
00010000
00001000
00000010
00000001
00000100
00001000
,
00011000
00010000
01000000
10000000
00100000
00010000
00001000
00000100
,
00001001
00000100
00000010
00000100
00001001
00000010
00000110
00001000
,
00002001
00003200
00020300
02030000
,
13000000
00100000
00000000
00100000
10000000
00000000
00010000
01000000
00000000
01000000
00010000
00000000
10000000
00000000
01000000
00000000
,
00010000
00001000
00000000
00001000
00010000
00000000
00000100
00001000
00000000
00001000
00000100
00000000
00000010
00000000
00000001
00000000
,
00001000
00000010
00000000
00001000
00000001
00000000
00001000
00000100
00000000
00001000
00000001
00000000
00000100
00000000
00000001
00000000
,
00000100
00000010
00000000
00000100
00001000
00000000
00000100
00000010
00000000
00000010
00001000
00000000
00000100
00000000
00010000
00000000
,
00020100
00000000
00000000
00000000
00030100
00000000
00010000
00000100
00000000
00001000
00000100
00000000
00010000
00000000
00001000
00000000
,
00021000
00000000
00000000
00000000
00031000
00000000
00100000
00001000
00000000
00100000
00010000
00000000
00100000
00000000
01000000
00000000
,
01100000
01000000
01010000
00010000
00011000
00001000
00001010
00000010
,
00000110
00000000
00000000
00000000
00001001
00000000
00000000
00000000
00000010
00000000
00000100
00000000
00000001
00001000
00000001
00001000
,
00000001
00000000
00000010
00000100
00000000
00000100
00000010
00001000
00010000
00000000
00010000
00100000
00000000
00010000
00001000
00010000
,
01000000
00000000
01000000
00100000
00000000
01000000
10000000
00010000
10000000
00000000
00010000
00100000
00000000
10000000
01000000
00010000
,
00001000
00000000
00010000
01000000
00000000
10000000
00100000
00010000
00100000
00000000
00010000
00001000
00000000
00001000
00000100
00000001
,
00000010
00000000
00000010
00000001
00000000
00000001
00001000
00000001
00000010
00000000
00001000
00000001
00000000
00001000
00000100
00000100
,
00000001
00000000
00000010
00001000
00000000
00001000
00010000
00001000
00000010
00000000
00001000
00010000
00000000
00010000
00001000
00100000
,
00010000
00000000
00100000
00001000
00000000
00100000
00010000
10000000
01000000
00000000
00100000
00010000
00000000
00001000
00010000
00001000
,
00000100
00000000
00000010
00000001
00000000
00001000
00000100
00001000
00000010
00000000
00000010
00000001
00000000
00000001
00000010
00001000
,
00010000
00001000
00010000
00001000
00000000
00010000
00001000
00010000
00001000
00000000
00010000
00000000
01000000
00100000
01000000
00100000
,
01100000
00010000
10000000
00010000
01100000
10000000
00010000
10000000
,
10010000
10000000
01000000
00010000
00011000
00001000
00000100
00000001
,
00001001
00000001
00001000
00000001
00000110
00001000
00000001
00001000
,
00011000
00000000
00001000
00000000
00001010
00000000
00000010
00000000
00000110
00000000
00000100
00000000
00000001
00001000
00000001
00001000
,
00000001
00001000
00000000
00000010
00000100
00000000
00000100
00001000
00000000
00010000
00001000
00000000
00011000
00000000
00010000
00000000
,
00100000
10000000
00000000
00010000
01000000
00000000
00010000
00100000
00000000
01000000
10000000
00000000
01100000
00000000
10010000
00000000
,
10000000
01000000
00010000
00100000
10000000
01000000
00010000
00100000
,
10000000
01000000
10000000
01000000
00100000
01000000
00100000
01000000
00100000
00010000
00100000
00010000
00100000
00001000
00100000
00001000
,
00010000
00000100
00010000
00000100
00001000
00000100
00001000
00000100
00000010
00000100
00000010
00000100
00000010
00000001
00000010
00000001
,
00000000
00000000
00000000
00000000
,
00000000
00000000
00000000
00000000
,
00000000
01100000
00000000
10000000
00100000
00010000
10010000
00000000
,
00100000
10000000
01000000
00010000
00000000
00001000
00000010
00000001
,
00000101
00001100
00001010
00000011
,
00000100
00000001
00000010
00001000
00000000
00010000
00100000
10000000
,
11000000
00000000
10100000
00000000
00110000
00000000
00010000
00011000
,
00000000
00001000
00000010
00000001
00000000
00001000
00000100
00000001
,
00000011
00000000
00001010
00000000
00011000
00000000
00100000
01100000
,
00000000
00000000
00000000
01000000
01001000
00000000
00000000
00010000
,
00011000
00000000
00000000
00000000
00000000
00001000
00000010
00000001
,
00000100
00000001
00000010
00001000
00000000
00010000
01000000
10000000
,
10100000
00110000
01010000
11000000
,
00100000
10000000
01000000
00010000
00000000
00001000
00000100
00000001
,
00000011
00000000
00000101
00000000
00001100
00000000
00001000
00011000
,
00000000
00010000
01000000
10000000
00000000
00010000
00100000
10000000
,
11000000
00000000
01010000
00000000
00011000
00000000
00000100
00000110
,
00000000
00000000
00000000
00000010
00010010
00000000
00000000
00001000
,
00011000
00000000
00000000
00000000
00000000
00010000
01000000
10000000
,
00000000
00000000
00000000
00010000
00110000
00000000
00000000
11000000
,
00000000
00000000
00000000
01010000
00000000
01001000
00000000
01010000
,
10000000
01000000
10000000
01000000
00010000
01000000
00010000
01000000
00010000
00001000
00010000
00001000
00000100
00001000
00000100
00001000
,
00000100
00000001
00000100
00000001
00000010
00000001
00000010
00000001
00000010
00001000
00000010
00001000
00010000
00001000
00010000
00001000
,
00000000
00000000
00000000
00000000
,
00000000
00000000
00000000
00000000
,
00000010
00000001
00000100
00001000
00000000
00010000
00100000
10000000
,
11000000
01010000
00110000
10100000
,
01000000
10000000
00100000
00010000
00000000
00001000
00000010
00000001
,
00000101
00000000
00000011
00000000
00001010
00000000
00001000
00011000
,
00000000
00010000
00100000
10000000
00000000
00010000
01000000
10000000
,
10100000
00000000
00110000
00000000
00011000
00000000
00000010
00000110
,
00000000
00000000
00000000
00000100
00010100
00000000
00000000
00001000
,
00011000
00000000
00000000
00000000
00000000
00010000
00100000
10000000
,
01000000
10000000
00100000
00010000
00000000
00001000
00000100
00000001
,
00000011
00001010
00001100
00000101
,
00000010
00000001
00000100
00001000
00000000
00010000
01000000
10000000
,
10100000
00000000
11000000
00000000
01010000
00000000
00010000
00011000
,
00000000
00001000
00000100
00000001
00000000
00001000
00000010
00000001
,
00000100
00000001
00000100
00000000
00001000
00000000
00010000
00000000
00001000
00010000
00001000
00000000
01000000
00000000
00100000
00000000
,
10010000
00000000
00010000
00100000
00101000
00000000
00000010
00010000
,
00011000
00000000
00000000
00000000
00000000
00002000
00003200
00000301
;

//---------------dance-double - ----------------
#NOTES:
     dance-double:
     :
     Challenge:
     19:
     1.213990,1.233623,0.708824,0.039822,1.242434,1067.000000,978.000000,89.000000,5.000000,0.000000,0.000000,1.213990,1.233623,0.708824,0.039822,1.242434,1067.000000,978.000000,89.000000,5.000000,0.000000,0.000000:
00000000
00000000
00000000
00000000
,
00000000
00000000
00000000
00000000
,
00000000
00000000
00000000
00000000
,
10000000
00100000
00010000
00001000
00000100
00000001
00000010
00001000
,
00011000
00010000
00110000
00100000
10100000
10000000
10010000
00100000
,
00001000
00000010
00000001
00000100
00001000
00010000
00100000
00010000
,
00110000
00010000
00010010
00000010
00001010
00001000
00001100
00000100
,
00000010
00000001
00000100
00001000
00100000
00010000
01000000
00001000
,
00101000
00100000
00110000
00010000
10010000
10000000
11000000
01000000
,
00100000
00010000
10000000
01000000
00010000
00001000
00010000
00100000
,
00010000
00001000
00000010
00000001
00001000
00000020
00000130
00001001
,
00000000
00000000
00000000
00000000
,
00000010
00000001
00000010
00000001
00000100
00000001
00000100
00000001
00000010
00000001
00000010
00000001
00000100
00000001
00000100
00000001
,
00001000
00000010
00001000
00000010
00000100
00000010
00000100
00000010
00001000
00000010
00001000
00000010
00000100
00000010
00000100
00000010
,
00001000
00000100
00001000
00000100
00010000
00000100
00010000
00000100
00010000
00001000
00010000
00001000
00100000
00001000
00100000
00001000
,
00100000
00010000
00100000
00010000
01000000
00010000
01000000
00010000
00100000
00010000
00100000
00010000
01000000
00010000
01000000
00010000
,
10000000
01000000
10000000
01000000
00010000
01000000
00010000
01000000
10000000
01000000
10000000
01000000
00010000
01000000
00010000
01000000
,
10000000
00100000
10000000
00100000
00010000
00100000
00010000
00100000
10000000
00100000
10000000
00100000
00010000
00100000
00010000
00100000
,
10000000
01000000
00010000
01000000
10000000
01000000
00010000
01000000
10000000
00100000
00010000
00100000
10000000
00100000
00010000
00100000
,
10000000
01000000
00010000
00001000
00100000
00001000
00000010
00000001
,
00001000
00000010
00010000
00000100
00001000
00000010
00010000
00000100
00001000
00000100
00010000
00000010
00001000
00000100
00010000
00000010
,
00001000
00000010
00010000
00000100
00001000
00000010
00010000
00000100
00001000
00000100
00010000
00000010
00001000
00000100
00010000
00000010
,
00001000
00000010
00000100
00000001
00001000
00000010
00000100
00000001
00001000
00000100
00000010
00000001
00001000
00000100
00000010
00000001
,
00001000
00000010
00000100
00000001
00001000
00000010
00000100
00000001
00001000
00000100
00000010
00000001
00001000
00000100
00000010
00000001
,
00001000
00000100
00000010
00000100
00001000
00000100
00000010
00000100
00001000
00000100
00010000
00000100
00001000
00000100
00010000
00000100
,
00010000
00001000
00010000
00000100
00010000
00001000
00010000
00000100
00010000
00001000
00010000
00000010
00010000
00001000
00010000
00000010
,
00010000
00001000
00000100
00000010
00010000
00001000
00000100
00000010
00001000
00000100
00000010
00000001
00001000
00000100
00000010
00000001
,
00000100
00000001
00001000
00000100
00010000
00001000
00100000
00010000
10000000
00100000
01000000
00010000
10000000
01000000
00010000
01000000
,
10000000
00100000
00000000
00010000
00100000
00000000
10000000
00100000
00000000
00010000
00100000
00000000
01100000
00000000
10010000
00000000
,
10000000
01000000
00000000
10000000
00010000
00000000
01000000
00010000
00000000
01000000
00001000
00000000
00011000
00000000
00010010
00000000
,
00010000
00001000
00000000
00010000
00000100
00000000
00001000
00000100
00000000
00001000
00000001
00000000
00001001
00000000
00000110
00000000
,
00000001
00000100
00000000
00001000
00000100
00000000
00000001
00000100
00000000
00001000
00000100
00000000
00000110
00000000
00001001
00000000
,
00000001
00000010
00000000
00001000
00000010
00000000
00000001
00000100
00000000
00001000
00000100
00000000
00000110
00000000
00001001
00000000
,
00000001
00000100
00000000
00000001
00001000
00000000
00000100
00001000
00000000
00000100
00010000
00000000
00011000
00000000
00101000
00000000
,
00001000
00010000
00000000
00001000
01000000
00000000
00010000
01000000
00000000
00010000
10000000
00000000
10010000
00000000
01100000
00000000
,
10010000
00000000
01000000
00000000
01100000
00000000
00010000
00000000
10010000
00000000
10000000
00000000
00010000
10000000
00010000
10000000
,
00010000
01000000
00001000
00100000
00010000
01000000
00001000
00100000
00010000
00100000
00001000
01000000
00010000
00100000
00001000
01000000
,
00010000
01000000
00001000
00100000
00010000
01000000
00001000
00100000
00010000
00100000
00001000
01000000
00010000
00100000
00001000
01000000
,
00010000
01000000
00100000
10000000
00010000
01000000
00100000
10000000
00010000
00100000
01000000
10000000
00010000
00100000
01000000
10000000
,
00010000
01000000
00100000
10000000
00010000
01000000
00100000
10000000
00010000
00100000
01000000
10000000
00010000
00100000
01000000
10000000
,
00010000
00100000
01000000
00100000
00010000
00100000
01000000
00100000
00010000
00100000
00001000
00100000
00010000
00100000
00001000
00100000
,
00001000
00010000
00001000
00100000
00001000
00010000
00001000
00100000
00001000
00010000
00001000
01000000
00001000
00010000
00001000
01000000
,
00001000
00010000
00100000
01000000
00001000
00010000
00100000
01000000
00010000
00100000
01000000
10000000
00010000
00100000
01000000
10000000
,
00100000
10000000
00010000
00100000
00001000
00010000
00000100
00001000
00000001
00000100
00000010
00001000
00000001
00000010
00001000
00000010
,
00000001
00000100
00000010
00001000
00000010
00000100
00000001
00000010
00000100
00001000
00000100
00000010
00000001
00000010
00001000
00010000
,
00010000
00001000
00010000
01000000
10000000
00100000
01000000
00010000
01000000
00100000
10000000
00100000
00010000
00100000
10000000
01000000
,
10000000
00100000
01000000
00010000
01000000
00100000
10000000
01000000
00100000
00010000
00100000
01000000
10000000
01000000
00010000
00001000
,
00001000
00010000
00001000
00000010
00000001
00000100
00000010
00001000
00000010
00000100
00000001
00000100
00001000
00000100
00000001
00000010
,
00000001
00000100
00000000
00001000
00000100
00000000
00001000
00010000
00000000
00010000
10000000
00000000
10010000
00000000
00000000
00000000
,
10000000
00100000
00000000
00010000
00100000
00000000
00010000
00001000
00000000
00001000
00000001
00000000
00001001
00000000
00001001
00000000
,
00000010
00000001
00000100
00000010
00001000
00000100
00010000
00001000
00100000
00010000
01000000
00100000
10000000
01000000
00010000
00001000
,
00010000
01000000
10000000
00100000
00010000
00001000
00000100
00000001
00000010
00001000
00010000
01000000
10000000
00100000
00010000
00001000
,
00000100
00000001
00000010
00001000
00010000
01000000
10000000
00100000
00010000
00001000
00000100
00000001
00000010
00001000
00010000
00001000
,
00000000
00000000
00000000
00000000
,
00000000
00000000
00000000
00000000
,
00000000
00010010
00000000
00101000
01010000
01100000
10010000
00000000
,
10000000
00100000
00010000
00001000
00000100
00000001
00000010
00001000
,
00011000
00010000
00110000
00100000
10100000
10000000
10010000
00100000
,
00001000
00000010
00000001
00000100
00001000
00010000
00100000
00010000
,
00110000
00010000
00010010
00000010
00001010
00001000
00001100
00000100
,
00000010
00000001
00000100
00001000
00100000
00010000
01000000
00001000
,
00101000
00100000
00110000
00010000
10010000
10000000
11000000
01000000
,
00100000
00010000
10000000
01000000
00010000
00001000
00010000
00100000
,
00010000
00001000
00000010
00000001
00001000
00000020
00000130
00001001
,
00000001
00000100
00001000
00010000
00100000
10000000
01000000
00010000
,
00011000
00001000
00001100
00000100
00000101
00000001
00001001
00000100
,
00010000
01000000
10000000
00100000
00010000
00001000
00000100
00001000
,
00001100
00001000
01001000
01000000
01010000
00010000
00110000
00100000
,
01000000
10000000
00100000
00010000
00000100
00001000
00000010
00010000
,
00010100
00000100
00001100
00001000
00001001
00000001
00000011
00000010
,
00000100
00001000
00000001
00000010
00001000
00010000
00001000
00000100
,
00001000
00010000
01000000
10000000
00010000
02000000
03100000
10010000
,
10000000
01000000
00010000
00001000
00011000
00001000
00000100
00001100
,
00000100
00000001
00000010
00001010
00001000
00010000
00100000
10000000
,
01000000
10000000
01000000
10000000
00010000
01000000
00010000
01000000
00001000
00010000
00001000
00010000
00000100
00001000
00000100
00001000
,
00000001
00000010
00000100
00001000
00000010
00000100
00001000
00010000
00001000
00010000
00100000
01000000
00010000
00100000
01000000
10000000
,
00000000
00000000
00000000
00000000
,
00000000
00000000
00000000
00000000
,
00000001
00000100
00001000
00010000
00100000
10000000
01000000
00010000
,
00011000
00001000
00001100
00000100
00000101
00000001
00001001
00000100
,
00010000
01000000
10000000
00100000
00010000
00001000
00000100
00001000
,
00001100
00001000
01001000
01000000
01010000
00010000
00110000
00100000
,
01000000
10000000
00100000
00010000
00000100
00001000
00000010
00010000
,
00010100
00000100
00001100
00001000
00001001
00000001
00000011
00000010
,
00000100
00001000
00000001
00000010
00001000
00010000
00001000
00000100
,
00001000
00010000
01000000
10000000
00010000
02000000
03100000
10010000
,
10000000
00100000
00010000
00001000
00000100
00000001
00000010
00001000
,
00011000
00010000
00110000
00100000
10100000
10000000
10010000
00100000
,
00001000
00000010
00000001
00000100
00001000
00010000
00100000
00010000
,
00110000
00010000
00010010
00000010
00001010
00001000
00001100
00000100
,
00000010
00000001
00000100
00001000
00100000
00010000
01000000
00001000
,
00010000
00001000
01000000
00010000
10000000
01000000
00100000
00010000
01000000
00001000
00010000
00001000
00010000
00000100
00001000
00000100
,
00001000
00000010
00000100
00000001
00001000
00000010
00000100
00000001
00000010
00001000
00010000
00001000
00010000
01000000
10000000
00100000
,
00010000
00000000
00001000
00000100
00000001
00000000
00001000
00000010
00000001
00000000
00000200
00000000
00000310
00000000
00001001
00000000
;

//---------------dance-single - ----------------
#NOTES:
     dance-single:
     :
     Challenge:
     18:
     1.080872,1.235266,0.485824,0.087608,1.122969,950.000000,889.000000,61.000000,11.000000,0.000000,0.000000,1.080872,1.235266,0.485824,0.087608,1.122969,950.000000,889.000000,61.000000,11.000000,0.000000,0.000000:
0000
0000
0000
0000
,
0000
0000
0000
0000
,
0000
0000
0000
0000
,
1000
0100
0001
0100
1000
0001
0100
0010
,
1000
1010
0001
0011
,
0100
1000
0001
1000
0100
0010
0001
0100
,
0010
0000
1010
0000
0100
0000
0011
0001
,
1000
0100
0010
0001
0100
0010
1000
0001
,
1000
0000
1100
0000
0001
0000
0101
0010
,
1000
0000
1100
0010
0001
0000
0110
0100
,
2000
0000
3010
0000
0100
0001
1000
0010
,
0000
0000
0000
0000
,
1000
0100
1000
0100
0010
0100
0010
0100
1000
0100
1000
0100
1000
0001
1000
0001
,
0010
0100
0010
0100
0010
0001
0010
0001
1000
0001
1000
0001
0100
0010
0100
0010
,
1000
0010
1000
0010
1000
0100
1000
0100
1000
0001
1000
0001
0010
0100
0010
0100
,
1000
0001
1000
0001
0010
0001
0010
0001
0100
0001
0100
0001
1000
0010
1000
0010
,
1000
0100
0010
0001
1000
0100
0010
0001
1000
0100
0010
0001
1000
0100
0010
0001
,
1000
0010
0100
0001
1000
0010
0100
0001
1000
0010
0100
0001
1000
0010
0100
0001
,
1000
0100
0010
0001
1000
0100
0010
0001
0100
0010
1000
0001
0100
0010
1000
0001
,
2000
3200
0320
0032
0023
0230
2300
3002
,
1003
0010
0100
0001
1000
0010
0100
0001
1000
0010
0100
0001
1000
0010
0100
0001
,
1000
0100
0010
0001
1000
0100
0010
0001
1000
0100
0010
0001
1000
0100
0010
0001
,
0100
0010
1000
0001
0100
0010
1000
0001
0100
0010
1000
0001
0100
0010
1000
0001
,
0010
0100
1000
0001
0010
0100
1000
0001
0010
0100
1000
0001
0010
0100
1000
0001
,
1000
0100
0010
0100
1000
0001
1000
0001
0100
0010
0100
0010
0100
0001
0100
0001
,
1000
0010
0100
0010
1000
0001
1000
0001
0010
0100
0010
0100
0010
0001
0010
0001
,
1000
0100
0010
0001
1000
0100
0010
0001
1000
0100
1000
0001
1000
0100
1000
0001
,
0100
0010
1000
0001
0010
0100
1000
0001
,
1000
0100
0000
1000
0100
0000
0010
0001
0000
0010
0001
0000
1001
0000
1100
0000
,
1000
0010
0000
1000
0010
0000
0100
0001
0000
0100
0001
0000
1001
0000
1010
0000
,
0100
0001
0000
0100
0001
0000
0010
0100
0000
0010
0100
0000
0110
0000
0110
0000
,
0010
0001
0000
0010
0001
0000
0100
0010
0000
0100
0010
0000
0110
0000
0110
0000
,
0100
0001
0000
0100
0010
0000
0100
0001
1000
0001
0000
0100
0010
0000
1000
0100
,
0010
0100
0000
1000
0001
0000
1000
0100
1000
0001
0000
0100
0010
0000
0100
0010
,
1000
0100
0000
0100
1000
0001
0000
0001
0100
0010
0000
0010
1000
0001
0000
0001
,
0010
0000
0100
0000
0010
0000
0100
0000
1000
0000
1000
0000
0100
0010
0100
0010
,
0001
0010
0100
1000
0100
0010
0001
0010
0001
1000
0001
0010
0100
1000
0001
1000
,
0001
0100
0010
1000
0001
0100
0010
0100
0001
1000
0010
0100
0010
1000
0001
1000
,
0001
0100
0010
1000
0010
0100
0001
0100
0001
1000
0001
0100
0010
1000
0001
1000
,
0001
0010
0100
1000
0001
0010
0100
0010
0001
1000
0100
0010
0100
1000
0001
1000
,
0001
0010
0100
0010
0001
0010
0100
0010
0001
1000
0100
1000
0001
1000
0100
1000
,
0001
0100
0010
0100
0001
0100
0010
0100
0001
1000
0010
1000
0001
1000
0010
1000
,
0001
0010
0100
1000
0001
0010
0100
1000
0001
0100
0010
1000
0001
0100
0010
1000
,
0001
0000
0010
0000
1000
0000
0010
0000
0001
0000
0001
0000
0010
0100
0010
0100
,
1000
0100
0010
0001
0010
0100
1000
0100
1000
0001
1000
0100
0010
0001
1000
0001
,
1000
0010
0100
0001
1000
0010
0100
0010
1000
0001
0100
0010
0100
0001
1000
0001
,
1000
0010
0100
0001
0100
0010
1000
0010
1000
0001
1000
0010
0100
0001
1000
0001
,
1000
0100
0010
0001
1000
0100
0010
0100
1000
0001
0010
0100
0010
0001
1000
0001
,
1000
0100
0000
1000
0100
0000
0001
0100
0000
0001
0100
0000
0110
0000
1001
0000
,
0001
0010
0000
0001
0010
0000
1000
0010
0000
1000
0010
0000
0110
0000
1001
0000
,
1000
0100
1000
0000
0001
0010
0001
0000
1000
0010
1000
0000
0001
0100
0001
0000
,
1000
0010
1000
0010
0100
0010
0100
0010
0100
0001
0100
0001
0100
0010
0100
0010
,
1000
0001
1000
0001
1000
0100
1000
0100
0010
0100
0010
0100
0010
0001
0010
0001
,
0000
0000
0000
0000
,
0000
0000
0000
0000
,
0000
0100
0000
0100
0100
0010
1001
0000
,
1000
0010
0001
0010
1000
0001
0010
0100
,
1000
1100
0001
0101
,
0010
1000
0001
1000
0010
0100
0001
0010
,
0100
0000
1100
0000
0010
0000
0101
0001
,
1000
0010
0100
0001
0010
0100
1000
0001
,
1000
0000
1010
0000
0100
0000
0011
0100
,
0010
0000
0001
0100
0101
0000
1000
0010
,
1010
0000
0100
0000
0001
1000
0100
0010
,
0001
0010
1000
0010
0001
1000
0010
0100
,
0001
0100
0101
0000
1000
0100
1100
0000
,
0010
0001
1000
0001
0010
0100
1000
0010
,
0100
0001
0100
0000
0110
0000
0010
1000
,
0001
0010
0100
1000
0100
0010
0001
1000
,
0001
0000
0011
0000
1100
0000
1000
0010
,
1010
0000
1000
0100
1100
0000
0001
0100
,
0101
0000
0010
0000
1000
0001
0010
0100
,
1000
0000
0100
0010
0110
0000
1000
0001
,
1001
0000
0001
0100
0010
0100
0001
0000
,
1000
0100
1000
0100
0010
0100
0010
0100
,
1000
0100
1000
0000
0010
1000
0010
0000
0100
0001
0010
0100
1000
0001
1000
0001
,
0000
0000
0000
0000
,
0000
0000
0000
0000
,
0101
0100
0010
1000
0100
0010
0100
1000
,
0001
0010
0110
0000
1000
0010
1010
0000
,
0100
0001
1000
0100
0010
0001
0010
0100
,
1000
0001
1001
0000
0011
0000
1100
0100
,
0010
0010
0001
0001
1000
0010
0100
0001
,
0100
0010
1010
0000
0101
0000
1001
0001
,
0100
0100
0010
1000
1001
0001
1000
0100
,
2100
0000
0100
0000
3100
0010
0100
1000
,
1100
0100
0010
0001
0100
0010
0100
0001
,
1000
0010
0110
0100
0101
0001
0011
0000
,
0100
1000
0001
0100
0010
1000
0010
0100
,
0001
1000
1001
0000
1100
0000
0011
0001
,
1000
0100
1000
0001
0100
0001
0100
0010
,
1000
0000
1100
0000
0101
0000
0110
0001
,
1000
0010
1000
0010
0100
0001
0100
0001
1000
0100
0010
0001
0010
0100
1000
0001
,
2000
0000
0100
0000
3100
0001
0100
1000
,
1001
0000
0000
0000
;

//---------------dance-single - ----------------
#NOTES:
     dance-single:
     :
     Hard:
     17:
     0.884040,1.235266,0.414145,0.183179,0.545556,777.000000,725.000000,52.000000,23.000000,0.000000,0.000000,0.884040,1.235266,0.414145,0.183179,0.545556,777.000000,725.000000,52.000000,23.000000,0.000000,0.000000:
0000
0000
0000
0000
,
0000
0000
0000
0000
,
0000
0000
0000
0000
,
1000
0100
0010
0001
0000
0001
0010
0100
,
1000
1100
0001
0101
,
0010
1000
0001
0100
0000
0100
0001
1000
,
0010
0000
0011
0000
0010
0000
1010
1000
,
0000
0100
0010
0001
0000
0010
0100
1000
,
0001
0000
1100
0000
0010
0000
0101
0001
,
1000
0000
0001
0010
0001
0000
1000
0100
,
2000
0000
0100
0000
3001
0100
0010
1000
,
0000
0000
0000
0000
,
0011
0000
0100
0010
0100
0000
0001
0100
0001
0000
0100
1000
0100
0000
1000
0001
,
1000
0000
0001
0100
0001
0000
0100
0010
0100
0000
0010
1000
0010
0000
1000
0100
,
0010
0000
0100
0010
0001
0000
0010
0100
1000
0000
0100
1000
0001
0000
0100
0010
,
1000
0000
0010
0100
0001
0000
0100
0010
1000
0000
0100
0010
0001
0000
0010
0100
,
1000
0000
0100
1000
0100
0000
1000
0100
1000
0000
0100
1000
0100
0000
1000
0010
,
0100
0000
0001
0100
0001
0000
0100
0001
0100
0000
0001
0100
0001
0000
0100
0001
,
0010
0000
0100
1000
0100
0000
1000
0100
1000
0000
0100
1000
0100
0000
1000
0001
,
1000
0010
1000
0010
0100
0001
0010
0100
,
1100
0000
0010
0100
0010
0000
1000
0010
1000
0000
0010
0001
0010
0000
0001
1000
,
0001
0000
1000
0010
1000
0000
0010
0100
0010
0000
0100
0001
0100
0000
0001
0010
,
0100
0000
0010
0100
1000
0000
0100
0010
0001
0000
0010
0001
1000
0000
0010
0100
,
0001
0000
0100
0010
1000
0000
0010
0100
0001
0000
0010
0100
1000
0000
0100
0010
,
0001
0010
0001
0010
0100
1000
0010
1000
,
1010
0010
1000
0010
0100
0001
0010
0001
,
0011
0001
1000
0100
1100
1000
1010
0010
,
0120
0001
1000
1030
,
0001
0010
0000
0001
0010
0000
1000
0010
0000
1000
0010
0000
0001
0000
1000
0000
,
0001
0100
0000
0001
0100
0000
0010
1000
0000
0010
1000
0000
0010
0000
0100
0000
,
0001
0100
0000
0001
0100
0000
1000
0100
0000
1000
0100
0000
0001
0000
1000
0000
,
0001
0010
0000
0001
0010
0000
0100
1000
0000
0100
1000
0000
0100
0000
0010
0000
,
0001
0010
0000
0010
0001
0000
0100
0000
0010
1000
0000
1000
0010
0000
0100
0000
,
0001
1000
0000
1000
0001
0000
0010
0000
0100
0010
0000
0010
0100
0000
1000
0000
,
0001
1000
0000
1000
0100
1000
0000
0001
0100
0001
0000
0001
0100
0001
0000
1000
,
0002
0000
0000
0000
0100
0000
0000
0000
0103
0000
0001
0000
1000
0100
1000
0100
,
0010
0001
1000
0001
0010
0000
0010
0100
1000
0000
0010
0000
0100
0000
0001
0000
,
1000
0000
0001
0010
0001
0000
0010
0100
0010
0000
0001
0000
1000
0100
1000
0100
,
1000
0000
1000
0001
0010
0100
1000
0100
1000
0000
0001
0000
0100
0000
0010
0000
,
1000
0000
0001
0100
0001
0000
0100
0010
0100
0000
0001
0000
1000
0000
0000
0000
,
0100
1000
0001
1000
0100
0000
0100
0010
0001
0000
0100
0000
0010
0000
1000
0000
,
0001
0000
1000
0100
1000
0000
0100
0010
0100
0000
1000
0000
0001
0010
0001
0010
,
0001
0000
1000
0100
0010
0000
0001
0010
0001
0000
1000
0000
0010
0000
0100
0000
,
0002
0000
2003
0000
3200
0000
2300
0000
3002
0000
0023
0000
0130
1000
0100
1000
,
0001
0010
0001
0000
0100
0000
0001
0000
1000
0000
0010
0000
0001
0000
0010
0000
,
1000
0000
0001
0100
0010
0000
1000
0100
0010
0000
0001
0000
1001
0000
0000
0000
,
1000
0100
1000
0000
0010
0000
1000
0000
0001
0000
0100
0000
1000
0000
0100
0000
,
0001
0000
1000
0010
0100
0000
0001
0010
0100
0000
1000
0000
0100
0010
0100
0010
,
0001
1000
0000
0001
0010
0000
0001
1000
0000
0001
0010
0000
1100
0000
0001
0000
,
0100
0010
0000
0100
0001
0000
0100
0010
0000
0100
0001
0000
0011
0000
0100
0000
,
2000
0000
3001
0010
0002
0000
1003
0100
2000
0000
3001
0100
0002
0000
0103
0010
,
1000
0100
1000
0100
0010
0100
0010
0100
0010
0001
0010
0001
1000
0001
1000
0001
,
1000
0010
1000
0010
0100
0001
0100
0001
1000
0100
0010
0001
0010
0100
1000
0001
,
0000
0000
0000
0000
,
0000
0000
0000
0000
,
0000
0100
0000
0100
0010
0100
0110
0000
,
0001
0010
0100
1000
0001
1000
0100
0010
,
0001
0010
0011
0000
1000
0010
1010
0000
,
0100
0001
1000
0010
0100
0010
1000
0001
,
0100
0000
1100
0000
0100
0000
0101
0001
,
0010
0100
1000
0001
1000
0100
0010
0001
,
1000
0000
0011
0000
0100
0000
0010
1000
,
0010
0000
1000
0100
1000
0000
0001
0010
,
0002
0000
0010
0000
1003
0010
0100
0001
,
1000
0100
0010
0001
1000
0001
0010
0100
,
1000
0100
1100
0000
0001
0100
0101
0000
,
0010
1000
0001
0100
0010
0100
0001
1000
,
0010
0000
0011
0000
0010
0000
1010
1000
,
0100
0010
0001
1000
0001
0010
0100
1000
,
0001
0000
1100
0000
0010
0000
0100
0001
,
0200
0000
0301
0010
0002
0000
1003
0100
,
2000
0000
3100
1000
0001
0100
0010
1000
,
0002
0000
0013
0001
0020
0000
0031
0100
,
0002
0000
1003
0010
1000
0001
0010
0000
,
0100
1000
0100
1000
0001
0010
0100
1000
,
0001
0001
0100
0100
0010
1000
0001
1000
,
0000
0000
0000
0000
,
0000
0000
0000
0000
,
0001
0010
0100
1000
0001
0100
0010
1000
,
1010
0110
1100
0101
,
1000
0010
0100
0001
1000
0100
0010
0001
,
1001
0000
1100
0000
0101
0000
0011
0001
,
1000
0100
1000
0001
0010
0100
1000
0001
,
0101
0000
1010
0000
0110
0000
0101
0001
,
0010
0000
0100
0010
0011
0000
0001
0100
,
2002
0000
3003
0000
0001
0010
0100
1000
,
0100
0010
0001
1000
0001
0010
0100
1000
,
1010
0010
0110
0000
0011
0010
0110
0000
,
0010
0100
1000
0001
1000
0100
0010
0001
,
0101
0100
0110
0000
1100
0000
0110
0001
,
1000
0010
0100
0010
0000
1000
0100
0010
,
0100
0000
1100
0000
0010
0000
0101
0001
,
1000
0010
1000
0010
0100
0001
0010
0100
,
2000
0000
0100
0000
3001
0100
0010
1000
,
1001
0000
0000
0000
;

//---------------dance-single - ----------------
#NOTES:
     dance-single:
     :
     Medium:
     13:
     0.690620,0.748646,0.350430,0.103536,0.047786,607.000000,563.000000,44.000000,13.000000,0.000000,0.000000,0.690620,0.748646,0.350430,0.103536,0.047786,607.000000,563.000000,44.000000,13.000000,0.000000,0.000000:
0000
0000
0000
0000
,
0000
0000
0000
0000
,
0000
0000
0000
0000
,
1000
0100
1000
0100
0000
0001
0100
1000
,
0001
0101
0010
1010
,
0001
0010
1000
0010
0000
0001
1000
0100
,
1000
0000
1010
0000
0001
0000
0010
0100
,
0000
1000
0010
1000
0000
0100
0010
0001
,
1000
0000
1010
0000
0100
0000
0010
1000
,
0010
0000
1000
0100
1000
0000
0001
0100
,
0002
0000
1003
0000
1000
0100
0010
0001
,
0000
0000
0000
0000
,
1000
0100
0001
0100
1000
0100
0001
0100
,
1000
0001
0100
0001
1000
0001
0100
0010
,
1000
0010
0001
0010
1000
0010
0001
0010
,
1000
0001
0010
0001
1000
0001
0010
0100
,
1000
0010
1000
0100
0010
0100
1000
0001
,
0100
0010
0100
0001
0010
0100
0010
0001
,
1000
0010
0100
0010
0001
1000
0100
0010
,
0200
1000
0010
0310
,
1010
0010
0100
0010
1000
0010
0100
0001
,
1000
0100
0010
0100
1000
0100
0010
0001
,
0100
0010
0100
0001
0100
0010
0100
0001
,
0010
0100
0010
0001
0010
0100
0010
0001
,
0011
0001
0100
0010
0100
1000
0100
0001
,
0101
0001
0010
0100
0010
1000
0010
0001
,
0011
0001
0100
0010
1010
0000
0011
0000
,
0210
0001
0010
0310
,
0100
0000
0000
1000
0000
0000
0010
0000
0000
0001
0000
0000
0010
0000
1000
0000
,
0100
0000
0000
0010
0000
0000
0100
0000
0000
1000
0000
0000
0001
0000
0101
0000
,
0010
0000
0000
1000
0000
0000
0001
0000
0000
0010
0000
0000
1000
0000
0010
0000
,
0001
0000
0000
0100
0000
0000
0010
0000
0000
1000
0000
0000
0001
0000
0011
0000
,
0200
0000
0010
0000
0300
0000
0001
0100
,
0120
0000
1000
0000
0030
0000
0100
0010
,
0110
1001
0101
1100
,
0210
0000
0320
0000
0031
0100
0020
0000
,
1030
0100
1000
0100
0001
0100
1000
0001
,
0100
0010
1000
0001
1000
0010
0100
0010
,
1000
0001
1000
0100
1000
0001
0010
0100
,
1000
0010
1000
0010
0100
0010
1001
0000
,
0001
0100
0001
0100
1000
0100
0001
1000
,
0100
0010
0001
1000
0001
0010
0100
0010
,
0001
1000
0001
0100
0001
1000
0010
0100
,
0002
0000
1000
0000
0013
0100
2000
0000
,
3001
0010
1000
0010
0001
1000
0001
0010
,
0100
0010
0100
0010
0001
0100
0010
0000
,
1000
0100
0001
0100
1000
0001
1000
0100
,
0010
0100
0010
0100
1000
0010
0100
0100
,
0010
0000
0000
1000
0000
0000
0100
0000
0000
1000
0000
0000
1010
0000
0000
0000
,
0010
0000
0000
0001
0000
0000
0100
0000
0000
0001
0000
0000
0011
0000
0110
0000
,
1000
1000
0010
0010
0100
0100
0001
0001
,
1000
0100
1000
0100
0010
0001
0010
0001
,
1000
0100
0001
0100
1000
0010
0001
0010
,
0000
0000
0000
0000
,
0000
0000
0000
0000
,
0000
0100
0000
0100
0010
0000
1001
0000
,
0001
0010
0001
0010
0000
1000
0010
0001
,
1000
1010
0100
0101
,
1000
0100
0001
0100
0000
1000
0001
0010
,
0001
0000
0101
0000
1000
0000
0100
0010
,
0000
0001
0100
0001
0000
0010
0100
1000
,
0001
0000
0101
0000
0010
0000
0100
0001
,
0100
0000
0001
0010
0001
0000
1000
0010
,
1000
0000
0001
0000
1000
0100
0010
0001
,
1000
0010
1000
0010
0001
0010
1000
0001
,
0010
1100
0010
0101
,
0001
0100
1000
0100
0001
1000
0010
0100
,
0001
0000
1100
0000
0010
0000
1100
0001
,
0100
0010
0100
0010
1000
0100
0010
0001
,
0100
0000
1010
0000
0001
0000
0010
0100
,
0010
0000
0001
0100
0001
0000
1000
0100
,
1000
0000
0001
0000
0001
0100
0010
1000
,
0001
0000
0001
0010
0001
0000
1000
0100
,
1000
0000
0010
0100
0020
0000
0130
0000
,
0001
1000
0001
1000
0100
0010
0100
0010
,
0001
0010
0100
1000
0010
0100
0001
1000
,
0000
0000
0000
0000
,
0000
0000
0000
0000
,
0001
0010
0001
0010
0100
1000
0001
0100
,
0010
1001
0010
1100
,
0001
1000
0100
0010
0100
0010
0001
1000
,
0010
0000
1100
0000
0010
0000
0101
0001
,
1000
0010
1000
0010
0100
0001
0010
0100
,
1000
0000
1100
0000
0010
0000
1001
0001
,
0100
0000
0010
1000
0010
0000
1000
0100
,
2000
0000
0001
0000
3001
0010
0100
0010
,
0001
0100
0001
0100
0010
1000
0001
0010
,
0100
0010
0011
0000
0100
0010
1010
0000
,
0001
1000
0010
0100
0010
0100
0001
1000
,
0100
1000
0001
0000
0110
0000
1000
0001
,
1000
0100
1000
0100
0000
0010
0100
1000
,
0010
0000
0101
0000
1000
0000
1000
0100
,
0010
0001
0010
0001
0100
0010
1000
0100
,
0020
0000
0100
0000
0130
1000
0001
1000
,
1001
0000
0000
0000
;

//---------------dance-single - ----------------
#NOTES:
     dance-single:
     :
     Easy:
     10:
     0.474446,0.524052,0.406180,0.143358,0.000000,417.000000,366.000000,51.000000,18.000000,0.000000,0.000000,0.474446,0.524052,0.406180,0.143358,0.000000,417.000000,366.000000,51.000000,18.000000,0.000000,0.000000:
0000
0000
0000
0000
,
0000
0000
0000
0000
,
0000
0000
0000
0000
,
0010
0000
1000
0100
0000
0001
0100
0000
,
1000
0001
0010
0110
,
0001
0000
1000
0010
0000
0001
0010
0000
,
1000
0100
1000
1001
,
0001
0000
0010
0100
0000
1000
0010
0000
,
1000
0000
0100
0000
0010
0000
0001
0001
,
0100
0000
0000
0010
1000
0000
0000
0100
,
0010
0000
0000
0000
0000
1000
0010
0001
,
0000
0000
0000
0000
,
1000
0100
1000
0000
0010
1000
0010
0000
,
0001
0010
0001
0000
0100
0001
0100
0000
,
1000
0100
1000
0000
0010
1000
0010
0000
,
0100
1000
0100
0000
0001
0100
0001
0000
,
1000
1100
0010
1100
,
0001
0011
0100
0011
,
0001
0110
1000
0110
,
1002
0203
0320
2030
,
3001
0101
0001
0011
,
0001
0101
0001
1001
,
1000
1100
1000
1010
,
1000
1100
1000
1001
,
0110
1000
0100
1000
,
0110
0001
0100
0001
,
0110
1000
0110
1001
,
0120
0100
0100
0130
,
0001
0000
0000
0010
0000
0000
0110
0000
,
1000
0000
0000
0001
0000
0000
0101
0000
,
0010
0000
0000
1000
0000
0000
1100
0000
,
1000
0000
0000
0001
0000
0000
0110
0000
,
1001
0100
0000
0100
,
1001
0010
0000
0010
,
0100
0100
0010
0010
,
0200
0000
0010
0310
,
1001
0000
0010
0000
0100
0001
0100
0000
,
1000
0000
1000
0000
0010
1000
0010
0000
,
0100
0000
0100
0000
0001
0010
0001
0000
,
0010
0100
0000
0100
0010
0000
1100
0000
,
0001
0000
0001
0000
0010
0100
0010
0000
,
0001
0000
0001
0000
0100
1000
0100
0000
,
0010
0000
0010
0000
1000
0100
0001
0000
,
0200
0000
0310
0110
,
1000
0100
1000
0100
0000
1000
0010
0000
,
0100
0001
1000
0110
,
0001
0010
0001
0010
0000
0001
0100
0000
,
0010
1000
0001
0110
,
0001
0000
0000
0001
0000
0000
0110
0000
,
1000
0000
0000
1000
0000
0000
0110
0000
,
1000
1000
0100
0100
,
0002
0023
2030
3020
,
0032
0203
2300
3002
,
0003
0000
0000
0000
,
0000
0000
0000
0000
,
0000
0100
0000
0000
0100
0000
1001
0000
,
0001
0000
0010
0100
0000
0010
0100
0000
,
1000
0001
1000
1100
,
0001
0000
0100
0010
0000
0100
0010
0000
,
1000
0100
0001
0110
,
1000
0000
0001
0010
0000
1000
0010
0000
,
0001
0100
0010
1000
,
0110
0000
0000
0001
0010
0000
0000
0100
,
1000
0000
0000
0000
0000
0100
0001
0100
,
1000
0000
0010
0100
0000
0010
0100
0000
,
0001
1000
0001
0101
,
1000
0000
0100
0010
0000
0100
0010
0000
,
0001
0100
1000
0110
,
0001
0000
1000
0010
0000
0001
0010
0000
,
1000
0100
0010
0001
,
0110
0000
0000
1000
0010
0000
0000
0100
,
0001
0000
0000
0000
0000
0100
1000
0100
,
0000
0000
0000
0001
0010
0000
0000
0100
,
1000
0000
0000
0001
0000
0000
0000
0000
,
2000
0000
0000
3001
0200
0000
0000
0310
,
2000
0000
0000
0000
0000
3100
0010
0100
,
0000
0000
0000
0000
,
0000
0000
0000
0000
,
1000
0100
1000
0000
0001
0000
0100
0000
,
0010
0110
0010
1010
,
0001
0100
0001
0000
1000
0000
0100
0000
,
0001
0100
1000
1010
,
1000
0000
0100
0000
0010
0100
0010
0000
,
0001
0100
0010
1000
,
1100
0000
0000
0010
0100
0000
0000
1000
,
0001
0000
0000
0000
0000
0001
0100
0001
,
1000
0010
1000
0000
0001
0000
0010
0000
,
0100
0110
0100
1100
,
0001
0010
0001
0000
1000
0000
0010
0000
,
0001
0010
1000
1100
,
0010
0000
0001
0100
0000
1000
0100
0000
,
0001
0010
0100
1000
,
1010
0000
0000
0100
0010
0000
0000
1000
,
0100
0000
0000
0000
0000
0010
0100
1000
,
0001
0000
0000
0000
;

//---------------dance-single - ----------------
#NOTES:
     dance-single:
     :
     Beginner:
     4:
     0.194557,0.299458,0.111500,0.007964,0.000000,171.000000,157.000000,14.000000,1.000000,0.000000,0.000000,0.194557,0.299458,0.111500,0.007964,0.000000,171.000000,157.000000,14.000000,1.000000,0.000000,0.000000:
0000
0000
0000
0000
,
0000
0000
0000
0000
,
0000
0000
0000
0000
,
0100
0000
0000
0000
,
0100
0000
0000
0000
,
0010
0000
0000
0000
,
0010
0000
0000
0000
,
1000
0000
0000
0000
,
0001
0000
0000
0000
,
0010
0000
0010
0000
,
1000
0000
0000
0001
,
0000
0000
0000
0000
,
0100
0000
0100
0000
,
1000
0000
1000
0000
,
0010
0000
0010
0000
,
0001
0000
0001
0000
,
1000
0000
1000
0000
,
1000
0000
1000
0000
,
0001
0000
0100
0000
,
0110
0000
0000
0000
,
1000
1000
1000
0000
,
1000
1000
1000
0000
,
0001
0001
0001
0000
,
0001
0001
0001
0000
,
1001
0000
0000
0000
,
1001
0000
0000
0000
,
1001
0000
0110
0000
,
1001
0000
0000
0000
,
0100
0000
0000
0000
,
0100
0000
0000
0000
,
0100
0000
0000
0000
,
0100
0000
0000
0000
,
1001
0000
0000
0000
,
0110
0000
0000
0000
,
1001
0000
0010
0010
,
0010
0000
0000
0000
,
0100
0000
0010
0010
,
0000
0000
0001
0000
,
1000
0000
0001
0001
,
0000
1000
1000
0000
,
0010
0000
0100
0100
,
0000
0000
1000
0000
,
0001
0000
1000
1000
,
0000
0001
0001
0001
,
0001
0000
0100
0000
,
1000
0000
1001
0000
,
0001
0000
0010
0000
,
0001
0000
0001
1000
,
1000
0000
0000
0100
,
0100
0000
0000
0001
,
0001
0000
1000
0000
,
0020
0000
0000
0000
,
0000
0000
0000
0000
,
0030
0000
0000
0000
,
0000
0000
0000
0000
,
0000
0000
0000
0000
,
0100
0000
0000
0000
,
0100
0000
0000
0000
,
0010
0000
0000
0000
,
0010
0000
0000
0000
,
1000
0000
0000
0000
,
0001
0000
0000
0000
,
0010
0000
0010
0000
,
1000
0000
0000
0000
,
0010
0000
0100
0000
,
0010
0000
0010
0000
,
0100
0000
1000
0000
,
0010
0000
0010
0000
,
1000
0000
0001
0000
,
1000
0000
1000
0000
,
0100
0000
0100
0000
,
0100
0000
1001
0000
,
0010
0000
0010
0000
,
0010
0000
0110
0000
,
0100
0100
0100
0000
,
0010
0000
0100
0100
,
0000
0000
0000
0000
,
0000
0000
0000
0000
,
1000
1000
1000
0000
,
0100
0000
0001
0000
,
0100
0100
0100
0000
,
1000
0000
0001
0000
,
0010
0010
0010
0000
,
0010
0010
0010
0000
,
1000
0000
0100
0000
,
1001
0000
0000
0000
,
0001
0001
0001
0000
,
0010
0000
1000
0000
,
0010
0010
0010
0000
,
0001
0000
1000
0000
,
0100
0000
0000
0000
,
0100
0000
0000
0000
,
0001
0000
0010
0000
,
1000
0000
0000
0000
,
1001
0000
0000
0000
;
