#TITLE:13 Donkeys;
#SUBTITLE:;
#ARTIST:Massive New Krew;
#TITLETRANSLIT:;
#SUBTITLETRANSLIT:;
#ARTISTTRANSLIT:;
#GENRE:Crossover;
#CREDIT:;
#BANNER:13 Donkeys.png;
#BACKGROUND:13 Donkeys-bg.png;
#LYRICSPATH:;
#CDTITLE:../cdtitle.png;
#MUSIC:13 Donkeys.ogg;
#OFFSET:1.119000;
#SAMPLESTART:80.943001;
#SAMPLELENGTH:15.000000;
#LASTBEATHINT:0.307417;
#SELECTABLE:YES;
#DISPLAYBPM:155.000000;
#BPMS:0.000000=155.000000
,95.000000=77.500000
,95.250000=155.000000
,95.500000=310.000000
,96.000000=77.500000
,96.250000=155.000000
,96.500000=310.000000
,97.000000=155.000000
;
#STOPS:63.750000=1.161000,
147.500000=0.387000,
150.500000=0.387000,
199.000000=2.710000,
259.750000=1.161000
;
#BGCHANGES:-99.000=../bg.avi=1.000=0=0=1=====,
99999=-nosongbg-=1.000=0=0=0 // don't automatically add -songbackground-
;
#KEYSOUNDS:;
#ATTACKS:;

//---------------dance-single - ----------------
#NOTES:
     dance-single:
     :
     Challenge:
     15:
     0.658028,0.767544,0.627100,0.403136,0.302352,617.000000,533.000000,84.000000,54.000000,56.000000,0.000000,0.658028,0.767544,0.627100,0.403136,0.302352,617.000000,533.000000,84.000000,54.000000,56.000000,0.000000:
// measure 0
0000
0000
0000
0000
,  // measure 1
0000
0000
0000
0000
,  // measure 2
0000
0000
0000
0000
,  // measure 3
0000
0000
0000
0000
,  // measure 4
0000
0000
0000
0000
,  // measure 5
0000
0000
0000
0000
,  // measure 6
0000
0000
0000
0000
,  // measure 7
0000
0000
0000
0000
,  // measure 8
0000
0000
0000
0000
,  // measure 9
1100
0100
0010
0100
1100
1000
0010
0000
,  // measure 10
0101
0100
0010
0100
0101
0001
0010
0000
,  // measure 11
1100
0100
0001
0100
1100
1000
0001
0000
,  // measure 12
0101
0100
1000
0100
0101
0001
1000
0100
,  // measure 13
1100
1100
1001
1001
,  // measure 14
0110
0110
0011
0011
,  // measure 15
0110
0000
0100
0000
1100
0000
0001
0000
1000
0010
0100
0001
1000
0100
0010
0001
,  // measure 16
MMMM
0000
0000
0000
1000
0100
1000
0000
0001
0010
0001
0000
1000
0100
1000
0000
,  // measure 17
0001
0000
0001
0000
1000
0010
1000
0000
0001
0000
0001
0000
1000
0010
1000
0000
,  // measure 18
0001
0000
0001
0000
0010
0100
0010
0000
0100
0001
0100
0000
0010
0100
0010
0000
,  // measure 19
0001
0001
1000
0100
0100
0100
0100
0100
,  // measure 20
MMMM
0001
1001
0001
0101
0001
1001
1000
,  // measure 21
1100
1000
0001
0100
0110
0010
0011
0010
,  // measure 22
1010
0010
1000
0100
1100
0100
0101
0100
,  // measure 23
0110
0000
0001
0000
1000
0000
0010
0000
0001
0010
1000
0010
MMMM
0000
0000
0000
,  // measure 24
MMMM
0000
0000
0000
MMMM
0000
0001
0000
1000
0100
1000
0000
0001
0010
0001
0000
,  // measure 25
1000
0000
1000
0000
0001
0100
0001
0000
1000
0000
1000
0000
0001
0100
0001
0000
,  // measure 26
1000
0000
1000
0000
0100
0010
0100
0000
0010
1000
0010
0000
0100
0010
0100
0000
,  // measure 27
1000
1000
0001
0010
0010
0010
0010
0010
,  // measure 28
MMMM
1000
1001
1000
1010
1000
1001
0001
,  // measure 29
0011
0001
1000
0010
0110
0100
1100
0100
,  // measure 30
0101
0100
0001
0010
0011
0010
1010
0010
,  // measure 31
0110
0000
0001
0000
0010
0000
0000
0010
0000
0000
1000
0000
0100
0000
0000
0100
,  // measure 32
0000
0000
0001
0000
2000
0000
0000
0000
0100
0000
0000
0000
0100
0000
0000
0100
,  // measure 33
0000
0000
0100
0000
0100
0000
0000
0000
0100
0000
0000
0000
0100
0000
0000
0100
,  // measure 34
0000
0000
0001
0000
3002
0000
0000
0000
0100
0000
0000
0000
0100
0000
0000
0100
,  // measure 35
0000
0000
0100
0000
0100
0000
0000
0000
0100
0000
0000
0000
0100
0000
0000
0100
,  // measure 36
0000
1000
1003
0100
1000
0100
0001
0100
,  // measure 37
1000
0000
0010
0000
1000
0000
0010
0000
0001
0000
0010
0000
1000
0100
1000
0100
,  // measure 38
0010
0001
0010
0001
1000
0010
0100
0001
0010
0100
1000
0001
0020
0000
0000
0000
,  // measure 39
0000
0000
0000
0030
MMMM
0000
0110
0000
,  // measure 40
1000
0001
1001
0000
0010
0000
1100
0100
,  // measure 41
0101
0000
0100
0000
0000
0000
MMMM
0000
MMMM
0000
0000
0000
1000
0000
0100
0001
,  // measure 42
0100
0000
1000
0000
0001
0000
0010
0000
0100
0000
0100
0000
1000
0100
1000
0000
,  // measure 43
0001
0100
0001
0000
1000
0100
1000
0000
0001
0100
0001
0000
1000
0000
0100
0010
,  // measure 44
0100
1000
0001
0010
0100
1000
0010
0010
,  // measure 45
0010
0000
0010
0000
0001
0000
0010
0000
0001
0000
0010
0000
1000
0000
0001
0100
,  // measure 46
0001
0000
1000
0000
0010
0000
0001
0000
0010
0000
1000
0000
0001
0010
0001
0000
,  // measure 47
1000
0010
1000
0000
0001
0010
0001
0000
1000
0010
1000
0000
0100
0000
0010
0100
,  // measure 48
0010
1000
0010
0100
1000
0010
0100
1000
,  // measure 49
0100
0001
0010
0100
0010
0100
MMMM
0000
,  // measure 50
2100
0000
3010
0100
0110
0000
0001
0000
,  // measure 51
0000
0000
0000
0000
0001
0000
1000
0000
0010
0000
0000
0100
0001
0000
0010
0000
,  // measure 52
0210
0000
0310
0001
1001
0000
0010
0000
,  // measure 53
0000
0000
0000
0000
0010
0000
1000
0000
0001
0000
0000
0100
0010
0000
1000
0000
,  // measure 54
1200
0000
1300
0001
0101
0000
0001
0000
,  // measure 55
0000
0000
0000
0000
0001
0000
1000
0000
0100
0000
0000
0010
0001
0000
0100
0000
,  // measure 56
0210
0000
0310
1000
1001
0000
0100
0000
,  // measure 57
0000
0000
0000
0000
0100
0000
1000
0000
0001
0000
0000
0100
0010
0000
1000
0000
,  // measure 58
1100
0001
0100
0001
0011
0000
1010
0000
,  // measure 59
0100
1000
0100
0001
0101
0000
0011
0000
,  // measure 60
0001
1000
0100
1000
1010
0000
0011
0000
,  // measure 61
0100
0001
0100
1000
1100
0000
1010
0000
,  // measure 62
1000
1000
0100
0100
0001
0001
0010
0010
,  // measure 63
1000
1000
0010
0010
0001
0001
0100
0100
,  // measure 64
1000
0100
0001
0100
1000
0001
0010
0100
0010
0001
0100
0010
1000
0100
0010
0001
,  // measure 65
MMMM
0001
0202
0303
2020
3030
0220
0330
,  // measure 66
2200
3300
0202
0303
0022
0033
1100
0001
,  // measure 67
0100
0000
0010
0000
1000
0000
0001
0100
0000
0000
1000
0100
0000
0000
0001
0010
,  // measure 68
0000
0000
1000
0010
0000
0000
0001
0100
0001
0000
0001
0000
1000
0000
0100
0000
,  // measure 69
MMMM
0001
0022
0033
2200
3300
0022
0033
,  // measure 70
2200
0000
3300
0000
0202
0000
0303
0000
2020
0000
3030
0000
0100
0010
0100
0000
,  // measure 71
0001
0000
0010
0000
0100
0000
1000
0100
0000
0000
0001
0100
0000
0000
1000
0010
,  // measure 72
0000
0000
0001
0010
0000
0000
1000
0010
1000
0000
0100
0010
0100
0000
0100
0000
,  // measure 73
0010
0100
MMMM
0001
0022
0033
2200
3300
,  // measure 74
0220
0330
2002
3003
2020
3030
0110
0010
,  // measure 75
1000
0000
0100
0000
0010
0000
0001
1000
0100
0000
1000
0001
0100
0000
0001
1000
,  // measure 76
0010
0000
1000
0001
0010
0000
0100
0000
0100
0000
0100
0000
0010
0000
0100
0000
,  // measure 77
MMMM
0001
0202
0303
2020
3030
0202
0303
,  // measure 78
0220
0000
0330
0000
2002
0000
3003
0000
0022
0000
0033
0000
0010
0100
0010
0000
,  // measure 79
0001
0000
0100
0000
0010
0000
1000
0001
0100
0000
0001
1000
0100
0000
1000
0001
,  // measure 80
0010
0000
0100
0000
1000
0000
0000
0010
0000
0000
0001
0000
1000
0000
0000
0100
,  // measure 81
0000
0001
0020
0000
0000
0000
0000
0000
,  // measure 82
0000
0030
0000
0000
;

//---------------dance-single - ----------------
#NOTES:
     dance-single:
     :
     Hard:
     15:
     0.674026,0.798246,0.642031,0.425532,0.309817,632.000000,546.000000,86.000000,57.000000,0.000000,0.000000,0.674026,0.798246,0.642031,0.425532,0.309817,632.000000,546.000000,86.000000,57.000000,0.000000,0.000000:
0000
0000
0000
0000
,
0000
0000
0000
0000
,
0000
0000
0000
0000
,
0000
0000
0000
0000
,
0000
0000
0000
0000
,
0000
0000
0000
0000
,
0000
0000
0000
0000
,
0000
0000
0000
0000
,
0000
0000
0000
0000
,
0110
1000
0100
0000
0110
0001
0100
0000
,
0110
1000
0001
0000
0110
0001
1000
0000
,
1100
1000
0010
0000
0101
0001
0010
0000
,
1010
1000
0100
0000
0011
0001
0100
0010
,
1010
1010
0101
0101
,
0011
0011
1100
1100
,
1000
0000
0010
0000
0001
0000
0010
0000
1000
0100
1000
0100
0010
0001
0010
0001
,
0110
0000
0000
0000
1000
0010
1000
0000
0001
0100
0010
0000
0100
0001
0100
0000
,
0001
0000
0010
0000
0100
1000
0100
0000
1000
0000
0010
0000
0100
0001
0100
0000
,
0010
0000
1000
0000
0001
0010
0001
0000
1000
0100
0010
0000
0100
1000
0100
0000
,
0010
0100
1000
0010
0010
0010
0100
0010
,
0110
1000
1001
0001
0011
0010
0110
0100
,
0110
0010
0001
1000
1010
0010
0110
0100
,
0110
0010
1000
0100
0101
0100
1100
1000
,
1001
0000
0001
0000
1000
0000
0010
0000
0001
0010
1000
0010
0001
0010
0000
0000
,
0110
0010
0000
0000
1001
0000
0001
0000
1000
0100
0010
0000
0100
1000
0100
0000
,
1000
0000
0010
0000
0100
0001
0100
0000
0001
0000
0010
0000
0100
1000
0100
0000
,
0010
0000
0001
0000
1000
0010
1000
0000
0001
0100
0010
0000
0100
0001
0100
0000
,
0010
0100
0001
0010
0010
0010
0100
0010
,
0110
0001
1001
1000
1010
0010
0110
0100
,
0110
0010
1000
0001
0011
0010
0110
0100
,
0110
0010
0001
0100
1100
0100
0101
0001
,
0011
0000
0010
0000
0100
0000
0000
0100
0000
0000
1000
0000
0001
0000
0000
0001
,
0000
0000
0100
0000
0020
0000
0000
0000
0100
0000
0000
0000
0100
0000
0000
0100
,
0000
0000
0100
0000
0100
0000
0000
0000
0100
0000
0000
0000
0100
0000
0000
0100
,
0000
0000
1000
0000
2030
0000
0000
0000
0100
0000
0000
0000
0100
0000
0000
0100
,
0000
0000
0100
0000
0100
0000
0000
0000
0100
0000
0000
0000
0100
0000
0000
0100
,
0000
0001
3001
0100
1000
0100
0001
0010
,
1000
0000
0010
0000
0001
0000
0100
0000
1000
0000
0100
0000
0001
0010
0001
0010
,
0100
1000
0100
1000
0001
0010
0100
1000
0001
0100
0010
1000
0020
0000
0000
0000
,
0000
0000
0130
0110
,
0001
1000
1100
0000
0001
0000
0101
0010
,
1001
0000
0010
0000
0000
0000
0100
0000
0010
0000
0000
0000
0110
0000
1000
0010
,
1000
0000
0001
0000
0010
0000
1000
0000
0010
0000
0001
0000
1000
0100
1000
0000
,
0100
0010
0100
0000
1000
0100
1000
0000
0010
0100
0010
0000
1000
0000
0001
0010
,
0001
1000
0010
0001
0010
1000
0001
0001
,
1000
0000
0001
0000
0100
0000
0001
0000
1000
0000
0010
0000
0100
0000
0001
0100
,
0001
0000
1000
0000
0100
0000
0001
0000
0100
0000
1000
0000
0001
0010
0001
0000
,
0010
0100
0010
0000
0001
0010
0001
0000
0100
0010
0100
0000
0001
0000
1000
0100
,
1000
0001
0010
0100
1000
0001
1000
1000
,
0001
0000
0000
0000
0000
0000
0000
0000
0100
0000
0000
0000
0000
0000
0000
0000
0010
0000
0000
0000
0000
0000
0000
0000
1000
0000
0000
0000
0000
0000
0000
0000
0010
0000
0000
0000
0000
0000
0000
0000
1000
0000
0000
0000
0000
0000
0000
0000
0200
0300
0000
0000
0000
0000
0000
0000
0000
0000
0000
0000
0000
0000
0000
0000
,
0021
0000
0130
1000
1001
0000
0010
0000
,
0000
0000
0000
0000
0010
0000
0100
0000
0010
0000
0000
1000
0001
0000
1000
0000
,
2100
0000
3001
1000
1010
0000
0100
0000
,
0000
0000
0000
0000
0100
0000
0001
0000
1000
0000
0000
0010
0100
0000
0010
0000
,
2010
0000
3001
0100
0110
0000
1000
0000
,
0000
0000
0000
0000
1000
0000
0001
0000
1000
0000
0000
0100
0010
0000
0100
0000
,
0201
0000
0310
0100
1100
0000
0001
0000
,
1000
0000
1000
0000
0100
0000
0010
0000
0100
0000
1000
0001
1000
0000
0010
0000
,
0110
0010
1000
0001
1001
0000
0101
0000
,
0010
1000
0100
0010
0011
0000
0110
0000
,
0100
0010
0001
1000
1001
0000
1100
0000
,
0010
0001
0100
0010
1010
0000
0110
0000
,
1000
1000
0100
0100
0001
0001
1000
1000
,
0010
0010
0001
0001
1000
1000
0010
0010
,
0100
0001
1000
0010
0100
0010
1000
0100
0010
0100
1000
0010
0100
0001
0010
0200
,
0310
0001
2020
3030
0202
0303
0022
0033
,
2200
3300
0220
0330
2002
3003
1000
0010
,
0001
0000
0010
0000
1000
0000
0100
0001
0000
0000
0100
0010
0000
0000
0100
1000
,
0000
0000
0100
0010
0000
0000
0001
0000
0001
0000
0001
0000
1000
0000
0001
0000
,
0000
1000
2200
3300
0022
0033
0202
0303
,
2020
0000
3030
0000
0220
0000
0330
0000
2002
0000
3003
0000
1000
0100
1000
0000
,
0100
0000
0001
0000
0100
0000
1000
0100
0000
0000
0010
0001
0000
0000
0100
0001
,
0000
0000
1000
0010
0000
0000
0100
0010
1000
0000
0100
0010
0001
0000
0001
0000
,
1000
0100
2000
3001
0220
0330
0202
0303
,
0022
0033
2002
3003
2200
3300
0010
0001
,
0100
0000
0010
0000
1000
0000
0100
1000
0100
0000
0010
0001
0100
0000
0010
1000
,
0010
0000
0100
0001
0010
0000
0100
0000
0100
0000
0100
0000
0010
0000
0100
0000
,
0000
1000
2002
3003
0220
0330
2020
3030
,
2200
0000
3300
0000
2002
0000
3003
0000
0022
0000
0033
0000
1000
0100
1000
0000
,
0010
0000
0100
0000
0001
0000
0010
0100
0010
0000
0100
1000
0001
0000
0100
0010
,
0100
0000
0001
1000
0010
0000
0000
0100
0000
0000
0001
0000
0010
0000
0000
1000
,
0000
0100
0002
0000
0000
0000
0000
0000
,
0000
0003
0000
0000
;

//---------------dance-single - ----------------
#NOTES:
     dance-single:
     :
     Medium:
     12:
     0.551378,0.552632,0.567376,0.029862,0.014931,517.000000,441.000000,76.000000,4.000000,0.000000,0.000000,0.551378,0.552632,0.567376,0.029862,0.014931,517.000000,441.000000,76.000000,4.000000,0.000000,0.000000:
0000
0000
0000
0000
,
0000
0000
0000
0000
,
0000
0000
0000
0000
,
0000
0000
0000
0000
,
0000
0000
0000
0000
,
0000
0000
0000
0000
,
0000
0000
0000
0000
,
0000
0000
0000
0000
,
0000
0000
0000
0000
,
1000
0100
1000
0000
0100
0001
0100
0000
,
0001
0010
0001
0000
0010
1000
0010
0000
,
1000
0010
1000
0000
0010
0001
0010
0000
,
0001
0100
0001
0000
0100
1000
0100
0000
,
0110
0110
1001
1001
,
0101
0101
1010
1010
,
1000
0100
0001
0100
1000
1000
1000
0001
,
0110
0000
1000
1000
0100
0100
1000
1000
,
0001
0100
0001
0001
1000
0100
1000
1000
,
0100
0010
0001
0001
0010
0010
0100
0100
,
1000
0010
0100
0010
1000
0010
1000
0001
,
1001
0000
0110
0001
0100
0001
1000
0010
,
0100
0010
1000
0100
1000
1000
0001
0010
,
0100
0010
0001
0100
0001
0001
1000
0010
,
0100
0010
1000
1000
0100
0001
0100
0000
,
0000
0000
1001
0100
0010
0010
0001
0001
,
1000
0010
1000
1000
0001
0010
0001
0001
,
0010
0100
1000
1000
0100
0100
0010
0010
,
0001
0100
0010
0100
0001
0100
0001
1000
,
1001
0000
0110
1000
0010
1000
0001
0100
,
0010
0100
0001
0010
0001
0001
1000
0100
,
0010
0100
1000
0010
1000
1000
0001
0100
,
0010
0000
0100
0000
0001
0000
0000
0001
0000
0000
0010
0000
0100
0000
0000
0100
,
0000
1000
0002
0000
0000
0000
0010
0000
,
0010
0010
0000
0010
,
0010
2003
0000
0100
,
0100
0100
0000
0100
,
0100
0000
3001
1000
0010
0001
1000
0001
,
0010
1000
0100
0001
1000
0001
0100
1000
,
0001
0010
0100
1000
0010
0001
0020
0000
,
0000
0000
0030
0110
,
1000
0100
0101
0000
0100
0000
0001
0100
,
1000
0010
0000
0100
0010
0000
1001
0001
,
0100
0000
1001
1000
0100
0000
0101
0000
,
1000
0000
1100
0000
0101
0000
1000
0001
,
0010
0000
0001
1000
0010
0000
0100
0010
,
0100
0010
1000
0100
0010
0001
1001
1000
,
0010
0000
1001
0001
0010
0000
1010
0000
,
0001
0000
0011
0000
1010
0000
0001
1000
,
0100
0000
1000
0001
0100
0000
0010
0100
,
0001
1000
0100
0010
0100
0010
0000
0000
,
0100
1000
0100
1000
0001
0100
0001
0100
,
0010
1000
0100
0001
0100
1001
0000
0000
,
0001
0010
0001
0010
0100
1000
0100
1000
,
0001
0010
0100
1000
0001
0110
0000
0000
,
1000
0100
1000
0100
0010
0001
0010
0001
,
1000
0010
0100
0001
1000
1001
0000
0000
,
0010
0100
0010
0100
1000
0001
1000
0001
,
0010
1000
0010
0001
0100
0010
1000
0001
,
0010
0100
0010
0000
0101
0000
1100
0000
,
0001
1000
0010
0000
0101
0000
1001
0000
,
1000
0100
0001
0000
1100
0000
1010
0000
,
0100
0010
1000
0000
0011
0000
0110
0000
,
1000
0010
1000
0010
0001
0010
0001
0010
,
1000
0100
1000
0100
0001
0100
0001
0100
,
0010
0010
0010
0010
0010
0010
0010
0010
,
0100
0010
0110
0000
0011
0000
0101
0000
,
0110
0000
0011
0000
1001
0000
1000
0010
,
0100
0001
0000
0011
0000
1100
0000
0110
,
0000
1001
0000
0001
0100
0010
1000
0001
,
0000
0010
0110
0000
0101
0000
0011
0000
,
0110
0000
0101
0000
1001
0000
1000
1000
,
0100
0010
0000
0101
0000
1010
0000
0110
,
0000
1001
0000
0001
0010
0010
0100
0100
,
1000
0001
1000
0010
0110
0000
1100
0000
,
0101
0000
1010
0000
0110
0000
1000
0100
,
0001
0100
0000
0011
0000
1001
0000
0110
,
0000
1010
0000
0001
0010
1000
0010
0001
,
0000
0100
1100
0000
0110
0000
1010
0000
,
0011
0000
1100
0000
0110
0000
1000
1000
,
0010
0001
0000
0101
0000
1001
0000
0110
,
0000
0000
1100
0000
1000
0000
0000
0010
0000
0000
0010
0000
0001
0000
0000
0100
,
0000
0100
2000
0000
0000
0000
0000
0000
,
0000
3000
0000
0000
;

//---------------dance-single - ----------------
#NOTES:
     dance-single:
     :
     Easy:
     8:
     0.365808,0.552632,0.806271,0.306084,0.000000,343.000000,235.000000,108.000000,41.000000,0.000000,0.000000,0.365808,0.552632,0.806271,0.306084,0.000000,343.000000,235.000000,108.000000,41.000000,0.000000,0.000000:
0000
0000
0000
0000
,
0000
0000
0000
0000
,
0000
0000
0000
0000
,
0000
0000
0000
0000
,
0000
0000
0000
0000
,
0000
0000
0000
0000
,
0000
0000
0000
0000
,
0000
0000
0000
0000
,
0000
0000
0000
0000
,
1001
0100
1001
0100
,
1001
0010
1001
0010
,
1100
0001
1010
0001
,
0101
1000
0011
1000
,
0110
0110
1001
1001
,
0110
0110
1001
1001
,
1100
1001
0101
0220
,
0330
1100
0001
0100
,
0001
1100
0001
1100
,
0001
0101
0001
0010
,
0100
2000
0000
0000
,
3001
1001
0101
1000
,
0100
1000
0011
1000
,
0010
1000
0101
1000
,
0100
2000
0002
3003
,
0000
0000
0011
0010
,
1000
0011
1000
0011
,
1000
1010
1000
0100
,
0010
0002
0000
0000
,
1003
1001
1010
0001
,
0010
0001
1100
0001
,
0100
0001
1010
0001
,
0010
0200
0300
2000
,
3000
0002
0000
0100
,
0000
1000
0000
0100
,
0000
2003
0000
0100
,
0000
0001
0000
0100
,
0000
3001
0001
0110
,
1000
1000
0110
0001
,
0010
1000
2000
0002
,
0000
0000
3003
0110
,
0000
1001
0000
1100
,
0101
0000
0000
2002
,
3003
2002
3003
1001
,
1001
0110
1001
2200
,
3300
0022
0033
0110
,
0110
1000
1000
0002
,
0003
0202
0303
1010
,
0101
1010
1010
2002
,
3003
0220
0330
0001
,
0010
0000
0000
0000
0000
0000
0000
0000
0000
0000
0000
0000
0000
0000
0000
0000
0100
0000
0000
0000
0000
0000
0000
0000
0000
0000
0000
0000
0000
0000
0000
0000
0200
0000
0000
0000
0000
0000
0000
0000
0000
0000
0000
0000
0000
0000
0000
0000
0020
0330
0000
0000
0000
0000
0000
0000
0000
0000
0000
0000
0000
0000
0000
0000
,
0220
0330
1001
0000
,
0000
0000
1000
0001
,
0202
0303
1100
0000
,
0000
0000
0100
0001
,
0220
0330
1001
0000
,
0000
0000
0001
1000
,
2200
3300
0101
0000
,
0000
0000
0100
1000
,
1001
1100
0001
0001
,
0010
1100
0001
0001
,
0100
1010
0001
0001
,
1000
0110
0001
0001
,
0010
0010
0100
0100
,
0010
0010
0100
0100
,
1000
1000
2000
0002
,
3003
0110
0110
1001
,
1001
0110
0110
1000
,
0001
0010
1100
0010
,
0101
1000
0001
0110
,
0000
1001
1001
0110
,
0110
1001
1001
0100
,
0010
1000
0101
1000
,
0011
0100
0010
0100
,
0100
0000
1010
0101
,
0101
1010
1010
0001
,
0100
0010
1001
0010
,
1100
0001
0100
1010
,
0000
0011
0011
1100
,
1100
0011
0011
1000
,
0100
0010
1001
0010
,
0101
1001
0000
1100
,
0000
0220
0000
0000
,
0000
0330
0000
0000
;

//---------------dance-single - ----------------
#NOTES:
     dance-single:
     :
     Beginner:
     5:
     0.197302,0.276316,0.209033,0.059724,0.000000,185.000000,157.000000,28.000000,8.000000,0.000000,0.000000,0.197302,0.276316,0.209033,0.059724,0.000000,185.000000,157.000000,28.000000,8.000000,0.000000,0.000000:
0000
0000
0000
0000
,
0000
0000
0000
0000
,
0000
0000
0000
0000
,
0000
0000
0000
0000
,
0000
0000
0000
0000
,
0000
0000
0000
0000
,
0000
0000
0000
0000
,
0000
0000
0000
0000
,
0000
0000
0000
0000
,
0010
0000
0010
0000
,
0010
0000
0010
0000
,
0100
0000
0100
0000
,
0100
0000
0100
0000
,
1000
1000
1000
0000
,
1000
1000
1000
0000
,
0001
0001
0001
0001
,
0000
0001
0001
0001
,
0000
1000
0000
1000
,
0000
0001
0001
0001
,
0000
0020
0000
0000
,
0030
0010
0000
0100
,
0000
0010
0000
0100
,
0000
1000
0000
1000
,
0000
0020
0000
0030
,
0000
0000
1000
1000
,
0000
0001
0000
0001
,
0000
1000
1000
1000
,
0000
0200
0000
0000
,
0300
0100
0000
0010
,
0000
0100
0000
0010
,
0000
0001
0000
0001
,
0000
1000
0000
1000
,
0000
0002
0000
0000
,
0000
0003
0000
0000
,
0000
2000
0000
0000
,
0000
3000
0000
0000
,
0000
1000
1000
1000
,
0001
0001
0001
0010
,
0010
0010
0010
0020
,
0000
0000
0030
0110
,
0000
0110
0000
0100
,
0100
0000
0000
1001
,
0000
1001
0000
0001
,
0001
0001
0000
1001
,
0000
1001
0000
1000
,
1000
1000
0000
0110
,
0000
0110
0000
0100
,
0100
0100
0000
0110
,
0000
0110
0000
0010
,
0010
0010
0010
0000
,
1001
0000
1001
0000
,
0000
0000
0100
0000
,
0110
0000
0110
0000
,
0000
0000
0001
0000
,
1001
0000
1001
0000
,
0000
0000
0010
0000
,
0110
0000
0110
0000
,
0000
0000
1000
0000
,
0001
0001
0001
0000
,
0001
0001
0001
0000
,
1000
1000
1000
0000
,
1000
1000
1000
0000
,
0100
0000
0100
0000
,
0001
0000
0001
0000
,
0010
0010
0010
0010
,
0000
0110
0000
0110
,
0000
1001
0000
0010
,
0010
0000
1000
0000
,
1000
0000
0001
0001
,
0000
0110
0000
0110
,
0000
1001
0000
0100
,
0100
0000
0001
0000
,
0001
0000
1000
2000
,
3000
0000
0010
0010
,
0000
0110
0000
0010
,
0010
0000
0001
0000
,
1000
0000
0001
0001
,
0000
0110
0000
0110
,
0000
1001
0000
0100
,
0100
0000
1000
0000
,
0010
0010
0000
0001
,
0000
0200
0000
0000
,
0000
0300
0000
0000
;
