#TITLE:Hommage;
#SUBTITLE:(DIAMOND PROJECT MIX);
#ARTIST:Sana;
#TITLETRANSLIT:;
#SUBTITLETRANSLIT:;
#ARTISTTRANSLIT:;
#GENRE:Pop;
#CREDIT:;
#BANNER:Hommage (DIAMOND PROJECT MIX).png;
#BACKGROUND:Hommage (DIAMOND PROJECT MIX) -bg.png;
#LYRICSPATH:;
#CDTITLE:;
#MUSIC:Hommage (DIAMOND PROJECT MIX).mp3;
#OFFSET:-0.100000;
#SAMPLESTART:80.000000;
#SAMPLELENGTH:12.000000;
#SELECTABLE:YES;
#BPMS:0.000000=166.399994
,127.000000=166.100006
,159.000000=166.399994
,223.000000=166.630005
,286.000000=166.500000
;
#STOPS:
;
#BGCHANGES:;
#KEYSOUNDS:;
#ATTACKS:;

//---------------dance-single - ----------------
#NOTES:
     dance-single:
     :
     Hard:
     13:
     0.548134,0.685167,0.587286,0.180101,0.054813,490.000000,415.000000,75.000000,23.000000,0.000000,0.000000,0.548134,0.685167,0.587286,0.180101,0.054813,490.000000,415.000000,75.000000,23.000000,0.000000,0.000000:
0000
0000
0000
0000
,
0000
0000
0000
0000
,
0000
0000
0000
0000
,
0000
0000
0000
0000
,
0000
0000
0000
0000
,
0000
0000
0000
0000
,
0000
0000
0000
0000
,
0000
0000
0000
0000
,
2000
0000
3000
0002
0003
0010
0100
1000
,
0000
1000
0000
1000
0000
1000
0001
0010
,
2000
0000
3000
0002
0000
0003
2000
0000
,
3000
0002
0003
0020
0030
0100
0010
1000
,
0002
0000
0003
2000
0000
3000
0010
0200
,
0300
0200
0300
0200
0300
0100
1000
0001
,
0100
1000
0001
0010
0100
0001
0010
1000
,
0101
0000
0000
0000
,
1000
0010
1000
0100
0000
0010
0001
0000
,
0001
1000
0000
1000
0010
0000
0010
0100
,
1000
0001
1000
0010
0000
0001
0100
0000
,
0100
1000
0000
1000
0001
0000
0001
0010
,
0001
0100
0001
0010
0000
0100
1000
0000
,
1000
0001
0000
0001
0100
0000
0100
0010
,
0001
0100
0001
0010
0000
0100
1000
0000
,
1000
0001
0000
0001
0100
0000
0100
0010
,
0020
0000
0000
0030
,
0200
0000
0000
0300
,
0002
0000
0000
0003
,
2000
0000
0000
3000
,
0020
0000
0000
0030
,
0002
0000
0000
0003
,
2000
0000
0000
3000
,
0200
0000
0000
0000
0000
0000
0300
0010
,
1000
0001
0100
0000
0000
0000
0000
0100
,
0001
1000
0010
0000
0000
0000
0000
0001
,
0010
0100
1000
0000
0000
0000
0000
1000
,
0100
0010
0001
0000
0000
0000
0000
0010
,
1000
0100
1000
0000
0000
0000
0000
0001
,
1000
0100
0010
0000
0000
0000
0000
0010
,
0100
0001
0010
0000
0000
0000
0000
0100
,
0010
1000
0200
0000
0000
0000
0300
1001
,
0000
0001
0000
0001
0000
0001
0000
0101
,
0000
0100
0000
0100
0000
0100
0000
0110
,
0000
0010
0000
0010
0000
0010
0000
1010
,
0000
1000
0000
1000
0000
1000
0000
1010
,
0000
0010
0000
0010
0000
0010
0000
0110
,
0000
0100
0000
0100
0000
0100
0000
0101
,
0000
0001
0000
0001
0000
0001
0000
1001
,
0000
1000
0000
1000
0000
1000
0000
1001
,
0000
1001
0000
1001
0000
1001
0000
0101
,
0000
0101
0000
0101
0000
0101
0000
0110
,
0000
0110
0000
0110
0000
0110
0000
1010
,
0000
1010
0000
1010
0000
1010
0000
1001
,
0000
1001
0000
1001
0000
1001
0000
0101
,
0000
0101
0000
0101
0000
0101
0000
0110
,
0000
0110
0000
0110
0000
0110
2020
0000
,
0000
0000
0000
0000
0000
3030
0000
0100
,
0001
1000
0100
1000
0010
0100
0001
0100
,
0010
0001
1000
0100
1000
0010
0100
0001
,
0100
0010
1000
0100
1000
0010
0100
0001
,
0100
1000
0010
0100
0001
0010
0001
0100
,
1000
0000
0100
0000
1000
0000
0010
0100
0010
0000
0100
0000
0001
0000
0100
0000
,
0010
0000
1000
0000
0001
0000
0100
0010
0100
0000
0001
0000
1000
0000
0100
0000
,
0010
0000
0100
0000
0001
0000
1000
0010
1000
0000
0100
0000
0001
0000
1000
0000
,
0010
0000
0100
0000
0001
0000
1000
0001
1000
0000
0010
0000
0100
0000
0001
0000
,
1000
0000
0010
0000
0100
0000
0001
0010
0001
0000
0100
0000
0010
0000
1000
0000
,
0100
0000
0010
0000
1000
0000
0001
0100
0001
0000
0010
0000
1000
0000
0100
0000
,
0010
0000
0100
0000
0001
0000
0010
1000
0010
0000
0100
0000
0001
0000
1000
0000
,
0100
0000
1000
0000
0010
0000
0100
0001
0100
0000
0010
0000
1000
0000
0010
0000
,
0100
0000
0001
0000
1000
0000
0100
0010
0100
0000
0001
0000
1000
0000
0100
0000
,
1000
0000
0010
0000
0100
0000
0001
0010
0001
0000
1000
0000
0100
0000
0001
0000
,
1000
0000
0010
0000
0100
0000
0001
1000
0001
0000
0010
0000
1100
0000
0000
0000
,
0000
0000
0000
1100
,
1100
1100
1100
0110
,
0110
0110
0110
0011
,
0011
0011
0011
1001
,
1001
0000
1001
1010
1001
0000
1010
0000
,
1010
1010
1010
0011
,
0011
0011
0011
0101
,
0101
0101
0101
1001
,
1001
0000
1001
0110
1001
0000
0110
1000
,
0001
0010
1000
0100
1000
0010
0100
0001
,
0100
0010
1000
0010
0100
0001
0010
1000
,
0010
0100
1000
0001
0100
0010
1000
0100
,
1000
0010
0100
0001
0010
0001
0100
0010
,
1000
0010
0100
0010
0001
1000
0010
0100
,
0010
1000
0001
0100
0010
1000
0001
0100
,
0010
0000
1000
0000
0010
0000
0100
0000
0010
0000
0001
0000
1000
0100
0010
0000
,
1000
0000
0010
0100
0000
0100
0010
0000
1001
0000
0000
0000
0000
0000
0000
0000
;

//---------------dance-single - ----------------
#NOTES:
     dance-single:
     :
     Medium:
     11:
     0.457524,0.616651,0.242745,0.266237,0.007830,409.000000,378.000000,31.000000,34.000000,0.000000,0.000000,0.457524,0.616651,0.242745,0.266237,0.007830,409.000000,378.000000,31.000000,34.000000,0.000000,0.000000:
0000
0000
0000
0000
,
0000
0000
0000
0000
,
0000
0000
0000
0000
,
0000
0000
0000
0000
,
0000
0000
0000
0000
,
0000
0000
0000
0000
,
0000
0000
0000
0000
,
0000
0000
0000
0000
,
2000
0000
3000
0002
0003
0010
0100
1000
,
0000
1000
0000
1000
0000
1000
0001
0010
,
2000
0000
3000
0002
0000
0003
2000
0000
,
3000
0002
0003
0020
0030
0100
0010
1000
,
0002
0000
0003
2000
0000
3000
0010
0100
,
0000
0100
0000
0100
0000
0100
1000
0001
,
2000
0000
3000
0200
0000
0300
0002
0000
,
0003
0000
0000
0000
,
1000
0010
1000
0100
0000
0010
0001
0000
,
0001
1000
0000
1000
0010
0000
0010
0100
,
1000
0001
1000
0010
0000
0001
0100
0000
,
0100
1000
0000
1000
0001
0000
0001
0010
,
0001
0100
0001
0010
0000
0100
1000
0000
,
1000
0001
0000
0001
0100
0000
0100
0010
,
0001
0100
0001
0010
0000
0100
1000
0000
,
1000
0001
0000
0001
0100
0000
0100
0010
,
0020
0000
0000
0030
,
0200
0000
0000
0300
,
0002
0000
0000
0003
,
2000
0000
0000
3000
,
0020
0000
0000
0030
,
0002
0000
0000
0003
,
2000
0000
0000
3000
,
0200
0000
0000
0300
,
2000
0000
0000
3000
,
0002
0000
0000
0003
,
0020
0000
0000
0030
,
0200
0000
0000
0300
,
2000
0000
3000
0002
,
0000
0003
0020
0000
,
0030
0000
0200
0000
0000
0000
0300
0001
,
0010
1000
0200
0000
0000
0000
0300
1001
,
0000
0001
0000
0001
0000
0001
0000
0101
,
0000
0100
0000
0100
0000
0100
0000
0110
,
0000
0010
0000
0010
0000
0010
0000
1010
,
0000
1000
0000
1000
0000
1000
0000
1010
,
0000
0010
0000
0010
0000
0010
0000
0110
,
0000
0100
0000
0100
0000
0100
0000
0101
,
0000
0001
0000
0001
0000
0001
0000
1001
,
0000
1000
0000
1000
0000
1000
0000
1001
,
0000
0001
0000
0001
0000
0001
0000
0101
,
0000
0100
0000
0100
0000
0100
0000
0110
,
0000
0010
0000
0010
0000
0010
0000
1010
,
0000
1000
0000
1000
0000
1000
0000
1001
,
0000
0001
0000
0001
0000
0001
0000
0101
,
0000
0100
0000
0100
0000
0100
0000
0110
,
0000
0010
0000
0010
0000
0010
2020
0000
,
0000
0000
0000
0000
0000
3030
0000
0100
,
0001
1000
0100
1000
0010
0100
0001
0100
,
0010
0001
1000
0100
1000
0010
0100
0001
,
0100
0010
1000
0100
1000
0010
0100
0001
,
0100
1000
0010
0100
0001
0010
0001
0100
,
1000
0100
1000
0010
1000
0100
0001
0100
,
0010
1000
0001
0100
1000
0001
1000
0100
,
0010
0100
0001
1000
0010
0100
0001
1000
,
0010
0100
0001
1000
0001
0010
0100
0001
,
1000
0010
0100
0001
1000
0100
0010
1000
,
0100
0010
1000
0001
0100
0010
1000
0100
,
0010
0100
0001
0010
1000
0100
0001
1000
,
0100
1000
0010
0100
1000
0010
1000
0010
,
0100
0001
1000
0100
0010
0001
1000
0100
,
1000
0010
0100
0001
0010
1000
0100
0001
,
1000
0010
0100
0001
1000
0010
0200
0000
,
0000
0000
0300
1100
,
1000
1100
0100
0110
,
0010
0110
0100
0101
,
0001
0101
0100
1100
,
1000
1100
0100
0110
,
0010
0110
0100
0101
,
0001
0101
0100
1100
,
1000
0000
1100
0000
0100
0000
0100
0100
,
0100
0100
0100
0100
0100
0100
0100
1000
,
0001
0010
1000
0100
1000
0010
0100
0001
,
0100
0010
1000
0010
0100
0001
0010
1000
,
0010
0100
1000
0001
0100
0010
1000
0100
,
1000
0010
0100
0001
0010
0001
0100
0010
,
1000
0010
0100
0010
0001
1000
0010
0100
,
0010
1000
0001
0100
0010
1000
0001
0100
,
0010
1000
0010
0100
0010
0001
2000
3002
,
0003
0000
0010
0100
0000
0100
0010
0000
1001
0000
0000
0000
0000
0000
0000
0000
;

//---------------dance-single - ----------------
#NOTES:
     dance-single:
     :
     Easy:
     8:
     0.362440,0.548134,0.062644,0.258406,0.000000,324.000000,316.000000,8.000000,33.000000,0.000000,0.000000,0.362440,0.548134,0.062644,0.258406,0.000000,324.000000,316.000000,8.000000,33.000000,0.000000,0.000000:
0000
0000
0000
0000
,
0000
0000
0000
0000
,
0000
0000
0000
0000
,
0000
0000
0000
0000
,
0000
0000
0000
0000
,
0000
0000
0000
0000
,
0000
0000
0000
0000
,
0000
0000
0000
0000
,
1000
0000
0000
0001
0000
0010
0000
1000
,
0000
1000
0000
1000
0000
1000
0001
0010
,
1000
0000
0000
0001
0000
0000
1000
0000
,
0000
0001
0000
0010
0000
0100
0010
1000
,
0001
0000
0000
1000
0000
0000
0010
0100
,
0000
0100
0000
0100
0000
0100
1000
0001
,
1000
0000
0000
0100
0000
0000
0002
0000
,
0003
0000
0000
0000
,
1000
0010
1000
0100
0000
0020
0000
0000
,
0030
2000
0000
3000
0020
0000
0000
0030
,
1000
0001
1000
0010
0000
0002
0000
0000
,
0003
2000
0000
3000
0200
0000
0000
0300
,
0001
0100
0001
0010
0000
0200
0000
0000
,
0300
0002
0000
0003
2000
0000
0000
3000
,
0001
0100
0001
0010
0000
0200
0000
0000
,
0300
0002
0000
0003
2000
0000
0000
3000
,
0020
0000
0000
0030
,
0200
0000
0000
0300
,
0002
0000
0000
0003
,
2000
0000
0000
3000
,
0020
0000
0000
0030
,
0002
0000
0000
0003
,
2000
0000
0000
3000
,
0200
0000
0000
0300
,
2000
0000
0000
3000
,
0002
0000
0000
0003
,
0020
0000
0000
0030
,
0200
0000
0000
0300
,
2000
0000
0000
3000
,
0002
0000
0000
0003
,
2000
0000
0000
3000
,
0200
0000
0000
0000
0000
0000
0300
0001
,
0000
0001
0000
0001
0000
0001
0000
0100
,
0000
0100
0000
0100
0000
0100
0000
0010
,
0000
0010
0000
0010
0000
0010
0000
1000
,
0000
1000
0000
1000
0000
1000
0000
0010
,
0000
0010
0000
0010
0000
0010
0000
0100
,
0000
0100
0000
0100
0000
0100
0000
0001
,
0000
0001
0000
0001
0000
0001
0000
1000
,
0000
1000
0000
1000
0000
1000
0000
0001
,
0000
0001
0000
0001
0000
0001
0000
0100
,
0000
0100
0000
0100
0000
0100
0000
0010
,
0000
0010
0000
0010
0000
0010
0000
1000
,
0000
1000
0000
1000
0000
1000
0000
0001
,
0000
0001
0000
0001
0000
0001
0000
0100
,
0000
0100
0000
0100
0000
0100
0000
0010
,
0000
0010
0000
0010
0000
0010
0020
0000
,
0000
0000
0000
0000
0000
0030
0000
0100
,
0001
1000
0100
1000
0010
0100
0000
1000
,
0000
0001
0000
0001
0010
0000
0100
0001
,
0100
0010
1000
0100
1000
0010
0000
0010
,
0000
1000
0000
0100
0010
0000
0001
0001
,
0100
1000
0010
0100
0001
0010
0000
0010
,
0000
0100
0000
0010
1000
0000
0010
1000
,
0001
0010
1000
0001
0100
0010
0000
0100
,
0000
0001
0000
0010
0100
0000
1000
0010
,
1000
0001
0010
0001
0100
0010
0000
0001
,
0000
1000
0000
1000
0100
0000
0010
1000
,
0010
0100
0001
0010
0001
0100
0000
0100
,
0000
0001
0000
0010
0100
0000
1000
0010
,
1000
0100
0010
0100
0001
0010
0000
0100
,
0000
1000
0000
1000
0001
0000
0010
1000
,
0010
0001
0100
0010
0100
0001
0000
0001
,
0000
0000
0000
1000
,
1000
1100
0100
0100
,
0100
0110
0010
0010
,
0010
0011
0001
0001
,
0001
1001
1000
1000
,
1000
1100
0100
0100
,
0100
0110
0010
0010
,
0010
0110
0100
0010
,
0100
0000
0010
0000
0100
0010
0100
1000
,
0100
1000
0100
1000
0100
1000
0100
1000
,
0100
1000
0100
1000
0000
0001
0010
0001
,
0010
0001
0010
0001
0010
0001
0010
0001
,
0010
0001
0010
0001
0000
0100
0010
0100
,
0010
0100
0010
0100
0010
0100
0010
0100
,
0010
0100
0010
0100
0000
1000
0001
0100
,
0010
1000
0001
0100
0010
0100
2000
3000
,
0002
0003
0020
0030
1100
0000
0000
0000
;

//---------------dance-single - ----------------
#NOTES:
     dance-single:
     :
     Beginner:
     4:
     0.261762,0.445359,0.000000,0.485490,0.000000,234.000000,234.000000,0.000000,62.000000,0.000000,0.000000,0.261762,0.445359,0.000000,0.485490,0.000000,234.000000,234.000000,0.000000,62.000000,0.000000,0.000000:
// measure 0
0000
0000
0000
0000
,  // measure 1
0000
0000
0000
0000
,  // measure 2
0000
0000
0000
0000
,  // measure 3
0000
0000
0000
0000
,  // measure 4
0000
0000
0000
0000
,  // measure 5
0000
0000
0000
0000
,  // measure 6
0000
0000
0000
0000
,  // measure 7
0000
0000
0000
0000
,  // measure 8
1000
0000
0000
0001
0000
0010
0000
2000
,  // measure 9
0000
0000
0000
0000
0000
3000
0001
0000
,  // measure 10
1000
0000
0000
0001
0000
0000
1000
0000
,  // measure 11
0000
0001
0000
0010
0000
0100
0000
1000
,  // measure 12
0001
0000
0000
1000
0000
0000
0010
0200
,  // measure 13
0000
0000
0000
0000
0000
0300
1000
0001
,  // measure 14
1000
0000
0000
0100
0000
0000
0001
0000
,  // measure 15
0000
0000
0000
0000
,  // measure 16
1000
0000
0010
0000
0000
0020
0000
0000
,  // measure 17
0030
2000
0000
3000
0020
0000
0000
0030
,  // measure 18
1000
0000
0100
0000
0000
0002
0000
0000
,  // measure 19
0003
2000
0000
3000
0200
0000
0000
0300
,  // measure 20
0001
0000
1000
0000
0000
0200
0000
0000
,  // measure 21
0300
0002
0000
0003
2000
0000
0000
3000
,  // measure 22
0001
0000
0010
0000
0000
0200
0000
0000
,  // measure 23
0300
0002
0000
0003
2000
0000
0000
3000
,  // measure 24
0020
0000
0000
0030
,  // measure 25
0200
0000
0000
0300
,  // measure 26
0002
0000
0000
0003
,  // measure 27
2000
0000
0000
3000
,  // measure 28
0020
0000
0000
0030
,  // measure 29
0002
0000
0000
0003
,  // measure 30
2000
0000
0000
3000
,  // measure 31
0200
0000
0000
0300
,  // measure 32
2000
0000
0000
3000
,  // measure 33
0002
0000
0000
0003
,  // measure 34
0020
0000
0000
0030
,  // measure 35
0200
0000
0000
0300
,  // measure 36
2000
0000
0000
3000
,  // measure 37
0002
0000
0000
0003
,  // measure 38
2000
0000
0000
3000
,  // measure 39
0200
0000
0000
0000
0000
0000
0300
0001
,  // measure 40
0000
0000
0000
0001
0000
0000
0000
0100
,  // measure 41
0000
0000
0000
0100
0000
0000
0000
0010
,  // measure 42
0000
0000
0000
0010
0000
0000
0000
1000
,  // measure 43
0000
0000
0000
1000
0000
0000
0000
0010
,  // measure 44
0000
0000
0000
0010
0000
0000
0000
0100
,  // measure 45
0000
0000
0000
0100
0000
0000
0000
0001
,  // measure 46
0000
0000
0000
0001
0000
0000
0000
1000
,  // measure 47
0000
0000
0000
1000
0000
0000
0000
0001
,  // measure 48
0000
0001
0000
0001
0000
0001
0000
0100
,  // measure 49
0000
0100
0000
0100
0000
0100
0000
0010
,  // measure 50
0000
0010
0000
0010
0000
0010
0000
1000
,  // measure 51
0000
1000
0000
1000
0000
1000
0000
0001
,  // measure 52
0000
0001
0000
0001
0000
0001
0000
0100
,  // measure 53
0000
0100
0000
0100
0000
0100
0000
0010
,  // measure 54
0000
0010
0000
0010
0000
0010
0000
0020
,  // measure 55
0000
0000
0000
0000
0000
0030
0000
0100
,  // measure 56
1000
0100
1000
0000
0010
0100
0000
0100
,  // measure 57
0000
0100
0000
0100
0010
0000
0100
0001
,  // measure 58
0100
0001
0100
0001
0100
0010
0000
0010
,  // measure 59
0000
0010
0000
0100
0010
0000
0010
1000
,  // measure 60
0100
1000
0100
1000
0100
0010
0000
0010
,  // measure 61
0000
0010
0000
0010
1000
0000
0001
0100
,  // measure 62
0001
0100
0001
0100
0001
1000
0000
1000
,  // measure 63
0000
1000
0000
1000
0100
0000
1000
0010
,  // measure 64
1000
0010
1000
0010
1000
0010
0000
0001
,  // measure 65
0000
0001
0000
0001
0100
0000
0010
1000
,  // measure 66
0010
1000
0010
1000
0010
0100
0000
0100
,  // measure 67
0000
0100
0000
0100
0001
0000
0100
0010
,  // measure 68
0100
0010
0100
0010
0100
0010
0000
1000
,  // measure 69
0000
1000
0000
1000
0001
0000
0010
0100
,  // measure 70
0010
0100
0010
0100
0010
1000
0000
1000
,  // measure 71
0000
0000
0000
2000
,  // measure 72
3000
2000
3000
0200
,  // measure 73
0300
0200
0300
0020
,  // measure 74
0030
0020
0030
0002
,  // measure 75
0003
0002
0003
0020
,  // measure 76
0030
0020
0030
0200
,  // measure 77
0300
0200
0300
2000
,  // measure 78
3000
2000
3000
0002
,  // measure 79
0003
0000
0002
0000
0003
0200
0000
0300
,  // measure 80
0000
2000
0000
3000
0000
0200
0000
0300
,  // measure 81
0000
2000
0000
3000
0000
0002
0000
0003
,  // measure 82
0000
0020
0000
0030
0000
0002
0000
0003
,  // measure 83
0000
0020
0000
0030
0000
0200
0000
0300
,  // measure 84
0000
0020
0000
0030
0000
0200
0000
0300
,  // measure 85
0000
0020
0000
0030
0000
1000
0100
1000
,  // measure 86
0100
1000
0100
1000
0100
1000
0200
0300
,  // measure 87
0002
0003
0020
0030
0001
0000
0000
0000
;
