#TITLE:Rumour Has It;
#SUBTITLE:;
#ARTIST:Adele;
#TITLETRANSLIT:;
#SUBTITLETRANSLIT:;
#ARTISTTRANSLIT:;
#GENRE:;
#CREDIT:;
#BANNER:Rumour Has It.png;
#BACKGROUND:Rumour Has It-bg.png;
#LYRICSPATH:;
#CDTITLE:;
#MUSIC:Rumour Has It.ogg;
#OFFSET:-4.020;
#SAMPLESTART:39.000;
#SAMPLELENGTH:12.000;
#SELECTABLE:YES;
#BPMS:0.000=120.000,36.000=60.000,38.000=120.000,112.000=100.000,114.000=84.000,120.000=62.400,132.000=63.000,136.000=36.400,140.250=120.000;
#STOPS:140.250=1.740
;
#TIMESIGNATURES:0.000=4=4
;
#BGCHANGES:;
#KEYSOUNDS:;

//---------------dance-single - Gabe (Zenius-I-vanisher.com)----------------
#NOTES:
     dance-single:
     Gabe (Zenius-I-vanisher.com):
     Beginner:
     1:
     0.106,0.118,0.026,0.000,0.000,83.000,3.000,0.000,0.000,0.000,0.000,0.106,0.118,0.026,0.000,0.000,83.000,3.000,0.000,0.000,0.000,0.000:
0000
0000
0000
0000
,
0000
0000
0000
0000
,
1000
0000
0000
0000
,
0001
0000
0000
0000
,
1000
0000
0000
0000
,
0001
0000
0000
0000
,
1000
0000
0000
0000
,
0001
0000
0000
0000
,
1000
1000
1000
0000
,
0001
0000
0001
0000
,
0001
0000
1000
0000
,
1000
0000
0001
0000
,
0001
0000
1000
0000
,
1000
0000
0000
0001
,
0000
1000
1000
0000
,
0000
0000
1001
0000
,
0000
0000
0000
0000
,
0000
0000
1001
0000
,
0010
0010
0010
0000
,
0001
0001
0001
0000
,
0100
0100
0100
0000
,
1000
1000
1000
0000
,
0010
0010
0010
0000
,
1000
1000
1000
0000
,
0001
0001
0001
0000
,
0000
0000
0100
0000
,
0100
0000
0010
0000
,
0010
0000
0010
0000
,
0000
0000
0000
0000
,
0000
0000
0000
0000
,
0010
0010
0010
0000
,
1000
0000
1000
0000
,
0100
0000
0010
0010
,
0010
0000
0100
0000
,
1000
1000
0000
0000
,
0000
1000
0000
0000
,
0000
0000
0000
0010
,
0010
0010
0000
1000
,
1000
1000
0000
0100
,
0100
0100
0000
0001
,
0001
0001
0000
0000
,
0000
0010
0000
0010
,
0000
0100
0000
0100
,
0000
1000
0000
0001
,
0000
1000
0000
0001
,
0000
1001
0000
0000
;

//---------------dance-single - Gabe (Zenius-I-vanisher.com)----------------
#NOTES:
     dance-single:
     Gabe (Zenius-I-vanisher.com):
     Hard:
     8:
     0.433,0.486,0.303,0.416,0.108,267.000,35.000,48.000,0.000,0.000,0.000,0.433,0.486,0.303,0.416,0.108,267.000,35.000,48.000,0.000,0.000,0.000:
0000
0000
0000
0000
,
0000
0000
0000
0000
,
0002
0000
0000
0000
0000
0013
0100
2000
,
0000
0000
0000
0000
0000
3010
0100
0001
,
0010
0100
1000
0010
0100
0001
0010
0100
,
2000
0000
0000
0000
,
3002
0000
0000
0000
0200
0000
0000
0000
0303
0000
0001
0000
1000
0100
0000
0020
,
0000
0000
0000
0000
0000
0000
0000
0130
,
0010
0001
0010
1000
0100
1000
0010
1000
,
0002
0000
1003
1100
,
1100
0001
0100
1000
0010
1000
0100
1000
,
0000
1000
0001
0100
0001
0010
0001
0100
,
0000
0001
0010
1000
0010
0100
0010
0001
,
0000
0100
0001
2000
0000
0000
3002
0000
,
0103
0000
0100
0010
1000
0001
0100
0020
,
0000
0000
0000
0130
0010
0010
0010
0010
,
0100
0100
0100
0010
0100
0010
0100
0010
,
1000
0100
1000
0100
2100
0000
3100
0010
,
0100
1000
0001
0100
0102
0000
0103
0010
,
0100
0001
1000
0010
2010
0000
3010
1000
,
0001
0100
0001
0010
0012
0000
0013
1000
,
0001
0100
0010
0010
0210
0000
0310
0010
,
0010
0100
0010
0100
0120
0000
0130
0100
,
0100
0010
1000
0001
2001
0000
3001
0001
,
0001
1000
0001
1000
0002
0000
0000
2000
,
0000
0000
3003
0000
0001
1001
0001
1001
,
0001
1001
0010
1001
1000
1001
1000
1001
,
0100
1001
1000
0001
1000
0001
1000
0001
,
1000
1000
2000
0100
,
0001
0000
0000
0000
0000
3020
0000
0000
0000
0000
0000
0000
0000
1030
0000
0000
,
0100
1000
0100
1000
0002
0010
0003
1000
0200
0000
0000
0000
0000
0000
0000
0000
,
2300
0000
3200
2300
0000
3020
0000
0230
0000
0000
0000
0000
0300
0000
1000
0010
,
0100
0001
0010
0100
1000
0010
0000
0010
2000
0000
0000
0000
3002
0000
0000
0000
,
0203
0000
0000
0000
0000
0010
0000
0020
0000
0000
0330
1000
0100
0000
0001
0000
,
0200
0000
0000
0000
0000
0000
0000
0000
0000
0000
0000
0000
0010
0000
0000
0000
0020
0000
0000
0000
0000
0000
0000
0000
0000
0000
0000
0000
0000
0000
0000
0000
0330
0000
0000
0000
0000
0000
0000
0000
0000
0000
0000
0000
0000
0000
0001
0000
0000
0000
0000
0000
0001
0000
0000
0100
0000
0000
0001
0000
0000
0020
0000
0000
,
0000
0130
0110
1001
,
1000
0010
1010
0000
0101
0000
0001
0010
,
0001
0010
0012
0000
0100
0100
0103
0001
,
0100
0001
0201
0000
0010
0010
0310
0001
,
0100
1000
2010
0000
0010
0010
3010
0100
,
1000
0010
0210
0000
0001
0001
0301
0010
,
0100
1000
2002
3003
0110
0110
1000
0001
,
0100
0100
2002
3003
0110
0110
0001
1000
,
0100
0100
1100
1100
0001
0100
0101
0101
,
1000
0100
2000
3020
0230
0302
0000
0000
,
0003
0210
0000
0000
,
0000
0000
0000
0310
;

//---------------dance-single - Gabe (Zenius-I-vanisher.com)----------------
#NOTES:
     dance-single:
     Gabe (Zenius-I-vanisher.com):
     Easy:
     3:
     0.165,0.203,0.017,0.243,0.000,103.000,2.000,28.000,0.000,0.000,0.000,0.165,0.203,0.017,0.243,0.000,103.000,2.000,28.000,0.000,0.000,0.000:
0000
0000
0000
0000
,
0000
0000
0000
0000
,
0100
0000
0100
0000
,
0100
0000
0100
0000
,
1000
0000
1000
0000
,
1000
0000
1000
0000
,
0002
0000
0000
0003
,
2000
0000
0000
3000
,
0020
0000
0000
0030
,
0000
0000
0100
0001
,
0100
0000
1000
0000
,
1000
0000
0010
1000
,
0010
0000
0001
0000
,
0001
0000
0000
0100
,
0000
0100
0010
0000
,
0010
0000
2002
0000
,
0000
0000
3003
0000
,
0100
0100
0200
0300
,
0010
0010
0020
0030
,
0100
0100
0200
0300
,
0010
0010
0020
0030
,
1000
1000
2000
3000
,
0001
0001
0002
0003
,
1000
0001
2000
3000
,
0001
1000
0002
0000
,
0000
0003
0100
0001
,
1000
0000
0100
1000
,
0001
0000
0010
0000
,
0000
0000
0000
0000
,
0000
0000
0000
0000
,
0001
0001
0002
0003
,
1000
1000
2000
3000
,
0100
0100
0010
0010
,
0002
0000
1003
0000
,
1000
0000
0000
0000
,
0000
0002
0100
0100
,
0103
2000
0100
0100
,
3000
0020
0000
0100
,
0130
0200
0000
0010
,
0310
0002
0000
0010
,
0013
2000
0000
0010
,
3010
0002
0100
0020
,
0033
2000
0100
0020
,
3030
0001
0100
1000
,
0100
0010
0100
0001
,
0000
2002
0000
0000
,
0000
0000
0000
3003
;

//---------------dance-single - Gabe (Zenius-I-vanisher.com)----------------
#NOTES:
     dance-single:
     Gabe (Zenius-I-vanisher.com):
     Medium:
     5:
     0.258,0.284,0.069,0.347,0.000,160.000,8.000,40.000,0.000,0.000,0.000,0.258,0.284,0.069,0.347,0.000,160.000,8.000,40.000,0.000,0.000,0.000:
0000
0000
0000
0000
,
0000
0000
0000
0000
,
0200
0000
0000
0000
0300
0010
0100
0020
,
0000
0000
0000
0000
0000
1000
1030
0000
,
0001
1000
0100
0010
,
0200
0000
0000
0300
,
0002
0000
0100
0000
0000
0010
0010
0000
,
2003
0100
0100
3100
,
0001
0000
1000
0000
0001
1000
0001
1000
,
0020
0000
0130
0100
,
0001
0001
1000
1000
,
0100
0100
1000
0001
,
0010
0000
0001
0000
0001
1000
0010
1000
,
0000
0001
0000
0100
,
0010
0100
0001
0010
,
0200
0000
0300
1000
0010
0000
0001
0000
,
0010
0000
1000
0000
0010
0001
0010
1000
,
0000
0000
2020
3030
,
0010
1000
0010
0000
0022
0000
0033
0000
,
0010
0001
0010
0000
2200
0000
3300
0000
,
0100
1000
0100
0000
0202
0000
0303
0000
,
0100
0001
0100
0000
2020
0000
3030
0000
,
1000
0010
1000
0000
0022
0000
0033
0000
,
0001
0010
0001
0000
2200
0000
3300
0000
,
1000
0100
1000
0000
0002
0000
0000
0200
,
0000
0000
0303
0000
1000
0001
1000
0000
,
0001
1000
0001
0000
1000
0001
1000
0000
,
0001
0000
1000
0000
0001
1000
0001
0000
,
1000
0001
1000
0000
0100
0000
0100
0000
,
0010
0020
0000
0000
,
0100
0100
0230
0000
,
0010
0010
0320
0030
,
2000
3020
0230
0001
,
0302
0010
0013
1000
,
0200
0310
0000
0000
,
0000
0001
1000
0001
,
1000
0100
0100
0010
,
0010
0020
0000
0001
,
0001
0032
0000
1000
,
1000
2003
0000
0100
,
0100
3200
0000
0010
,
0010
0320
0000
0032
,
1000
2003
0000
0100
,
3010
0001
0001
1000
,
1000
0000
0010
0100
0010
0100
0000
0000
,
0000
2002
0000
0000
,
0000
0000
0000
3003
;

//---------------dance-double - Gabe (Zenius-I-vanisher.com)----------------
#NOTES:
     dance-double:
     Gabe (Zenius-I-vanisher.com):
     Hard:
     8:
     0.425,0.486,0.243,0.416,0.108,267.000,28.000,48.000,0.000,0.000,0.000,0.425,0.486,0.243,0.416,0.108,267.000,28.000,48.000,0.000,0.000,0.000:
00000000
00000000
00000000
00000000
,
00000000
00000000
00000000
00000000
,
00020000
00000000
00000000
00000000
00000000
00130000
01000000
20000000
,
00000000
00000000
00000000
00000000
00000000
30100000
01000000
00010000
,
00100000
01000000
10000000
00100000
01000000
00010000
00100000
01000000
,
02000000
00000000
00000000
00000000
,
03002000
00000000
00000000
00000000
00200000
00000000
00000000
00000000
00303000
00000000
00001000
00000000
01000000
00100000
00000000
00020000
,
00000000
00000000
00000000
00000000
00000000
00000000
00000000
00130000
,
00010000
00001000
00010000
01000000
00100000
01000000
00010000
01000000
,
00000200
00000000
00100300
00110000
,
00110000
00000100
00010000
00100000
00001000
00100000
00010000
00100000
,
00000000
00100000
00000100
00010000
00000100
00001000
00000100
00010000
,
00000000
00000100
00001000
00100000
00001000
00010000
00001000
00000100
,
00000000
00001000
00000010
00020000
00000000
00000000
00030020
00000000
,
00001030
00000000
00001000
00000100
00010000
00000010
00001000
00000200
,
00000000
00000000
00000000
00001300
00000100
00000100
00000100
00000100
,
00001000
00001000
00001000
00000100
00001000
00000100
00001000
00000100
,
00001000
00000100
00001000
00000100
00002100
00000000
00003100
00000010
,
00000100
00001000
00000001
00000100
00000102
00000000
00000103
00000010
,
00000100
00000001
00001000
00000010
00002010
00000000
00003010
00001000
,
00000001
00000100
00000001
00000010
00000012
00000000
00000013
00001000
,
00000010
00001000
00000100
00000100
00002100
00000000
00003100
00000100
,
00000100
00001000
00000100
00001000
00001200
00000000
00001300
00001000
,
00001000
00000100
00010000
00000010
00020010
00000000
00030010
00000010
,
00000010
00010000
00000010
00010000
00000020
00000000
00000000
00020000
,
00000000
00000000
00030030
00000000
00000100
00100000
00000100
00100000
,
00000100
00100000
00001000
00100000
00100000
00100000
00100000
00100000
,
00010000
00100000
00100000
00000100
00100000
00000100
00100000
00000100
,
00100000
00100000
00200000
00010000
,
00000100
00000000
00000000
00000000
00000000
00302000
00000000
00000000
00000000
00000000
00000000
00000000
00000000
00103000
00000000
00000000
,
00100000
01000000
00100000
01000000
00002000
00010000
00003000
01000000
00200000
00000000
00000000
00000000
00000000
00000000
00000000
00000000
,
02300000
00000000
03200000
02300000
00000000
03020000
00000000
00230000
00000000
00000000
00000000
00000000
00300000
00000000
01000000
00010000
,
00100000
00001000
00010000
00100000
01000000
00010000
00000000
00010000
02000000
00000000
00000000
00000000
03002000
00000000
00000000
00000000
,
00203000
00000000
00000000
00000000
00000000
00010000
00000000
00020000
00000000
00000000
00330000
01000000
00100000
00000000
00001000
00000000
,
02000000
00000000
00000000
00000000
00000000
00000000
00000000
00000000
00000000
00000000
00000000
00000000
00100000
00000000
00000000
00000000
00200000
00000000
00000000
00000000
00000000
00000000
00000000
00000000
00000000
00000000
00000000
00000000
00000000
00000000
00000000
00000000
03300000
00000000
00000000
00000000
00000000
00000000
00000000
00000000
00000000
00000000
00000000
00000000
00000000
00000000
00010000
00000000
00000000
00000000
00000000
00000000
00010000
00000000
00000000
01000000
00000000
00000000
00010000
00000000
00000000
00200000
00000000
00000000
,
00000000
01300000
01100000
10010000
,
10000000
00100000
10100000
00000000
01010000
00000000
00010000
00100000
,
00010000
00100000
00120000
00000000
01000000
01000000
01030000
00010000
,
00100000
00001000
00201000
00000000
00010000
00010000
00310000
00001000
,
00100000
01000000
02010000
00000000
00010000
00010000
03010000
00100000
,
01000000
00010000
00210000
00000000
00001000
00001000
00301000
00010000
,
00100000
01000000
02002000
03003000
00110000
00110000
01000000
00001000
,
00010000
00010000
00200200
00300300
00011000
00011000
00000100
00100000
,
00010000
00010000
00110000
00110000
00000100
00010000
00010100
00010100
,
00100000
00010000
00200000
00302000
00023000
00030200
00000000
00000000
,
00000300
00021000
00000000
00000000
,
00000000
00000000
00000000
00031000
;

//---------------dance-double - Gabe (Zenius-I-vanisher.com)----------------
#NOTES:
     dance-double:
     Gabe (Zenius-I-vanisher.com):
     Medium:
     5:
     0.258,0.284,0.069,0.347,0.000,160.000,8.000,40.000,0.000,0.000,0.000,0.258,0.284,0.069,0.347,0.000,160.000,8.000,40.000,0.000,0.000,0.000:
00000000
00000000
00000000
00000000
,
00000000
00000000
00000000
00000000
,
00020000
00000000
00000000
00000000
00000000
00130000
01000000
20000000
,
00000000
00000000
00000000
00000000
00000000
00100000
30100000
00000000
,
00010000
10000000
01000000
00100000
,
00200000
00000000
00000000
00300000
,
00002000
00000000
00100000
00000000
00000000
00010000
00010000
00000000
,
02003000
00100000
00100000
03100000
,
00001000
00000000
01000000
00000000
00001000
01000000
00001000
01000000
,
00002000
00000000
00013000
00010000
,
00000100
00000100
00100000
00100000
,
00010000
00010000
00100000
00000100
,
00001000
00000000
00000100
00000000
00000100
00100000
00001000
00100000
,
00000000
00000010
00000000
00001000
,
00000100
00001000
00000010
00000100
,
00002000
00000000
00003000
00010000
00000100
00000000
00000010
00000000
,
00000100
00000000
00010000
00000000
00000100
00000010
00000100
00010000
,
00000000
00000000
00002020
00003030
,
00000010
00001000
00000010
00000000
00000022
00000000
00000033
00000000
,
00000010
00000001
00000010
00000000
00002200
00000000
00003300
00000000
,
00000100
00001000
00000100
00000000
00000202
00000000
00000303
00000000
,
00001000
00000010
00001000
00000000
00020200
00000000
00030300
00000000
,
00010000
00000100
00010000
00000000
00000220
00000000
00000330
00000000
,
00000010
00000100
00000010
00000000
00022000
00000000
00033000
00000000
,
00010000
00001000
00010000
00000000
00000020
00000000
00000000
00002000
,
00000000
00000000
00003030
00000000
00100000
00000100
00100000
00000000
,
00000100
00100000
00000100
00000000
00100000
00000100
00100000
00000000
,
00000100
00000000
00100000
00000000
00000100
00100000
00000100
00000000
,
00100000
00000100
00100000
00000000
00010000
00000000
00010000
00000000
,
00010000
00020000
00000000
00000000
,
00100000
00100000
00230000
00000000
,
00010000
00010000
00320000
00030000
,
02000000
03020000
00230000
00001000
,
00302000
00010000
00013000
01000000
,
02000000
03100000
00000000
00000000
,
00000000
00010000
10000000
00010000
,
10000000
01000000
01000000
00100000
,
00100000
00200000
00000000
00010000
,
00010000
00320000
00000000
10000000
,
10000000
20030000
00000000
01000000
,
01000000
32000000
00000000
00100000
,
00100000
03200000
00000000
00320000
,
10000000
20030000
00000000
01000000
,
30100000
00010000
00010000
10000000
,
01000000
00000000
00010000
00100000
00010000
00100000
00000000
00000000
,
00000000
02002000
00000000
00000000
,
00000000
00000000
00000000
03003000
;

//---------------dance-double - Gabe (Zenius-I-vanisher.com)----------------
#NOTES:
     dance-double:
     Gabe (Zenius-I-vanisher.com):
     Easy:
     4:
     0.243,0.263,0.225,0.251,0.000,141.000,26.000,29.000,0.000,0.000,0.000,0.243,0.263,0.225,0.251,0.000,141.000,26.000,29.000,0.000,0.000,0.000: // measure 1
00000000
00000000
00000000
00000000
,  // measure 2
00000000
00000000
00000000
00000000
,  // measure 3
10000000
10000000
00010000
00010000
,  // measure 4
10000000
10000000
00010000
00010000
,  // measure 5
01000000
00010000
01000000
00010000
,  // measure 6
00100000
00010000
00100000
00010000
,  // measure 7
00010000
00001000
00000000
00001000
,  // measure 8
00000100
00001000
00000000
00001000
,  // measure 9
00000001
00000010
00000100
00001000
,  // measure 10
00002200
00003300
00000010
00000010
,  // measure 11
00000010
00000000
00001000
00001000
,  // measure 12
00001000
00000000
00000001
00000001
,  // measure 13
00000001
00000000
00001000
00010000
,  // measure 14
00001000
00010000
00000000
00001000
,  // measure 15
00000000
01000000
00100000
10000000
,  // measure 16
02000000
03000000
00200000
00010000
,  // measure 17
00010000
00010000
00320000
00001000
,  // measure 18
02000000
03030000
10000000
10100000
,  // measure 19
00010000
00110000
10000000
10100000
,  // measure 20
00010000
00110000
01000000
01010000
,  // measure 21
01000000
11000000
01000000
01010000
,  // measure 22
01000000
11000000
10020000
00100000
,  // measure 23
00100000
00030000
10020000
01000000
,  // measure 24
01000000
00030000
00012000
00010000
,  // measure 25
00010000
00003000
00021000
00001000
,  // measure 26
00001000
00030000
00001000
00011000
,  // measure 27
00001000
00001100
00000001
00000101
,  // measure 28
00000010
00001010
00000010
00000011
,  // measure 29
00001001
00000100
00001001
00000010
,  // measure 30
00001001
00000200
00000000
00000000
,  // measure 31
00000320
00000000
00002030
00000000
,  // measure 32
00003002
00000000
00000203
00000000
,  // measure 33
00000302
00000023
00000230
00001000
,  // measure 34
00002300
00000000
00003020
00000000
,  // measure 35
00001030
00000000
00000000
00000000
,  // measure 36
00000000
11000000
01010000
01000000
,  // measure 37
01000000
10100000
00120000
00100000
,  // measure 38
00100000
00230000
00000000
01000000
,  // measure 39
01000000
02300000
00000000
10000000
,  // measure 40
10000000
23000000
00000000
00010000
,  // measure 41
00010000
30020000
00000000
01000000
,  // measure 42
01000000
02030000
00000000
00001000
,  // measure 43
00001000
03002000
00000000
00010000
,  // measure 44
00013000
01000000
01000000
00010000
,  // measure 45
00010000
00001000
00000100
00001000
,  // measure 46
00000000
00022000
00000000
00000000
,  // measure 47
00000000
00000000
00000000
00033000
;
