#TITLE:Rolling In The Deep;
#SUBTITLE:;
#ARTIST:Adele;
#TITLETRANSLIT:;
#SUBTITLETRANSLIT:;
#ARTISTTRANSLIT:;
#GENRE:;
#CREDIT:;
#BANNER:Rolling In The Deep.png;
#BACKGROUND:;
#LYRICSPATH:;
#CDTITLE:;
#MUSIC:Rolling In The Deep.ogg;
#OFFSET:-0.035;
#SAMPLESTART:39.700;
#SAMPLELENGTH:12.000;
#SELECTABLE:YES;
#BPMS:0.000=105.000;
#STOPS:;
#BGCHANGES:;
#KEYSOUNDS:;

//---------------dance-single - ----------------
#NOTES:
     dance-single:
     :
     Beginner:
     1:
     0.105,0.000,0.017,0.000,0.000:
0000
0000
0000
0000
,
0000
0000
0000
0000
,
1000
0000
1000
0000
,
0001
0000
0001
0000
,
1000
0000
0001
0000
,
1000
0000
0001
0000
,
1000
0000
1000
0000
,
0001
0000
0001
0000
,
1000
0000
0001
0000
,
1000
0000
0001
0000
,
0100
0000
0100
0000
,
0100
0000
0100
0000
,
0010
0000
0010
0000
,
0010
0000
0010
0000
,
1000
0000
1000
0000
,
1000
0000
1000
0000
,
0001
0000
0001
0000
,
0001
0000
0100
0100
,
0100
0000
0000
0000
,
0000
0000
0010
0010
,
0010
0000
0000
0000
,
0000
0000
1000
1000
,
1000
0000
0000
0000
,
0000
0000
0000
0001
,
0001
0001
0000
0100
,
0100
0000
1000
1000
,
1000
0000
0000
0000
,
0000
0000
0010
0010
,
0010
0000
0000
0000
,
0000
0000
0100
0100
,
0100
0000
0000
0000
,
0000
0000
0000
0001
,
0001
0001
0000
1000
,
1000
1000
0000
0000
,
0110
0000
0000
0000
,
0000
0000
0010
0000
,
0010
0000
0000
0000
,
0000
0000
0100
0000
,
0100
0000
0000
0000
,
0000
0000
0000
0000
,
1000
0000
0001
0000
,
1000
0000
0001
0001
,
0001
0000
0000
0000
,
0000
0000
0100
0100
,
0100
0000
0000
0000
,
0000
0000
0010
0010
,
0010
0000
0000
0000
,
0000
0000
0000
1000
,
1000
0000
0001
0000
,
1000
0000
0001
0000
,
1001
0000
0000
0000
;

//---------------dance-single - ----------------
#NOTES:
     dance-single:
     :
     Hard:
     8:
     0.476,0.000,0.104,0.182,0.351: // measure 1
0000
0000
0000
0000
,  // measure 2
0000
0000
0000
0000
,  // measure 3
2000
0000
0000
3100
0000
0000
0000
0000
0001
0000
0000
0000
0001
0000
0000
0000
,  // measure 4
1000
0001
1000
0200
0000
1300
0000
0000
,  // measure 5
0020
0000
0000
0230
0000
0000
0301
0000
1000
0000
0100
0000
1000
0000
0001
1000
,  // measure 6
0010
0100
0000
0001
0010
0000
1000
0100
0000
0000
0000
0000
0000
0000
0000
0000
,  // measure 7
2000
0000
0000
3010
0000
0000
0000
0000
0001
0000
0000
0000
0001
0000
0001
0000
,  // measure 8
0100
0100
1000
1000
0010
0000
1001
0000
,  // measure 9
0010
0000
0100
0010
0000
0000
1000
0000
0100
0000
0001
0000
0100
0000
1000
0000
,  // measure 10
0010
0000
0001
0100
0001
0000
0010
0000
0001
0000
0000
0000
1001
0000
0000
0000
,  // measure 11
0110
0000
0000
0000
0100
0000
0001
0000
0010
0001
0000
0000
1000
0100
0000
0000
,  // measure 12
0010
0001
0000
1000
0100
0000
1000
0000
0010
1000
0000
0000
1000
0100
0000
0000
,  // measure 13
0100
0010
0000
0010
0100
0000
1000
0000
0010
0100
0000
0000
0100
0001
0000
0000
,  // measure 14
0001
0010
0000
0000
0001
0000
1000
0000
0100
0000
0001
0000
1000
0000
0001
0000
,  // measure 15
1100
0000
0000
0000
0100
0000
0010
0000
1000
0100
0000
0000
1000
0001
0000
0000
,  // measure 16
1000
0100
0000
0010
0100
0000
1000
0000
0001
0100
0000
0000
0100
0010
0000
0000
,  // measure 17
0010
1000
0000
0001
0010
0000
0100
0000
1000
0010
0000
0000
0010
0100
0000
0000
,  // measure 18
0010
0010
0010
1000
0100
0100
0100
0001
,  // measure 19
0010
0001
0010
0000
1000
0000
0001
0200
0000
0000
0000
0000
0310
0000
0000
0000
,  // measure 20
0010
1000
0010
0000
0001
0000
1000
0100
0010
0000
0010
0000
0001
0000
0100
0000
,  // measure 21
0010
0100
0010
0000
1000
0000
0001
2000
0000
0000
0000
0000
3001
0000
0100
0000
,  // measure 22
1000
0001
1000
0000
0001
0000
0010
0100
1000
0000
1000
0000
0001
0000
0010
0000
,  // measure 23
1000
0100
0001
0000
0100
0000
1000
0200
0000
0000
0000
0000
0300
0000
0000
0000
,  // measure 24
0001
0100
1000
0000
0100
0000
0001
0100
0000
0000
1000
0000
1000
0000
0101
0000
,  // measure 25
0000
0101
0000
0000
0000
0010
0010
0100
,  // measure 26
0001
0010
0100
1000
0010
0010
0010
0010
,  // measure 27
0010
1000
0010
0000
0001
0000
1000
0200
0000
0000
0000
0000
0310
0000
0000
0000
,  // measure 28
0010
0001
0010
0000
1000
0000
0001
0100
0010
0000
0010
0000
1000
0000
0100
0000
,  // measure 29
0010
0100
0010
0000
0001
0000
1000
0002
0000
0000
0000
0000
1003
0000
0100
0000
,  // measure 30
0001
1000
0001
0000
1000
0000
0010
0100
0001
0000
0001
0000
1000
0000
0010
0000
,  // measure 31
0001
0100
1000
0000
0100
0000
0001
0200
0000
0000
0000
0000
0300
0000
0000
0000
,  // measure 32
1000
0100
0001
0000
0100
0000
1000
0100
0000
0000
0001
0000
0001
0000
1100
0000
,  // measure 33
0000
1100
0000
0000
0000
0010
0100
0110
,  // measure 34
0000
1001
0000
0000
0000
0000
0000
0000
,  // measure 35
1000
0100
1000
0000
0100
0000
1000
0200
0000
0000
0000
0000
1300
0000
0000
0000
,  // measure 36
0001
0100
0001
0000
0100
0000
0001
0100
0001
0000
0010
0000
0001
0000
0010
0000
,  // measure 37
0200
0000
0010
0000
0010
0000
0000
0310
0000
0000
0000
0000
0110
0000
0000
0000
,  // measure 38
0020
0000
0100
0000
0130
0000
0100
0001
0100
0000
0010
0000
1000
0000
0100
0000
,  // measure 39
2000
0000
0001
0000
0001
0000
0000
3001
0000
0000
0000
0000
1001
0000
0000
0000
,  // measure 40
0002
0000
1000
0000
1000
0000
0000
1003
0000
0000
0000
0000
0000
0000
1000
0001
,  // measure 41
0000
0100
0000
0000
0000
0000
0001
1000
0000
0100
0000
0000
0000
0000
1000
0001
,  // measure 42
0000
0010
0000
0000
0000
0000
0010
0000
0100
0000
0100
0000
1000
0000
0001
0000
,  // measure 43
1000
0001
1000
0000
0100
0000
0001
0200
0000
0000
0000
0000
0310
0000
0000
0000
,  // measure 44
0001
1000
0001
0000
0100
0000
1000
0100
0010
0000
1000
0000
0100
0000
1000
0000
,  // measure 45
0010
0100
0010
0000
0001
0000
1000
0200
0000
0000
0000
0000
0310
0000
0010
0000
,  // measure 46
0100
0010
0100
0000
1000
0000
0001
0100
0010
0000
1000
0000
0100
0000
0001
0000
,  // measure 47
1000
0010
1000
0000
0010
0000
1000
0020
0000
0000
0000
0000
1030
0000
0000
0000
,  // measure 48
0001
0010
0001
0000
0010
0000
0001
0020
0000
0000
0031
0000
0100
0000
0010
0000
,  // measure 49
0000
1000
0100
0010
0000
0010
0100
0001
,  // measure 50
0000
0010
0100
1000
0000
1000
0001
0100
,  // measure 51
0020
0100
0000
0000
0000
0000
0130
0000
0000
0000
0000
0000
0000
0000
0000
0000
;

//---------------dance-single - ----------------
#NOTES:
     dance-single:
     :
     Easy:
     3:
     0.211,0.000,0.061,0.147,0.000:
0000
0000
0000
0000
,
0000
0000
0000
0000
,
1000
0000
0100
0000
,
1000
0100
1000
0000
,
0001
0000
0100
0000
,
0001
0100
0001
0000
,
1000
0100
0001
0100
,
1000
0100
0001
0100
,
1000
1000
0100
0100
,
0001
0001
0100
0100
,
1000
0000
0001
0001
,
1000
1000
0001
0000
,
0001
0000
1000
1000
,
0001
0001
1000
0000
,
0010
0000
1000
1000
,
0010
0010
1000
0000
,
0010
0000
0001
0001
,
0010
0010
0001
0100
,
0120
0000
1000
0000
,
0100
0000
1030
0100
,
0020
0000
0001
0000
,
0100
0000
0031
0100
,
0020
0000
1000
0000
,
0100
0000
1030
0001
,
0020
0000
0001
0000
,
0100
0000
0031
1000
,
0010
0010
0010
0010
,
1000
1000
0100
0100
,
0010
0010
0010
0010
,
0001
0001
0100
0100
,
0010
0010
0100
0100
,
0010
0010
1000
1000
,
0100
0100
0010
0010
,
0100
0100
0001
0001
,
2002
0000
0000
3003
,
0000
0000
0100
0000
,
0220
0000
0000
0330
,
0000
0000
0001
0000
,
2001
0100
0000
0100
,
0000
0100
0000
3100
,
0002
0103
2000
3100
,
0002
0103
2000
3001
,
2001
0000
0100
0000
,
0001
0000
3100
0001
,
1002
0000
0100
0000
,
1000
0000
0103
1000
,
1000
1000
1000
1000
,
0100
0100
0010
0010
,
0001
0001
0001
0001
,
0010
0010
0100
0100
,
2002
0000
0000
3003
;

//---------------dance-single - The steps feel rushed than how I expected it.----------------
#NOTES:
     dance-single:
     The steps feel rushed than how I expected it.:
     Medium:
     6:
     0.345,0.000,0.303,0.104,0.000: // measure 1
0000
0000
0000
0000
,  // measure 2
0000
0000
0000
0000
,  // measure 3
0200
0000
0010
0310
,  // measure 4
2000
0010
0001
3100
,  // measure 5
0001
0100
0001
0100
,  // measure 6
1000
0002
0100
0003
,  // measure 7
0020
0000
0100
0130
,  // measure 8
2000
0100
0001
3010
,  // measure 9
0001
0010
0001
0010
,  // measure 10
1000
0002
0010
0003
,  // measure 11
2200
3300
0001
0100
,  // measure 12
0011
0100
1010
0011
,  // measure 13
1010
0100
0011
1010
,  // measure 14
1000
0100
1000
0100
0010
0100
0010
0000
,  // measure 15
1001
0000
0110
0000
1000
0100
0010
0100
,  // measure 16
1000
0100
0010
0000
0001
0100
0010
0100
,  // measure 17
0001
0100
0010
0000
1000
0100
0010
0001
,  // measure 18
0100
0010
1001
0000
0010
0100
0110
1000
,  // measure 19
1100
0010
0001
0100
0101
0000
1010
0000
,  // measure 20
1100
0010
0100
0001
0101
0000
1010
0000
,  // measure 21
0010
1000
0100
1000
1100
0000
0101
0000
,  // measure 22
0010
0001
0100
0001
0101
0000
1001
0000
,  // measure 23
1000
0010
0001
0010
1000
0000
1001
0000
,  // measure 24
0001
0010
1000
0010
0001
0000
1001
0000
,  // measure 25
0110
0000
1001
0000
0100
0100
0010
0010
,  // measure 26
0001
0001
1000
1000
1100
0001
0101
0001
,  // measure 27
1000
0000
0010
0000
1000
0010
1000
0000
,  // measure 28
0001
0000
0100
0000
0001
0100
0001
0000
,  // measure 29
1000
0000
0001
0000
1000
0001
1000
0000
,  // measure 30
0010
0000
0100
0000
0010
0100
0010
1000
,  // measure 31
0100
0000
0100
0000
0100
1000
0010
0000
,  // measure 32
0100
0000
0100
0000
0100
0001
0010
0000
,  // measure 33
0001
0000
0001
0000
0001
1000
0100
0000
,  // measure 34
1000
0000
1000
0000
1000
0001
0100
0001
,  // measure 35
0020
0000
0000
0000
,  // measure 36
0200
0000
0000
0030
,  // measure 37
2000
0000
0000
0300
,  // measure 38
0002
0000
0000
3003
,  // measure 39
0010
0000
0010
0000
,  // measure 40
0100
0000
0100
0000
,  // measure 41
1000
0001
1000
0001
,  // measure 42
1000
0000
0001
0010
0100
1000
0001
0100
,  // measure 43
1001
0000
0110
0000
1000
0010
0001
0000
,  // measure 44
0101
0000
1100
0000
0010
0001
0100
0010
,  // measure 45
1000
1000
1000
0000
0100
1000
0010
0000
,  // measure 46
0100
0001
0001
1000
1000
0001
1001
0000
,  // measure 47
0010
1000
0100
1001
,  // measure 48
0010
0001
0100
1001
,  // measure 49
0010
1000
0001
0001
0010
0001
1000
0000
,  // measure 50
0010
1000
0100
1000
1000
0001
0100
1000
,  // measure 51
1001
0000
0000
0000
;
