#TITLE:Zzblarno (Hey John Richard);
#SUBTITLE:;
#ARTIST:星街すいせい And John Richard;
#TITLETRANSLIT:;
#SUBTITLETRANSLIT:;
#ARTISTTRANSLIT:Suisei Hoshimachi And John Richard;
#GENRE:;
#CREDIT:;
#BANNER:Zzblarno (Hey John Richard).png;
#BACKGROUND:Zzblarno (Hey John Richard)-bg.png;
#LYRICSPATH:;
#CDTITLE:./CDTITLES/The Witch's Bakery Lunne Bonus.PNG;
#MUSIC:Zzblarno (Hey John Richard).ogg;
#OFFSET:-0.006;
#SAMPLESTART:80.536;
#SAMPLELENGTH:15.000;
#SELECTABLE:YES;
#DISPLAYBPM:137.000;
#BPMS:0.000=137.000;
#STOPS:;
#BGCHANGES:0.000=Zzblarno (Hey John Richard).avi=1.000=0=0=1=====,
470.000=Zzblarno (Hey John Richard)-bg.png=1.000=0=0=1=====,
99999=-nosongbg-=1.000=0=0=0 // don't automatically add -songbackground-
;
#KEYSOUNDS:;

//---------------dance-single - ----------------
#NOTES:
     dance-single:
     :
     Hard:
     8:
     0.479,0.450,0.276,0.140,0.143,606.000,57.000,29.000,0.000,0.000,0.000,0.479,0.450,0.276,0.140,0.143,606.000,57.000,29.000,0.000,0.000,0.000:
0000
0000
0000
0000
,
0000
0000
0000
0000
,
0000
0000
0000
0000
,
0000
0000
0000
0000
,
0100
0000
0000
0000
0010
0000
0000
0001
0000
0010
0000
0000
0100
0000
1000
0000
,
0010
0000
0100
0000
0001
0000
1000
0010
0000
0100
0000
0000
0010
0000
0010
0000
,
0100
0000
0000
0000
0001
0000
0000
0100
0000
0010
0000
0000
1000
0000
0100
0000
,
1000
0000
0010
0000
0100
0000
0001
1000
0000
0010
0000
0000
0100
0000
0001
0000
,
0010
0000
0000
0000
0100
0000
0000
1000
0000
0010
0000
0000
0100
0000
0010
0000
,
1000
0000
0100
0000
1000
0000
0001
0100
0000
0010
0000
0000
0100
0000
1000
0000
,
0010
0000
0000
0000
0100
0000
0000
0010
0000
0100
0000
0000
0001
0000
1000
0000
,
0020
0000
0000
0030
,
0100
0000
0000
0000
0010
0000
0000
1000
0000
0001
0000
0000
0010
0000
0100
0000
,
1000
0000
0010
0000
0100
0000
0010
0001
0000
0010
0000
0000
0001
0000
0100
0000
,
0010
0000
0000
0000
0100
0000
0000
1000
0000
0010
0000
0000
0100
0000
0001
0000
,
0010
0000
0100
0000
1000
0000
0001
0010
0000
0100
0000
0000
0100
0000
1000
0000
,
0010
0000
0000
0000
0100
0000
0000
0010
0000
0100
0000
0000
0001
0000
1000
0000
,
0010
0000
0100
0000
0001
0000
0010
0100
0000
1000
0000
0000
0010
0000
0100
0000
,
0001
0000
0000
0000
0010
0000
0000
0100
0000
1000
0000
0000
0100
0000
1000
0000
,
0010
0000
0100
0000
0001
0000
1000
0010
0000
0100
0000
0000
0001
0000
0010
0000
,
0110
0011
1100
0110
,
0010
1000
0001
0010
0000
0100
1000
0010
,
0000
0100
0001
1000
0010
0100
0001
2000
,
0000
3200
0000
0320
0000
0030
0000
0000
,
0101
0011
1100
0110
,
1000
0001
0100
0010
0000
0100
0000
0010
,
0000
1000
0100
1000
0010
0100
0001
2000
,
0000
3002
0000
0203
0000
0300
0000
0000
,
0010
0000
0000
0000
1000
0000
0000
0001
0000
0100
0000
0000
1000
0000
0010
0000
,
0100
0000
0000
0000
0001
0000
0000
1000
0000
0100
0000
0000
0010
0000
0100
0000
,
0000
0010
0001
0010
0100
0000
0000
0100
,
1000
0010
0100
0001
0100
0010
1000
0100
,
0010
0000
0001
0010
0100
1000
0000
0000
,
0010
0000
1000
0100
1000
0010
0000
0100
,
0000
0001
0100
1000
0010
0000
0000
0100
,
0000
0010
0100
1000
0100
0010
0001
0000
,
0100
0000
0010
0000
1000
0000
0100
0010
0100
0000
1000
0000
0000
0000
0000
0000
,
0100
0000
0001
0010
0100
1000
0000
0000
,
0000
0000
1000
0100
1000
0010
0100
1000
,
0100
0010
0100
0001
0000
0011
0000
0000
,
0010
0000
1100
0000
0010
0000
0100
0001
,
0000
0010
0000
1000
0000
0100
0000
0010
,
1001
0000
0100
1000
0010
0100
1000
0100
,
0001
0010
0100
1000
0000
0010
0000
0000
,
1100
0000
0011
0000
0010
1000
0000
2002
,
0000
0000
3003
0000
,
1010
0011
0110
1010
,
0010
1000
0100
1000
0000
0010
0100
0001
,
0000
0100
1000
0010
0100
0001
0100
0020
,
0000
0230
0000
2300
0000
3000
0000
0000
,
0110
0011
0110
1001
,
0010
1000
0100
1000
0000
0010
0100
0001
,
0000
1000
0100
1000
0010
0100
0001
0020
,
0000
0230
0000
0302
0000
0000
0003
0000
,
0011
0110
0101
1100
,
0000
0010
1000
0001
0000
0100
0001
0100
,
0010
0000
1000
0000
0100
0000
0010
0001
,
0010
0100
1000
0010
0100
0001
0100
1000
,
1010
0101
1010
0011
,
0000
0010
0100
1000
0000
0010
0100
1000
,
0001
0000
0100
0000
0010
0000
1000
0010
,
0100
0001
0010
0100
1000
0010
0100
0010
,
0000
0100
1000
0001
0100
0000
0000
0010
,
0100
1000
0001
0010
0100
0000
0010
0001
,
1000
0000
0010
0000
0100
0001
0000
0000
,
0010
0000
1000
0100
1000
0010
0000
0100
,
0000
1000
0010
1000
0001
0000
0010
0100
,
1000
0001
0100
0010
1000
0000
0100
0001
,
1000
0000
0010
1000
0001
0100
0000
0000
,
0010
0000
1000
0100
1000
0001
0000
0000
,
0001
0000
0010
0100
1000
0001
0010
0100
,
0001
1000
0100
1000
0000
0010
0000
0000
,
0100
0000
0001
0000
1000
0000
0010
1000
,
0000
0001
0000
0000
0000
0000
0000
0000
,
1000
0000
0100
0001
1000
0100
0010
1000
,
0001
0010
0100
1000
0000
0010
0000
0000
,
1001
0000
0110
0000
0001
1000
0000
2002
,
0000
0000
3003
0000
,
1010
0110
0011
1001
,
0010
1000
0100
1000
0000
0010
0000
0100
,
0000
0001
0100
0010
0100
1000
0100
0020
,
0000
0230
0000
0302
0000
0000
0003
0000
,
1010
0011
0110
1001
,
0100
0001
0010
1000
0000
0100
0000
0010
,
0000
1000
0100
1000
0010
0100
0001
0020
,
0000
0230
0000
0302
0000
0000
0003
0000
,
0010
0000
0000
0000
0100
0000
0000
0100
0000
0010
0000
0000
1000
0000
0010
0000
,
0100
0000
0001
0000
1000
0000
0010
0100
0000
0000
0010
0000
1000
0000
0001
0000
,
0010
0100
1000
0010
,
0001
0000
0010
0000
0100
0000
0010
1000
0000
0001
0000
0000
0100
0000
0010
0000
,
0100
0000
0000
0000
0010
0000
0000
0010
0000
0100
0000
0000
1000
0000
0010
0000
,
0100
0000
0010
0000
0001
0000
0010
0100
0000
0000
0010
0000
1000
0000
0100
0000
,
0010
0001
0100
0010
,
1000
0000
0100
0000
0010
0000
0001
1000
0000
0010
0000
0000
0100
0000
0001
0000
,
0010
0000
0000
0000
,
0000
0000
0000
0100
,
0011
0110
1001
0110
,
0010
1000
0100
1000
0000
0010
0000
0100
,
0000
0010
0001
0100
0010
1000
0100
0010
,
0000
0100
0000
0001
0000
0000
0000
0000
,
0011
1010
0110
1001
,
0010
1000
0100
1000
0000
0010
0000
0100
,
0000
0001
0100
0010
1000
0100
0010
0001
,
0000
0010
0000
0100
0000
0000
0000
0000
,
1100
0011
0110
1001
,
0010
1000
0100
0010
0000
0100
0000
1000
,
0000
0001
0100
0010
1000
0100
0010
0002
,
0000
2003
0000
3020
0000
0000
0030
0000
,
1100
0110
0011
1001
,
0001
1000
0010
0100
0000
1000
0000
0010
,
0000
0100
0001
1000
0010
0100
0001
2000
,
0000
3020
0000
0230
0000
0000
0300
0000
,
0010
0000
0000
0010
0000
0000
0000
0100
0000
1000
0000
0010
0100
0000
0001
0000
,
1000
0000
0000
0010
0100
0000
0010
0001
0000
0100
0000
0010
1000
0000
0100
0000
,
0010
0000
0000
0010
0000
0000
0000
0100
0000
0010
0000
1000
0001
0000
0100
0000
,
0010
0000
0100
0000
1000
0000
0100
0010
0000
0001
0000
0000
0010
0000
1000
0000
,
0100
0000
0000
0000
;

//---------------dance-single - ----------------
#NOTES:
     dance-single:
     :
     Challenge:
     9:
     0.550,0.534,0.150,0.107,0.271,741.000,31.000,22.000,0.000,0.000,0.000,0.550,0.534,0.150,0.107,0.271,741.000,31.000,22.000,0.000,0.000,0.000:
0000
0000
0000
0000
,
0000
0000
0000
0000
,
0000
0000
0000
0000
,
0000
0000
0000
0000
,
1000
0000
0000
0000
0100
0010
0000
0100
0000
0001
0000
1000
0010
0000
0100
0000
,
0001
0000
0100
0000
0010
0000
1000
0001
0000
0100
0000
0010
1000
0000
0100
0000
,
0010
0000
0000
0000
0100
0001
0000
0100
0000
0010
0000
1000
0010
0000
0100
0000
,
0001
0000
0010
0000
0100
0000
1000
0100
0000
0010
0000
1000
0001
0000
0100
0000
,
0010
0000
0000
0000
0100
0010
0000
1000
0000
0001
0000
0100
0010
0000
1000
0000
,
0100
0000
0010
0000
1000
0000
0001
0100
0000
0010
0000
1000
0001
0000
0100
0000
,
0010
0000
0000
0000
0100
0010
0000
1000
0000
0001
0000
0100
0010
0000
1000
0000
,
2002
0000
3003
0000
,
0010
0000
0000
0000
0100
0010
0000
1000
0000
0001
0000
0100
0010
0000
1000
0000
,
0010
0000
0100
0000
0001
0000
0010
0100
0000
1000
0000
0010
0100
0000
0001
0000
,
1000
0000
0000
0000
0010
0001
0000
0100
0000
0010
0000
1000
0010
0000
0100
0000
,
0001
0000
0100
0000
0010
0000
1000
0010
0000
0100
0000
0001
0100
0000
0010
0000
,
1000
0000
0000
0000
0100
0010
0000
0100
0000
0001
0000
0100
0010
0000
1000
0000
,
0100
0000
0010
0000
1000
0000
0001
0100
0000
0010
0000
1000
0001
0000
0100
0000
,
0010
0000
0000
0000
0100
0010
0000
1000
0000
0001
0000
0100
0010
0000
1000
0000
,
0001
0000
0100
0000
0010
0000
1000
0001
0000
0100
0000
0010
1000
0000
0001
0000
,
0010
0010
0010
0010
,
0001
0010
0100
1000
0000
0010
0100
0001
,
0000
1000
0010
0100
0001
0010
0100
2000
,
0000
3200
0000
0310
0000
0001
0001
0000
,
0100
0100
0100
0100
,
0001
0100
0010
1000
0000
0010
0100
1000
,
0000
0100
0010
0001
1000
0100
0010
0002
,
0000
0203
0000
0310
0000
0100
0100
0000
,
1000
0000
0100
0000
0010
0001
0000
0010
0000
0100
0000
1000
0010
0000
0100
0000
,
0001
0000
1000
0000
0010
0100
0000
1000
0000
0100
0000
0010
0100
0000
0001
0000
,
0010
1000
0010
0001
0010
0100
1000
0100
,
0010
0001
0010
0100
1000
0010
0001
0010
,
0100
1000
0010
0100
1000
0010
0000
0000
,
0010
0100
1000
0010
0100
1000
0010
0001
,
1000
0010
0001
0010
1000
0010
0001
0010
,
1000
0010
0001
0010
1000
0100
0001
0000
,
0010
0000
0100
0000
1000
0000
0010
0001
0010
0000
0100
0000
0000
0000
0000
0000
,
0010
0000
0000
0000
1000
0000
0100
0000
0010
0000
0001
0000
1000
0001
1000
0001
,
1000
0000
0100
0010
0100
0001
0100
0010
,
0100
1000
0010
0110
0000
0010
0000
0001
,
0100
0000
0010
0000
1001
0000
0010
0101
,
0000
1100
0000
0010
0100
0010
0100
0010
,
0100
0000
1000
0010
0100
0001
0010
0100
,
1000
0010
0100
0001
0000
1000
0000
1010
,
0100
0000
0001
0000
0100
0010
0000
2002
,
0000
0000
0000
0000
3003
0000
0010
0000
0100
0000
0000
0010
0000
0000
1000
0000
,
0100
0100
0100
0100
,
1000
0100
0010
0001
0000
0001
0100
0010
,
0100
1000
0100
0010
0100
0001
0100
0020
,
0000
2030
0000
3100
0000
0010
0010
0000
,
0100
0100
0100
0100
,
1000
0100
0010
0001
0000
0010
0100
1000
,
0001
0010
0100
1000
0010
0100
0001
2000
,
0000
3200
0000
0310
0000
0001
0001
0000
,
0100
0100
0100
0100
,
0010
0100
1000
0010
0000
0100
0001
0100
,
1100
0000
0011
0000
1001
0000
0010
0100
,
1000
0010
0100
0001
0100
0010
1000
0100
,
0001
0001
0001
0001
,
0010
0100
1000
0001
0000
0010
0100
1000
,
1010
0000
0101
0000
1001
0000
0010
1000
,
0100
0001
0010
0001
0100
0010
0001
1000
,
0000
0100
0001
0010
0001
0000
0010
0100
,
1000
0010
0100
0001
0010
0100
0010
1000
,
0001
0010
0100
0100
1000
0010
0000
0000
,
0100
0000
0001
0100
0010
1000
0100
0010
,
0000
0100
0010
0001
1000
0000
0010
1000
,
0100
1000
0010
0100
0001
0010
0100
1000
,
0001
0000
0010
0100
1000
0001
0000
0000
,
0010
0000
0000
0000
0100
0000
1000
0000
0010
0000
0100
0000
0001
1000
0001
1000
,
0001
0000
0010
0100
1000
0100
0010
0001
,
0010
0100
0001
1000
0000
0010
0000
1000
,
0100
0000
0010
0000
0001
0000
0100
1000
,
0000
1010
0000
0110
0000
0001
0100
0010
,
1000
0000
0100
0010
0001
1000
0100
0010
,
0100
0001
1000
0010
0000
0100
0000
0000
,
1001
0000
0110
0000
0001
1000
0000
2002
,
0000
0000
0000
0000
3003
0000
0010
0000
0100
0000
0000
0100
0000
0000
0010
0000
,
0010
0010
0010
0010
,
0100
1000
0010
1000
0000
0010
0100
0001
,
0000
0100
0010
1000
0100
0010
0100
0002
,
0000
0023
0000
0130
0000
1000
1000
0000
,
0010
0010
0010
0010
,
1000
0100
0010
0001
0000
1000
0010
0100
,
0000
0001
0100
0010
0100
1000
0001
0200
,
0000
0320
0000
0031
0000
0100
0100
0000
,
1000
0000
0100
0000
0010
0001
0000
0010
0000
0100
0000
1000
0010
0000
0100
0000
,
0010
0000
1000
0000
0001
0000
0100
0010
0000
0100
0010
0000
1000
0000
0100
0000
,
0110
0000
0011
0000
1001
0000
0100
0010
,
0100
0000
1000
0000
0010
0000
0100
0001
0000
0010
0000
0100
0010
0000
0100
0000
,
1000
0000
0100
0000
0010
0001
0000
0100
0000
0010
0000
1000
0001
0000
0100
0000
,
0010
0000
0100
0000
1000
0000
0010
1000
0000
0100
0010
0000
0100
0000
0001
0000
,
1001
0000
0011
0000
0110
0000
1000
0100
,
1000
0000
0010
0000
0100
0000
0010
0100
0000
0001
0000
1000
0010
0000
0100
0000
,
0001
1000
0001
1000
0001
1000
0001
1000
0001
1000
0001
1000
0001
1000
0001
1000
,
0001
0000
0000
1001
,
0100
0100
0100
0100
,
0010
1000
0001
0100
0000
0010
0100
1000
,
0000
0100
0010
0100
0001
0100
1000
1010
,
0000
0110
0000
1001
0000
0100
0100
0000
,
0001
0001
0001
0001
,
0010
1000
0100
1000
0000
0010
0100
0001
,
0000
0010
0100
1000
0010
0100
0001
0101
,
0000
0110
0000
1010
0000
0001
0001
0000
,
1000
1000
1000
1000
,
0010
0001
0100
0010
0000
1000
0100
0010
,
0000
0100
0001
1000
0010
0100
0001
0200
,
0000
0320
0000
1030
0000
0010
0010
0000
,
0100
0100
0100
0100
,
0010
1000
0001
0100
0000
0010
1000
0001
,
0000
0100
1000
0010
0100
0001
0100
0020
,
0000
2030
0000
3100
0000
0010
0010
0000
,
0100
0000
0000
0100
0000
0000
0010
0001
0000
0010
0000
0100
1000
0000
0010
0000
,
0100
0010
0000
0100
0001
0000
0010
1000
0000
0100
0000
1000
0010
0000
0100
0000
,
0001
0000
0000
0001
0000
0000
0100
0010
0000
0100
0000
1000
0010
0000
0100
0000
,
0001
1000
0000
0010
0100
0000
1000
0010
0000
0100
0000
0001
0100
0000
0010
0000
,
1000
0000
0000
0000
;

//---------------dance-single - ----------------
#NOTES:
     dance-single:
     :
     Easy:
     4:
     0.278,0.281,0.179,0.078,0.000,348.000,37.000,16.000,0.000,0.000,0.000,0.278,0.281,0.179,0.078,0.000,348.000,37.000,16.000,0.000,0.000,0.000:
0000
0000
0000
0000
,
0000
0000
0000
0000
,
0000
0000
0000
0000
,
0000
0000
0000
0000
,
0001
0001
0001
0001
,
0001
0001
0001
0001
,
0001
0001
0001
0001
,
0001
0001
0001
0001
,
1000
1000
1000
1000
,
1000
1000
1000
1000
,
1000
1000
1000
1000
,
1000
0000
0000
0000
,
0010
0010
0010
0010
,
0010
0010
0010
0010
,
0100
0100
0100
0100
,
0100
0100
0100
0100
,
0001
0001
0001
0001
,
0001
0001
0001
0001
,
1000
1000
1000
1000
,
1000
1000
1000
1000
,
0010
1001
0100
1001
,
0010
0100
0010
0100
,
1000
0100
1000
1000
,
0010
0100
0001
0000
,
0010
1001
0100
1001
,
0010
0100
0100
0001
,
1000
0010
1000
0100
,
1000
0010
0100
0000
,
0001
0001
0001
0001
,
1000
1000
1000
1000
,
0010
0010
0100
0000
,
0100
0100
0010
0010
,
0100
0010
1001
0000
,
0010
0100
0110
0000
,
1000
1000
0100
0000
,
0010
0010
0001
0100
,
0010
1000
1001
0000
,
0010
0100
0110
0000
,
1000
0000
1100
0000
,
0010
0000
0011
0000
,
0010
0000
0100
0000
,
1001
0000
0000
0000
,
0010
0000
0110
0000
,
1000
0000
1010
0000
,
0100
0000
0001
0000
,
2002
0000
3003
0000
,
0010
0110
1000
1001
,
0100
0010
0100
0001
,
1000
1000
0100
0100
,
0001
0010
0110
0000
,
0010
1001
0100
1001
,
0010
0100
0010
0100
,
0001
1000
0100
1000
,
0010
0100
1001
0000
,
2000
0000
3000
0000
,
0020
0000
0030
0001
,
0100
0010
0000
0000
,
0100
0100
0100
0100
,
0020
0000
0030
0000
,
2000
0000
3000
0100
,
0001
1000
0010
0000
,
0100
0100
0001
1000
,
0010
0100
0001
0000
,
0010
1000
0100
1000
,
0010
1000
0001
0000
,
0010
0100
0110
0000
,
0010
1000
0001
0000
,
1000
0100
1000
0010
,
0100
0001
1000
0000
,
0001
1000
1001
0000
,
0010
0000
0110
0000
,
0001
0000
0101
0000
,
0010
0000
1001
0000
,
0110
0000
0000
0000
,
0010
0000
1001
0000
,
0100
0000
0110
0000
,
1000
0000
0001
0000
,
2002
0000
3003
0000
,
0010
1001
0100
1001
,
0010
0100
1000
0100
,
0010
0010
0100
0100
,
0001
1000
1001
0000
,
0010
0110
0010
1001
,
0100
1000
0010
0100
,
0001
1000
0010
0100
,
0010
1000
1001
0000
,
0020
0000
0030
0000
,
0200
0000
0300
0010
,
1000
0001
0100
0000
,
1000
1000
1000
1000
,
0020
0000
0030
0000
,
0200
0000
0300
0001
,
0010
0100
1000
0000
,
0010
0100
0010
1000
,
0010
0000
0000
0000
,
0000
0000
0000
0000
,
0010
0100
0010
0100
,
0010
0100
0010
0100
,
1000
0100
0001
0100
,
1000
0010
1001
0000
,
0010
0100
0010
0100
,
0010
0100
0010
0100
,
1000
0100
0001
0010
,
0100
1000
1001
0000
,
0010
0010
0001
0001
,
0100
1000
0010
1000
,
0100
1000
0010
0100
,
0001
1000
0010
0000
,
1000
1000
0010
0010
,
0100
1000
0100
0001
,
0010
0100
1000
0100
,
0001
0010
0100
0000
,
0020
0000
0030
0010
,
0200
0000
0300
1000
,
0200
0000
0300
0010
,
0002
0000
0003
0100
,
0010
0000
0000
0000
;

//---------------dance-single - ----------------
#NOTES:
     dance-single:
     :
     Medium:
     5:
     0.342,0.337,0.140,0.063,0.000,452.000,29.000,13.000,0.000,0.000,0.000,0.342,0.337,0.140,0.063,0.000,452.000,29.000,13.000,0.000,0.000,0.000:
0000
0000
0000
0000
,
0000
0000
0000
0000
,
0000
0000
0000
0000
,
0000
0000
0000
0000
,
1000
0000
1000
0000
1000
0000
1000
0100
,
0010
0000
0010
0000
0010
0000
0010
0001
,
0100
0000
0100
0000
0100
0000
0100
0010
,
0001
0000
0001
0000
0001
0000
0001
0100
,
1000
0000
1000
0000
1000
0000
1000
0010
,
0100
0000
0100
0000
0100
0000
0100
0010
,
1000
0000
1000
0000
1000
0000
1000
0001
,
0100
1000
0100
0010
,
0001
1000
0001
0000
0100
1000
0001
0000
,
0001
1000
0001
0000
0001
1000
0010
0000
,
0100
1000
0100
0000
0100
0010
0100
0000
,
0100
1000
0100
0000
0100
0001
0100
0000
,
0001
0100
0001
0000
1000
0100
0001
0000
,
0001
0100
0001
0000
0001
0100
0001
0000
,
1000
1000
0010
0010
,
0011
1010
0110
0000
,
0100
0010
0100
1000
,
0010
0100
0010
0100
0000
0000
1000
0000
,
0100
0000
0010
0000
0001
0000
1000
0001
,
0000
1000
0000
1001
0000
0000
0000
0000
,
0010
0100
1000
0100
,
0010
0001
0010
0001
0000
0000
0010
0000
,
1000
0000
0100
0000
1000
0000
0010
0100
,
0000
0001
0000
1001
0000
0000
0000
0000
,
0100
0100
0100
0100
,
1000
1000
0011
1010
,
0100
0001
0011
0000
,
0100
1000
0100
1000
,
0010
0100
0010
0000
,
0100
0010
0100
0000
,
1000
0100
0101
0000
,
0001
0010
0100
1000
,
0010
1000
1001
0000
,
0010
0001
0011
0000
,
0020
0100
0130
0010
,
1000
0100
1000
1000
,
0002
1000
1003
0010
,
1000
0000
0010
0000
,
0200
0010
0310
1000
,
0001
1000
1000
0100
,
0002
1000
1003
0000
,
2002
0000
3003
0000
,
0010
0100
0010
0001
,
1000
0001
1000
0001
0000
0000
1000
0000
,
0100
0000
0001
0000
0100
0000
1000
0001
,
0000
0100
0000
1001
0000
0000
0000
0000
,
0010
0001
0010
0100
,
0001
1000
0001
1000
0000
0000
0010
0000
,
0100
0000
1000
0000
0100
0000
0001
1000
,
0000
0010
0000
1001
0000
0000
0000
0000
,
0010
0001
0100
1000
,
0000
0010
1000
0100
,
1000
1000
0100
0100
,
0001
0100
0001
0100
,
1000
0010
1000
0100
,
0000
0010
0100
1000
,
0010
0010
0100
0100
,
0001
1000
0010
1000
,
0001
0100
0110
0000
,
0100
1000
0010
1000
,
0100
0010
1001
0000
,
1000
0001
0101
0000
,
1010
0011
0101
0000
,
0100
1000
0010
1000
,
1000
0001
0101
0000
,
0010
1000
1001
0000
,
0002
0010
0103
1000
,
0200
0010
0310
0001
,
0200
0000
0001
0000
1300
0000
0001
1000
,
0000
0001
0000
0000
0100
0000
0001
0000
,
2000
0100
3100
0010
,
0200
0001
1300
0001
,
0100
0000
0001
0000
0001
1000
0000
2002
,
0000
0000
3003
0000
,
0010
0100
0010
0100
,
0010
0100
0010
0100
0000
0000
0100
0000
,
0001
0000
0010
0000
0001
0000
1000
0001
,
0000
1000
0000
0010
0000
0000
0000
0000
,
1000
0001
1000
0001
,
0010
0100
0010
0100
0000
0000
0100
0000
,
1000
0000
0001
0000
1000
0000
0010
0100
,
0000
1000
0000
0001
0000
0000
0000
0000
,
0010
1000
0001
0000
0100
0010
0001
0000
,
1000
0100
1000
0000
0010
0001
0010
0000
,
1000
0100
1000
0000
0100
0001
0100
0000
,
0010
1000
0010
0000
0100
0001
1000
0000
,
0001
1000
0001
0000
0010
0001
1000
0000
,
0100
0001
1000
0000
0010
0001
0100
0000
,
1000
0010
1000
0000
0100
1000
0100
0000
,
0010
0001
1000
0000
0100
0010
0100
0000
,
1000
0000
0000
0000
,
0000
0000
0000
1001
,
0010
0100
0010
0100
,
0010
0100
0010
0100
0000
0000
0100
0000
,
0001
0000
0010
0000
0100
0000
1000
0001
,
0000
0100
0000
1000
0000
0000
0000
0000
,
0001
1000
0001
1000
,
0010
0100
0010
0100
0000
0000
1000
0000
,
0100
0000
0010
0000
0001
0000
0100
0010
,
0000
1000
0000
0001
0000
0000
0000
0000
,
0010
0100
0010
0100
,
1000
0001
1000
0001
0000
0000
0010
0000
,
1000
0000
0100
0000
0010
0000
0001
1000
,
0000
0010
0000
1000
0000
0000
0000
0000
,
0010
0100
0010
0100
,
1000
0001
1000
0001
0000
0000
1000
0000
,
0100
0000
1000
0000
0010
0000
0100
0001
,
0000
1000
0000
0010
0000
0000
0000
0000
,
1100
0000
0010
0001
,
0101
0001
0010
1000
,
1001
0000
0100
0010
,
0110
0010
1000
0001
,
1001
0000
0000
0000
;

//---------------dance-single - ----------------
#NOTES:
     dance-single:
     :
     Beginner:
     1:
     0.149,0.169,0.087,0.000,0.000,197.000,18.000,0.000,0.000,0.000,0.000,0.149,0.169,0.087,0.000,0.000,197.000,18.000,0.000,0.000,0.000,0.000: // measure 1
0000
0000
0000
0000
,  // measure 2
0000
0000
0000
0000
,  // measure 3
0000
0000
0000
0000
,  // measure 4
0000
0000
0000
0000
,  // measure 5
1000
1000
0000
0000
,  // measure 6
0001
0001
0000
0000
,  // measure 7
0100
0100
0000
0000
,  // measure 8
0010
0010
0000
0000
,  // measure 9
1000
0001
0000
0000
,  // measure 10
0001
0100
0000
0000
,  // measure 11
1000
0010
0000
0000
,  // measure 12
0100
0010
0000
0000
,  // measure 13
1000
1000
0000
0000
,  // measure 14
0001
1000
0000
0000
,  // measure 15
0010
0010
0000
0000
,  // measure 16
0100
0001
0000
0000
,  // measure 17
0010
0010
0000
0000
,  // measure 18
0100
0010
0000
0000
,  // measure 19
1000
1000
0000
0000
,  // measure 20
0001
0100
0000
0000
,  // measure 21
0010
0010
0000
0000
,  // measure 22
0100
0010
0000
0000
,  // measure 23
1000
1000
0000
0000
,  // measure 24
1001
0000
0000
0000
,  // measure 25
0010
0010
0000
0000
,  // measure 26
0100
0010
0000
0000
,  // measure 27
0100
0100
0000
0000
,  // measure 28
1001
0000
0000
0000
,  // measure 29
0010
0000
0000
0000
,  // measure 30
0010
0000
0100
0100
,  // measure 31
0100
0000
0100
0000
,  // measure 32
0010
0000
0010
0000
,  // measure 33
0001
0000
0001
0000
,  // measure 34
0100
0000
0100
0000
,  // measure 35
1000
0000
1000
0000
,  // measure 36
0010
0000
0010
0000
,  // measure 37
0100
0000
0100
0000
,  // measure 38
0001
0000
0001
0000
,  // measure 39
1000
0000
0100
0000
,  // measure 40
0010
0000
0001
0000
,  // measure 41
0010
0000
0100
0000
,  // measure 42
1001
0000
0000
0000
,  // measure 43
0010
0000
0001
0000
,  // measure 44
0100
0000
0010
0000
,  // measure 45
1000
0000
0100
0000
,  // measure 46
1001
0000
0000
0000
,  // measure 47
0010
0010
0000
0000
,  // measure 48
0100
0010
0000
0000
,  // measure 49
1000
1000
0000
0000
,  // measure 50
1001
0000
0000
0000
,  // measure 51
0010
0010
0000
0000
,  // measure 52
0100
0010
0000
0000
,  // measure 53
1000
1000
0000
0000
,  // measure 54
1001
0000
0000
0000
,  // measure 55
0010
0000
0010
0000
,  // measure 56
0000
0000
0100
0000
,  // measure 57
0100
0000
0010
0000
,  // measure 58
0001
0000
1000
0000
,  // measure 59
0010
0000
0010
0000
,  // measure 60
0000
0000
0100
0000
,  // measure 61
0100
0000
1000
0000
,  // measure 62
0010
0000
0100
0000
,  // measure 63
0001
0000
0010
0000
,  // measure 64
0001
0000
0001
0000
,  // measure 65
0010
0000
0100
0000
,  // measure 66
1000
0000
1000
0000
,  // measure 67
0100
0000
0010
0000
,  // measure 68
0100
0000
0100
0000
,  // measure 69
0001
0000
1000
0000
,  // measure 70
0010
0000
0100
0000
,  // measure 71
1001
0000
0010
0000
,  // measure 72
0110
0000
0010
0000
,  // measure 73
1001
0000
0010
0000
,  // measure 74
0110
0000
0000
0000
,  // measure 75
1000
0000
1001
0000
,  // measure 76
0010
0000
0110
0000
,  // measure 77
1000
0000
0001
0000
,  // measure 78
1001
0000
0000
0000
,  // measure 79
0010
0001
0000
0000
,  // measure 80
0100
0100
0000
0000
,  // measure 81
0010
0010
0000
0000
,  // measure 82
1001
0000
0000
0000
,  // measure 83
0100
0010
0000
0000
,  // measure 84
1000
1000
0000
0000
,  // measure 85
0001
0100
0000
0000
,  // measure 86
1001
0000
0000
0000
,  // measure 87
0010
0000
0000
0000
,  // measure 88
0000
0000
0000
0100
,  // measure 89
0100
0100
0000
0000
,  // measure 90
0000
0000
0000
0000
,  // measure 91
0010
0000
0000
0000
,  // measure 92
0000
0000
0000
0001
,  // measure 93
0001
0001
0000
0000
,  // measure 94
0000
0000
0000
0000
,  // measure 95
0100
0000
0000
0000
,  // measure 96
0000
0000
0000
0000
,  // measure 97
0010
0010
0000
0000
,  // measure 98
0100
0100
0000
0000
,  // measure 99
1000
1000
0000
0000
,  // measure 100
1001
0000
0000
0000
,  // measure 101
0010
0010
0000
0000
,  // measure 102
0100
0100
0000
0000
,  // measure 103
0010
0010
0000
0000
,  // measure 104
1001
0000
0000
0000
,  // measure 105
0100
0010
0000
0000
,  // measure 106
0100
0100
0000
0000
,  // measure 107
0010
0100
0000
0000
,  // measure 108
0010
0000
0000
0000
,  // measure 109
1000
0001
0000
0000
,  // measure 110
1000
1000
0000
0000
,  // measure 111
0001
1000
0000
0000
,  // measure 112
0010
0000
0000
0000
,  // measure 113
1000
0000
0000
0100
,  // measure 114
0100
0000
0000
0010
,  // measure 115
0010
0000
0000
0001
,  // measure 116
0001
0000
0000
0000
,  // measure 117
1001
0000
0000
0000
;
