#TITLE:ゼロトーキング;
#SUBTITLE:;
#ARTIST:はるまきごはん feat.初音ミク;
#TITLETRANSLIT:Zero Talking;
#SUBTITLETRANSLIT:;
#ARTISTTRANSLIT:Harumaki Gohan feat. Hatsune Miku;
#GENRE:;
#CREDIT:;
#BANNER:Zero Talking.png;
#BACKGROUND:Zero Talking-bg.png;
#LYRICSPATH:;
#CDTITLE:.\CDTITLES\DDRMAX6.PNG;
#MUSIC:Zero Talking.ogg;
#OFFSET:0.020;
#SAMPLESTART:39.660;
#SAMPLELENGTH:15.000;
#SELECTABLE:YES;
#DISPLAYBPM:133.000;
#BPMS:0.000=133.000;
#STOPS:;
#BGCHANGES:0.000=Zero Talking.avi=1.000=0=0=1=====,
99999=-nosongbg-=1.000=0=0=0 // don't automatically add -songbackground-
;
#KEYSOUNDS:;

//---------------dance-single - ----------------
#NOTES:
     dance-single:
     :
     Hard:
     7:
     0.526,0.441,0.276,0.000,0.088,407.000,33.000,0.000,0.000,0.000,0.000,0.526,0.441,0.276,0.000,0.088,407.000,33.000,0.000,0.000,0.000,0.000:
0000
0000
0000
0000
,
0000
0000
0000
0000
,
0000
0000
0010
0000
0100
0010
0001
0000
,
0010
0100
1000
0010
0100
0010
1000
0001
,
0000
0000
0010
0000
0100
0010
0001
0000
,
0010
0100
1000
0001
0100
0010
1001
0000
,
0000
0000
0000
0000
0010
0000
0000
0100
0010
0000
0000
0000
1000
0000
0000
0001
,
0100
1000
0010
0100
0001
0010
0100
0010
,
1000
0000
0000
0000
0100
0000
0000
0001
0100
0000
0000
0000
0010
0000
0000
0100
,
0010
0001
0100
0010
1000
0100
0010
0011
,
0011
0000
0100
0000
1000
0010
0110
0000
,
1000
0010
0100
0001
0010
0100
1001
0000
,
0000
0000
0010
0000
0001
0100
0001
0100
,
1000
0010
0100
0001
1000
0010
0001
1000
,
0000
0001
1000
0010
0100
0010
1000
0001
,
0100
0010
1000
0100
0010
0001
0100
0000
,
0000
0010
0100
0010
1000
0100
0010
0001
,
0010
0001
0100
0010
0100
1000
0010
0000
,
0010
0100
0010
0100
0001
1000
1001
0000
,
0010
0100
0010
0100
0010
0001
0011
0000
,
0010
0100
0010
0100
0010
1000
1010
0000
,
0100
0001
0100
0001
1000
1010
0000
0000
,
0100
0000
0010
0000
0001
0000
0010
0000
0100
0000
0000
1000
0000
0000
0000
0000
,
0100
0000
0010
0000
1000
0000
0001
0000
0100
0000
0000
0010
0000
0000
1000
0000
,
0001
0000
0001
0000
0100
0000
0100
0000
0010
0000
0000
1000
0000
0000
0100
0000
,
0010
0010
0001
0001
0100
0000
0010
0000
,
1000
0000
0000
0000
0100
0000
0010
0000
1000
0000
0000
0100
0000
0000
0010
0000
,
0000
0000
0001
0000
0010
0000
0100
0000
1000
0000
0000
0001
0000
0000
0100
0000
,
0010
0000
0010
0000
1000
0000
1000
0000
0001
0000
0000
0100
0000
0000
0010
0000
,
0100
1000
0010
0100
0101
0000
1010
0000
,
1001
0000
0000
0100
0001
0000
0000
0000
1000
0000
0000
0010
0100
0000
0000
0000
,
1000
0000
1000
0000
0100
0000
0000
0000
0001
0000
0000
0100
0010
0000
0000
0000
,
1000
0000
0000
0000
0001
0000
0000
0000
0100
0000
0000
0010
0100
0000
0000
0000
,
1000
0000
0001
0000
0100
0000
0000
0000
0010
0000
0000
1000
0001
0000
0000
0000
,
0100
0110
0110
0010
,
0001
0010
1000
0100
0010
0100
0001
0010
,
0100
1100
1100
0010
,
0100
0001
0010
0100
1000
0010
0100
0010
,
0000
0000
0010
0000
0100
0001
1001
0000
,
0010
0100
0010
0100
0001
0010
1010
0000
,
0000
0000
0100
0000
0010
1000
1001
0000
,
0100
0010
0100
0010
0001
0100
0001
0101
,
1000
1000
0010
0010
0100
0100
0001
1000
,
0010
0010
0100
0001
0001
1000
0010
0100
,
0001
0001
0100
0100
1000
1000
0010
0010
,
0100
0001
1000
1000
0010
0010
0100
0000
,
0001
0001
1000
0010
0100
0001
1000
0100
,
0010
0001
0001
0100
0010
0100
0110
0000
,
0000
1000
0100
0100
0010
1000
0001
0011
,
0000
0010
1000
0001
0100
0010
0011
0000
,
1000
0100
0001
0001
0100
0010
1010
0000
,
0100
0001
1000
0010
0100
0001
1001
0000
,
0100
0010
0100
0010
0001
0010
0011
0000
,
1000
0010
0100
0010
0001
0010
0000
0000
,
1000
0000
0100
0000
0010
0000
0001
0000
1000
0000
0000
0100
0000
0000
0001
0000
,
0010
0000
0100
0000
1000
0000
0010
0000
0100
0000
0000
0010
0000
0000
0001
0000
,
1000
0000
0100
0000
1000
0000
1000
0000
0010
0000
0000
0100
0000
0000
0001
0000
,
0010
0100
1000
1000
0010
0000
0100
0000
,
0001
0000
0000
0000
0010
0000
1000
0000
0001
0000
0000
0100
0000
0000
0000
0000
,
1000
0000
0010
0000
0100
0000
0001
0000
1000
0000
0000
0100
0000
0000
0010
0000
,
0100
0000
0100
0000
0001
0000
0001
0000
1000
0000
0000
0100
0000
0000
0000
0000
,
0010
1000
0001
0100
0010
1000
0001
0000
,
1000
1100
1000
1100
,
0001
0011
0001
0011
,
1000
1100
1000
1100
,
0010
0000
1001
0000
1000
0010
0001
0100
;

//---------------dance-single - ----------------
#NOTES:
     dance-single:
     :
     Easy:
     3:
     0.208,0.220,0.184,0.050,0.000,146.000,22.000,6.000,0.000,0.000,0.000,0.208,0.220,0.184,0.050,0.000,146.000,22.000,6.000,0.000,0.000,0.000:
0000
0000
0000
0000
,
0000
0000
0000
0000
,
0000
1000
0000
1000
,
0000
0010
0000
0010
,
0000
0100
0000
0100
,
0000
0010
0000
0010
,
0010
0001
0000
0001
,
0000
0100
0000
0100
,
0000
0010
0000
0010
,
0000
0100
0000
0100
,
0000
0010
0000
0110
,
0000
1000
0000
1001
,
0000
0010
0000
0110
,
0000
0001
0000
1001
,
0000
0010
0010
0010
,
0000
0100
0100
0100
,
0000
0001
0001
1000
,
1000
0100
0010
0010
,
0002
0000
0010
0000
,
0023
0000
0100
0000
,
2030
0000
0100
0000
,
3100
0000
0000
0000
,
0010
0010
0100
0000
,
0010
0010
0001
0000
,
0100
0100
0010
0000
,
1000
1000
0001
0000
,
0001
0001
0100
0000
,
1000
1000
0010
0000
,
0010
0100
0110
0000
,
1000
0001
1001
0000
,
0110
0000
0000
0000
,
1001
0000
0000
0000
,
0110
0000
0000
0000
,
1001
0000
0000
0000
,
1000
0000
0001
0000
,
0001
0000
0010
0000
,
0100
0000
0100
0000
,
0010
0000
0010
0000
,
0000
0100
0000
0110
,
0000
0001
0000
1001
,
0000
0010
0000
0110
,
0000
0000
1000
0000
,
0001
0001
0100
1000
,
0100
0100
0010
0001
,
0100
0100
0010
0010
,
0100
1000
0100
0010
,
1001
0000
0000
0000
,
1001
0000
0000
0000
,
0110
0000
0000
0000
,
0110
0000
0000
0000
,
2000
0000
0001
0000
,
3002
0000
0100
0000
,
0203
0000
0010
0000
,
0310
0000
0000
0000
,
1000
1000
0100
0000
,
0001
0001
0100
0000
,
0010
0010
0001
0000
,
0100
0100
0010
0000
,
1000
1000
0001
0000
,
0100
0100
0010
0000
,
1000
0001
1001
0000
,
0010
0100
0110
0000
,
1001
0000
0000
0000
,
0110
0000
0000
0000
,
1001
0000
0000
0000
,
1000
0100
0001
0010
;

//---------------dance-single - ----------------
#NOTES:
     dance-single:
     :
     Medium:
     4:
     0.286,0.303,0.192,0.033,0.000,212.000,23.000,4.000,0.000,0.000,0.000,0.286,0.303,0.192,0.033,0.000,212.000,23.000,4.000,0.000,0.000,0.000:
0000
0000
0000
0000
,
0000
0000
0000
0000
,
0000
1000
0100
0100
,
0010
0010
0001
0101
,
0000
0010
0100
0100
,
0010
0010
1000
0001
,
0000
0110
0000
0100
,
1000
0001
1000
0001
,
0100
0010
0100
1000
,
0100
0010
1001
0000
,
0000
0010
0100
0100
,
0001
0001
0100
0100
,
0000
0010
1000
1000
,
0100
0100
0010
0010
,
0110
0100
1001
0001
,
1000
0100
1000
0010
,
0100
0110
0010
0011
,
1100
0010
0100
0010
,
1001
1000
0001
0000
,
1001
1000
0001
0000
,
0200
0001
0310
0000
,
2000
0010
3001
0000
,
1000
0001
1000
0000
,
0010
0100
0010
0000
,
1000
0001
1000
0000
,
0010
0100
0010
0000
,
0001
0001
0100
0000
,
0010
0010
1000
0000
,
0100
0010
0100
0000
,
0001
0010
0001
0000
,
1000
1000
0010
0010
,
0001
0001
0010
0010
,
1000
1000
0010
0010
,
0001
0001
0100
0100
,
0010
0100
1000
0000
,
1000
0010
0100
0001
,
1000
0010
0100
0000
,
0001
0000
0100
0000
0010
0000
1000
0001
,
0000
0010
0100
0100
,
0001
0001
1000
0010
,
0000
0100
0010
0010
,
1000
1000
0100
0001
,
0110
0001
0101
0000
,
0110
0100
1100
0000
,
1010
0010
0110
0000
,
1001
0001
1000
0000
,
1001
0001
1000
0000
,
0110
0010
0001
0000
,
1001
0001
0010
0000
,
0101
0100
0010
0000
,
0020
0000
1000
0000
,
2030
0000
0001
0000
,
3001
0000
0100
0000
,
0110
1000
1001
0000
,
0010
0100
0010
0000
,
0001
1000
0001
0000
,
0100
0010
0100
0000
,
1000
0100
1000
0000
,
0010
0010
0001
0000
,
0100
0010
0010
0000
,
0001
0001
0100
0000
,
0010
0100
0010
0000
,
1000
1000
0100
0100
,
0010
0010
0001
0001
,
0100
0100
0010
0010
,
1000
0000
0001
0000
1000
0000
0001
1000
;

//---------------dance-single - ----------------
#NOTES:
     dance-single:
     :
     Beginner:
     1:
     0.116,0.165,0.000,0.000,0.000,97.000,0.000,0.000,0.000,0.000,0.000,0.116,0.165,0.000,0.000,0.000,97.000,0.000,0.000,0.000,0.000,0.000: // measure 1
0000
0000
0000
0000
,  // measure 2
0000
0000
0000
0000
,  // measure 3
0000
1000
0000
0000
,  // measure 4
0001
0000
0100
0000
,  // measure 5
0000
0010
0000
0000
,  // measure 6
0100
0000
0010
0000
,  // measure 7
1000
0000
0000
0000
,  // measure 8
0001
0000
0000
0000
,  // measure 9
1000
0000
0000
0000
,  // measure 10
0000
0000
0000
0000
,  // measure 11
0000
0001
0000
0000
,  // measure 12
0100
0000
0010
0000
,  // measure 13
0000
1000
0000
0000
,  // measure 14
0100
0000
0010
0000
,  // measure 15
0001
0000
0000
0000
,  // measure 16
0000
0000
0000
0000
,  // measure 17
1000
0000
0000
0000
,  // measure 18
0000
0000
0000
0000
,  // measure 19
0010
0010
0010
0000
,  // measure 20
0100
0100
0100
0000
,  // measure 21
0010
0000
0000
0000
,  // measure 22
0000
0000
0000
0000
,  // measure 23
0100
0000
0001
0000
,  // measure 24
0100
0000
0010
0000
,  // measure 25
0100
0000
0010
0000
,  // measure 26
0100
0000
1000
0000
,  // measure 27
0100
0000
0010
0000
,  // measure 28
0100
0000
0010
0000
,  // measure 29
0001
0000
0010
0000
,  // measure 30
0001
0000
0100
0000
,  // measure 31
0010
0000
0000
0000
,  // measure 32
0100
0000
0000
0000
,  // measure 33
0100
0000
0000
0000
,  // measure 34
0010
0000
0000
0000
,  // measure 35
0000
0000
0000
0000
,  // measure 36
0100
0000
0000
0000
,  // measure 37
0001
0000
0000
0000
,  // measure 38
1000
0000
0000
0001
,  // measure 39
0000
0001
0000
0000
,  // measure 40
0100
0000
0010
0000
,  // measure 41
0000
0100
0000
0000
,  // measure 42
0010
0000
0100
0000
,  // measure 43
1000
1000
1000
0000
,  // measure 44
0001
0001
0001
0000
,  // measure 45
0010
0010
0010
0000
,  // measure 46
0100
0100
0100
0000
,  // measure 47
1000
0000
0000
0000
,  // measure 48
0001
0000
0000
0000
,  // measure 49
0010
0000
0000
0000
,  // measure 50
0000
0000
0000
0000
,  // measure 51
0100
0100
0100
0000
,  // measure 52
0010
0010
0010
0000
,  // measure 53
0001
0000
0000
0000
,  // measure 54
1000
0000
0000
0000
,  // measure 55
0001
0000
0001
0000
,  // measure 56
0100
0000
0100
0000
,  // measure 57
0010
0000
0010
0000
,  // measure 58
0100
0000
0100
0000
,  // measure 59
1000
0000
0010
0000
,  // measure 60
1000
0000
0010
0000
,  // measure 61
0100
0000
0100
0000
,  // measure 62
0001
0000
0100
0000
,  // measure 63
0010
0000
0000
0000
,  // measure 64
0000
0000
0000
0000
,  // measure 65
0100
0000
0000
0000
,  // measure 66
0010
0000
0000
0100
;
