#TITLE:What's The Dillio?;
#SUBTITLE:;
#ARTIST:Mest;
#TITLETRANSLIT:;
#SUBTITLETRANSLIT:;
#ARTISTTRANSLIT:;
#GENRE:;
#CREDIT:;
#BANNER:What's The Dillio.png;
#BACKGROUND:What's The Dillio-bg.png;
#LYRICSPATH:;
#CDTITLE:./CDTITLES/Celebrating 25 Years.PNG;
#MUSIC:What's The Dillio.ogg;
#OFFSET:1.918;
#SAMPLESTART:36.481;
#SAMPLELENGTH:15.000;
#SELECTABLE:YES;
#DISPLAYBPM:105.000;
#BPMS:0.000=106.140,40.000=106.490,60.000=105.980,124.000=106.100,132.000=106.230,208.000=106.000,248.000=105.960,252.000=106.000,276.000=106.490,284.000=106.250,328.000=105.000,332.000=106.000;
#STOPS:;
#BGCHANGES:;
#KEYSOUNDS:;

//---------------dance-single - ----------------
#NOTES:
     dance-single:
     :
     Easy:
     3:
     0.187,0.175,0.207,0.000,0.000,213.000,40.000,0.000,0.000,0.000,0.000,0.187,0.175,0.207,0.000,0.000,213.000,40.000,0.000,0.000,0.000,0.000:
0000
0000
0000
0000
,
0000
0000
0000
0000
,
0000
0000
0000
0000
,
0000
0000
0000
0000
,
0000
0000
0000
0000
,
1000
1000
0100
0100
,
0010
0010
0001
0000
,
0001
0001
0100
0100
,
0010
0010
1000
0000
,
0100
0100
0010
0010
,
0001
0001
1000
0010
,
0100
0100
0010
0010
,
1000
1000
0001
0000
,
0001
0001
0100
0100
,
0010
0010
1001
0000
,
0100
0100
0010
0010
,
1000
1000
0000
0110
,
0000
0100
0110
0000
,
0000
0001
1001
0000
,
0000
0010
0110
0000
,
0000
0001
1001
0000
,
0000
0010
1001
0000
,
0000
0100
1001
0000
,
0000
0010
1001
0000
,
0000
0100
0110
0000
,
0010
0010
0001
0001
,
0100
0100
0010
0000
,
0100
0100
0010
0010
,
1000
0000
0000
0000
,
0100
0100
0010
0010
,
0001
0001
1000
0000
,
0010
0010
0100
0100
,
0001
0000
0000
0000
,
0010
0010
0100
0100
,
0010
0010
0001
0000
,
0100
0100
0010
0010
,
1000
1000
0000
1001
,
0000
0010
0110
0000
,
0000
1000
1001
0000
,
0000
0010
0110
0000
,
0000
0001
1001
0000
,
0000
0010
0110
0000
,
0000
1000
1001
0000
,
0000
0010
0110
0000
,
0000
1000
1001
0000
,
0010
0010
0100
0000
,
0100
0100
0010
0000
,
0010
0010
0100
0000
,
0100
0100
0010
0000
,
0010
0100
0110
0000
,
1000
0001
1001
0000
,
0010
0100
0110
0000
,
1001
0000
0000
0000
,
0000
0000
0000
0000
,
0010
0010
0001
0001
,
0100
0100
0010
0000
,
0010
0010
0100
0100
,
0010
0010
0000
0000
,
0100
0100
0010
0010
,
1000
1000
0001
0000
,
0010
0010
0100
0100
,
0010
0000
0000
0000
,
0100
0000
0000
0000
,
0000
0010
0110
0000
,
0000
0001
1001
0000
,
0000
0010
0110
0000
,
0000
1000
1001
0000
,
0000
0010
0110
0000
,
0000
1000
1001
0000
,
0000
0010
0110
0000
,
0000
1000
1001
0000
,
0000
0010
0110
0000
,
0000
1000
1001
0000
,
0000
0010
0110
0000
,
0000
1000
1001
0000
,
0000
0010
0110
0000
,
0000
1000
1001
0000
,
0000
0010
0110
0000
,
0000
1000
1001
0000
,
0010
0010
0001
0001
,
0010
0010
1000
1000
,
0100
0100
0010
0010
,
0001
0001
0100
0100
,
0010
0000
0100
0000
,
0010
0000
1001
0000
;

//---------------dance-single - ----------------
#NOTES:
     dance-single:
     :
     Challenge:
     8:
     0.458,0.418,0.264,0.021,0.505,564.000,51.000,4.000,0.000,0.000,0.000,0.458,0.418,0.264,0.021,0.505,564.000,51.000,4.000,0.000,0.000,0.000:
0000
0000
0000
0000
,
0000
0000
0000
0000
,
0000
0000
0000
0000
,
0000
0000
0000
0000
,
0000
0000
0000
0000
,
1000
0100
0010
0100
0101
0000
0001
0010
,
0100
1000
1100
0000
0110
0000
0000
0010
,
1001
0000
0100
0001
0010
0100
1100
0000
,
0001
0000
0110
0000
0011
0000
0000
0010
,
0100
0000
0010
1000
0000
0100
0000
1000
0000
0000
0010
0000
0100
0000
0001
0000
,
1000
0000
0100
0010
0000
1000
0000
0001
0000
0000
0100
0000
0110
0000
0000
0000
,
1000
0000
0001
0000
0101
0000
0000
0000
0011
0000
0000
0010
0100
0000
0000
0000
,
1000
0000
0000
0100
0010
0100
0000
0000
1001
0000
0000
0000
0000
0000
0010
0000
,
1000
1100
1100
0000
0010
0011
0011
0000
,
0100
0000
0011
0000
1001
0000
0000
0100
,
0010
1000
0100
1000
0010
0100
0001
0000
,
1000
0000
0001
0100
0001
0100
0000
0000
0000
0000
0010
0000
1001
0000
0000
0000
,
0000
0100
0000
0010
0100
0010
0000
1000
0001
1000
0001
0000
0100
0010
0100
0000
,
0000
1000
0000
0100
0010
0100
0000
0001
1000
0000
0000
0000
0001
0000
0000
0000
,
0000
0010
0000
0100
1000
0100
0000
0010
0100
0010
0100
0000
0001
0100
0001
0000
,
0000
0010
0000
1000
0001
1000
0000
0100
0010
0000
0000
0000
0000
0000
0000
0000
,
0000
0001
0000
0100
0001
0100
0000
0010
1000
0010
1000
0000
0100
0010
0100
0000
,
0000
0010
0000
1000
0001
1000
0000
0001
0100
0000
0000
0000
0010
0000
0000
0000
,
0000
0010
0000
1000
0100
1000
0000
0100
0010
0100
0010
0000
0001
1000
0001
0000
,
0000
0010
0000
0100
0010
0100
0000
0001
1000
0000
0000
0000
0000
0000
0100
0000
,
0010
0001
0010
0100
1100
0000
0010
0000
,
0100
0010
0002
0000
2003
0000
3000
0100
,
0010
0100
1000
0001
,
1000
0100
2002
0000
3003
0000
0000
0010
,
1000
0100
1000
0000
0100
0000
0010
0000
,
0011
0000
0110
0000
1100
0000
0000
0010
,
1000
0001
1000
0000
0100
0010
1000
0000
,
1001
0000
0000
0000
0000
0000
0000
0010
,
1000
1100
0110
0000
0100
0110
0011
0000
,
0010
0000
1000
0000
1100
0000
0000
0010
,
0100
1000
0010
0100
0001
1000
0010
0000
,
0100
0000
0001
1000
0001
1000
0000
0000
0000
0000
0010
0000
0110
0000
0000
0000
,
0000
0010
0000
1000
0001
1000
0000
0010
0100
0010
0100
0000
0001
0010
0001
0000
,
0000
0010
0000
1000
0100
1000
0000
0010
0100
0000
0000
0000
0001
0000
0000
0000
,
0000
0010
0000
1000
0001
1000
0000
0100
0010
0100
0010
0000
1000
0100
1000
0000
,
0000
0010
0000
0100
0010
0100
0000
0001
1000
0000
0000
0000
1001
0000
0000
0000
,
0000
0010
0000
1000
0100
1000
0000
0010
0100
0010
0100
0000
0001
0100
0001
0000
,
0000
0010
0000
1000
0010
1000
0000
0100
0010
0000
0000
0000
0001
0000
0000
0000
,
0000
0010
0000
1000
0001
1000
0000
0100
0010
0100
0010
0000
1000
0100
1000
0000
,
0000
0010
0000
0100
0010
0100
0000
0001
1000
0000
0000
0000
0000
0000
0000
0000
,
1000
0000
1000
0010
0000
0010
0100
0000
0001
0000
0000
0000
0100
0000
0100
0000
,
0010
0000
1000
0001
0000
0010
0100
0000
0000
0000
1000
0000
0000
0000
0010
0000
,
0100
0000
0010
0100
0000
0100
0001
0000
1000
0000
0000
0000
0100
0000
0100
0000
,
0010
0000
0000
0000
0100
0000
0000
0000
1000
0000
0000
0000
0000
0000
0010
0100
,
0010
0000
1000
0001
0000
0001
1000
0000
0010
0000
0000
0000
0100
0000
0010
0000
,
0010
0000
0100
0001
0000
1000
0001
0000
0000
0000
0100
0000
0000
0000
0010
1000
,
0010
0000
0100
0010
0000
1000
0001
0000
0100
0000
0000
0000
0010
0000
0010
0000
,
0010
0000
0000
0000
,
0000
0000
0000
0000
0000
0000
0000
0001
,
1000
0110
0101
0000
0010
0101
1001
0000
,
0110
0000
0011
0000
1001
0000
0000
0010
,
1000
0100
1000
0010
0100
0001
1001
0000
,
0100
0000
0010
0100
0010
0100
0000
0000
0000
0000
0000
0000
0000
0000
0001
0000
,
0010
1100
0110
0000
1000
0011
0101
0000
,
0011
0000
1100
0000
0110
0000
0000
0010
,
0100
0010
0100
0010
1000
0001
1000
0000
,
0001
0000
0000
0001
1000
0000
0000
0010
0100
0000
0000
1000
0100
0000
0000
0000
,
0001
0000
0000
0001
0000
0000
1000
0000
0000
1000
0000
0000
0010
0000
0000
0000
,
0000
0100
0000
0010
0001
0010
0000
1000
0100
1000
0100
0000
0010
0100
0010
0000
,
0000
0001
0000
1000
0001
1000
0000
0010
0100
0000
0000
0000
1000
0000
0000
0000
,
0000
0010
0000
0100
0010
0100
0000
0001
1000
0001
1000
0000
0010
1000
0010
0000
,
0000
0100
0000
0001
0100
0001
0000
0100
0010
0000
0000
0000
1001
0000
0000
0000
,
0000
0010
0000
1000
0010
1000
0000
0100
0010
0100
0010
0000
1000
0001
1000
0000
,
0000
0100
0000
0010
0001
0010
0000
1000
0010
0000
0000
0000
0100
0000
0000
0000
,
0000
0001
0000
1000
0001
1000
0000
0010
0100
0010
0100
0000
1000
0100
1000
0000
,
0000
0010
0000
0100
0010
0100
0000
0001
1000
0000
0000
0000
0000
0000
0000
0000
,
0000
0100
0000
0010
0100
0010
0000
0001
1000
0001
1000
0000
0010
0100
0010
0000
,
0000
0100
0000
0010
0001
0010
0000
1000
0010
0000
0000
0000
0100
0000
0000
0000
,
0000
0010
0000
0100
0010
0100
0000
1000
0001
1000
0001
0000
0100
0010
0100
0000
,
0000
0010
0000
1000
0100
1000
0000
0010
0100
0000
0000
0000
0011
0000
0000
0000
,
0000
0010
0000
1000
0010
1000
0000
0100
0010
0100
0010
0000
0001
1000
0001
0000
,
0000
0100
0000
0010
0001
0010
0000
0100
0010
0000
0000
0000
1000
0000
0000
0000
,
0000
0100
0000
0001
0100
0001
0000
0100
0010
0100
0010
0000
1000
0001
1000
0000
,
0000
0100
0000
0010
0001
0010
0000
0100
1000
0000
0000
0000
0000
0000
0000
0000
,
1000
1000
0100
0100
0010
0010
0001
0001
,
0100
0100
0010
0010
0100
0100
0010
0010
,
1000
1000
0100
0100
0010
0010
0001
0001
,
0100
0100
0010
0010
0100
0100
1000
1000
,
0010
1010
0000
0000
0001
0101
0000
0000
,
0010
0000
0110
0000
0000
0000
0000
0000
0010
0000
0000
0010
0000
0000
0010
0000
;

//---------------dance-single - ----------------
#NOTES:
     dance-single:
     :
     Hard:
     7:
     0.379,0.352,0.280,0.036,0.122,451.000,54.000,7.000,0.000,0.000,0.000,0.379,0.352,0.280,0.036,0.122,451.000,54.000,7.000,0.000,0.000,0.000:
0000
0000
0000
0000
,
0000
0000
0000
0000
,
0000
0000
0000
0000
,
0000
0000
0000
0000
,
0000
0000
0000
0000
,
1000
0100
1000
0100
0010
0000
0001
0010
,
0100
1000
1001
0000
0101
0000
0000
0010
,
0100
0000
1000
0100
1000
0001
1000
0000
,
1010
0000
0110
0000
0011
0000
0000
0010
,
0100
0000
0010
0100
0000
0000
0100
0000
0010
0000
1000
0000
0100
0000
1000
0000
,
0100
0000
0001
0100
0000
0000
0010
0000
1000
0000
0100
0000
1000
0000
0000
0000
,
0100
0010
0001
0000
0010
0000
0100
0000
,
1000
0000
0000
0000
0001
1000
0000
0000
1001
0000
0000
0000
0000
0000
0010
0000
,
0100
1000
1100
0000
0010
0001
0011
0000
,
0100
0000
0010
0000
1001
0000
0000
0010
,
0100
1000
0100
1000
0010
0100
0001
0000
,
1000
0000
0000
0000
0001
0100
0000
0000
0000
0000
0010
0000
0110
0000
0000
0000
,
0000
0100
1000
0100
1000
0100
0010
0010
,
0000
0000
0100
0000
0010
0001
0000
1000
0001
0000
0000
0000
0011
0000
0000
0000
,
0000
0100
0010
0100
0010
0100
1000
1000
,
0000
0000
0100
0000
0010
0001
0000
1000
0001
0000
0000
0000
0000
0000
0000
0000
,
0000
0010
0100
0010
0100
0010
0001
0001
,
0000
0000
0010
0000
0100
0010
0000
0100
0010
0000
0000
0000
0110
0000
0000
0000
,
0000
0001
1000
0001
1000
0001
0100
0100
,
0000
0000
0010
0000
1000
0100
0000
0010
0001
0000
0000
0000
0000
0000
0010
0000
,
0100
1000
0100
0010
0100
0000
0010
0000
,
0200
0000
0320
0000
0230
0000
0300
0010
,
0011
0110
1100
0110
,
1000
0010
2002
0000
3003
0000
0000
0010
,
0100
1000
0100
0000
0010
0000
0100
0000
,
0002
0000
0203
0000
0310
0000
0000
1000
,
0100
0010
0110
0000
0001
0010
0110
0000
,
1001
0000
0000
0000
0000
0000
0000
0100
,
0010
0001
0011
0000
0010
0100
1100
0000
,
0001
0000
1000
0000
1010
0000
0000
0100
,
0010
1000
0100
1000
0010
0100
0001
0000
,
1000
0000
0000
0000
0001
1000
0000
0000
0000
0000
0010
0000
0110
0000
0000
0000
,
0000
1000
0100
1000
0100
1000
0010
0010
,
0000
0000
0100
0000
0001
0100
0000
1000
0010
0000
0000
0000
0110
0000
0000
0000
,
0000
0001
0010
0001
0010
0001
0100
0100
,
0000
0000
1000
0000
0001
1000
0000
1000
0010
0000
0000
0000
1001
0000
0000
0000
,
0000
0010
0100
0010
0100
0010
0001
0001
,
0000
0000
1000
0000
0100
0010
0000
0100
0001
0000
0000
0000
0011
0000
0000
0000
,
0000
0100
1000
0100
1000
0100
0001
0001
,
0000
0000
0010
0000
0100
0010
0000
1000
0001
0000
0000
0000
0000
0000
0000
0000
,
0010
0000
0000
0010
0000
0000
0010
0000
0100
0000
0000
0000
1000
0000
0000
0000
,
0001
0000
0000
0001
0000
0000
0001
0000
0000
0000
1000
0000
0000
0000
0010
0000
,
0100
0000
0000
0100
0000
0000
0100
0000
0010
0000
0000
0000
1000
0000
0000
0000
,
0110
0000
0011
0000
1010
0000
0000
1000
,
0001
0000
0000
0001
0000
0000
0001
0000
0100
0000
0000
0000
0010
0000
0000
0000
,
0100
0000
0000
0100
0000
0000
0100
0000
0000
0000
0010
0000
0000
0000
1000
0000
,
0001
0000
0000
0001
0000
0000
0100
0000
0010
0000
0000
0000
0100
0000
0000
0000
,
1001
0000
0000
0000
,
0000
0000
0000
0000
0000
0000
0000
0010
,
0100
0010
0110
0000
0001
0010
0011
0000
,
1000
0000
0100
0000
0011
0000
0000
0010
,
0100
1000
0010
0100
0001
0100
0010
0000
,
1000
0000
0000
0000
0001
1000
0000
0000
0000
0000
0000
0000
0000
0000
0100
0000
,
0010
0001
0011
0000
0010
0100
0110
0000
,
1100
0000
0011
0000
1001
0000
0000
0100
,
0010
0100
0010
0100
0001
0010
1001
0000
,
0110
0000
0000
0000
,
1000
0000
0000
1000
0000
0000
0010
0000
0000
0010
0000
0000
0100
0000
0000
0000
,
0000
0010
0100
0001
0100
0010
1000
1000
,
0000
0000
0100
0000
0010
0001
0000
1000
0001
0000
0000
0000
0101
0000
0000
0000
,
0000
0010
0100
1000
0100
0001
0010
0010
,
0000
0000
0100
0000
0001
1000
0000
0001
0100
0000
0000
0000
1010
0000
0000
0000
,
0000
0100
0001
1000
0010
0100
0001
0001
,
0000
0000
1000
0000
0100
0010
0000
1000
0001
0000
0000
0000
0011
0000
0000
0000
,
0000
0100
0010
0001
0010
0100
0010
0010
,
0000
0000
1000
0000
0001
1000
0000
0001
0100
0000
0000
0000
0000
0000
0000
0000
,
0000
0010
0100
0001
0010
0100
0010
0110
,
0000
0000
1000
0000
0010
0001
0000
1000
0010
0000
0000
0000
0110
0000
0000
0000
,
0000
0010
0100
1000
0001
0010
0100
0110
,
0000
0000
0010
0000
1000
0100
0000
0001
1000
0000
0000
0000
1001
0000
0000
0000
,
0000
0010
0001
0010
0100
1000
0010
0011
,
0000
0000
0100
0000
0001
1000
0000
0001
0100
0000
0000
0000
0011
0000
0000
0000
,
0000
0100
0010
0100
0001
0010
0100
0110
,
0000
0000
0010
0000
1000
0001
0000
1000
0001
0000
0000
0000
0000
0000
0000
0000
,
0010
0010
0001
0001
0100
0100
0010
0010
,
1000
1000
0100
0100
0010
0010
0001
0001
,
0100
0100
0010
0010
1000
1000
0100
0100
,
0010
0010
0001
0001
0100
0100
0010
0010
,
1000
1010
0000
0000
0100
0101
0000
0000
,
0010
0000
0110
0000
0000
0000
0000
0000
0010
0000
0000
0010
0000
0000
0010
0000
;

//---------------dance-single - ----------------
#NOTES:
     dance-single:
     :
     Beginner:
     1:
     0.092,0.131,0.052,0.000,0.000,115.000,10.000,0.000,0.000,0.000,0.000,0.092,0.131,0.052,0.000,0.000,115.000,10.000,0.000,0.000,0.000,0.000:
0000
0000
0000
0000
,
0000
0000
0000
0000
,
0000
0000
0000
0000
,
0000
0000
0000
0000
,
0000
0000
0000
0000
,
1000
0000
1000
0000
,
0010
0000
0010
0000
,
0100
0000
0100
0000
,
0001
0000
0001
0000
,
0010
0000
0010
0000
,
0100
0000
0100
0000
,
1000
0000
1000
0000
,
0010
0000
0010
0000
,
0100
0100
0000
0000
,
0010
0000
0000
0000
,
0001
0001
0000
0000
,
1000
0000
0000
0010
,
0100
0000
0000
0000
,
0100
0000
0000
0000
,
0010
0000
0000
0000
,
0010
0000
0000
0000
,
0001
0000
0000
0000
,
0001
0000
0000
0000
,
1000
0000
0000
0000
,
1000
0000
0000
0000
,
0010
0000
0010
0000
,
0001
0000
0001
0000
,
0100
0000
0100
0000
,
0010
0000
0000
0000
,
0100
0000
0100
0000
,
1000
0000
1000
0000
,
0010
0000
0010
0000
,
0100
0000
0000
0000
,
0010
0010
0000
0000
,
0100
0000
0000
0000
,
1000
1000
0000
0000
,
0001
0000
0000
0010
,
0100
0000
0000
0000
,
0100
0000
0000
0000
,
0010
0000
0000
0000
,
0010
0000
0000
1001
,
1001
0000
0000
0000
,
0001
0000
0000
0000
,
1000
0000
0000
0000
,
0001
0000
0000
0000
,
0100
0000
0100
0000
,
0010
0000
0000
0000
,
0010
0000
0010
0000
,
0001
0000
0000
0000
,
1000
0000
1000
0000
,
0100
0000
0000
0000
,
0001
0000
0001
0000
,
0010
0000
0000
0000
,
0000
0000
0000
0000
,
1000
1000
0000
0000
,
0010
0000
0000
0000
,
0001
0001
0000
0000
,
0100
0000
0000
0000
,
0010
0010
0000
0000
,
0100
0000
0000
0000
,
0010
0010
0000
0000
,
1000
0000
0000
0000
,
0000
0000
0000
0000
,
0010
0000
0000
0000
,
0010
0000
0000
0000
,
0100
0000
0000
0000
,
0100
0000
0000
1001
,
1001
0000
0000
0000
,
0010
0000
0000
0000
,
0100
0000
0000
0000
,
1000
0000
0000
0000
,
0010
0000
0000
0000
,
0100
0000
0000
0000
,
0001
0000
0000
0000
,
1000
0000
0000
0110
,
0110
0000
0000
0000
,
1000
0000
0000
0000
,
0010
0000
0000
0000
,
0100
0000
0000
0000
,
0110
0000
0010
0000
,
0100
0000
0100
0000
,
0010
0000
0100
0000
,
0010
0000
0100
0000
,
1001
0000
0110
0000
,
1001
0000
0010
0000
;

//---------------dance-single - ----------------
#NOTES:
     dance-single:
     :
     Medium:
     6:
     0.323,0.308,0.135,0.047,0.093,402.000,26.000,9.000,0.000,0.000,0.000,0.323,0.308,0.135,0.047,0.093,402.000,26.000,9.000,0.000,0.000,0.000: // measure 1
0000
0000
0000
0000
,  // measure 2
0000
0000
0000
0000
,  // measure 3
0000
0000
0000
0000
,  // measure 4
0000
0000
0000
0000
,  // measure 5
0000
0000
0000
0000
,  // measure 6
1000
1000
0100
0100
,  // measure 7
0010
0000
0010
0000
1001
0000
0000
0001
,  // measure 8
0100
0100
0010
0010
,  // measure 9
1000
0000
1000
0000
1001
0000
0000
0100
,  // measure 10
0010
0010
0001
0001
,  // measure 11
0100
0100
0010
1000
,  // measure 12
0001
0001
0100
0100
,  // measure 13
0010
0010
1001
0000
,  // measure 14
0100
0100
0100
0000
0001
0001
0001
0000
,  // measure 15
0011
0000
1100
0000
0110
0000
0000
0001
,  // measure 16
1000
1000
0100
0100
0010
0001
0010
0000
,  // measure 17
0100
0000
0000
0000
1000
0001
0000
0000
0000
0000
0010
0000
0010
0000
0000
0000
,  // measure 18
0000
0000
0100
0010
0100
0010
0100
0010
,  // measure 19
0000
0000
0001
0000
1000
0100
0000
1000
0100
0000
0000
0000
0011
0000
0000
0000
,  // measure 20
0000
0010
0100
0010
0100
1000
0100
1000
,  // measure 21
0000
0000
0010
0000
0100
0001
0000
1000
0001
0000
0000
0000
0000
0000
0000
0000
,  // measure 22
0000
0001
0010
0001
0100
0010
0100
1000
,  // measure 23
0000
0000
1000
0000
0100
0010
0000
0100
0001
0000
0000
0000
1000
0000
0000
0000
,  // measure 24
0000
0010
0100
0010
0100
0010
1000
0100
,  // measure 25
0000
0000
0001
0000
1000
0001
0000
1000
0010
0000
0000
0000
0000
0000
0010
0000
,  // measure 26
0100
0100
0001
0001
,  // measure 27
2000
0000
3020
0000
0032
0000
0003
0010
,  // measure 28
0100
0010
2000
3200
,  // measure 29
0302
0000
0023
0000
0030
0000
0000
0100
,  // measure 30
0010
1000
0100
0010
,  // measure 31
2000
0000
3200
0000
0301
0000
0000
0010
,  // measure 32
0100
1000
0001
0010
,  // measure 33
1001
0000
0000
0000
0000
0000
0000
0010
,  // measure 34
0100
0100
0100
0000
0010
0010
0010
0000
,  // measure 35
1100
0000
0011
0000
1001
0000
0000
0010
,  // measure 36
0100
0100
0010
0010
0001
0001
1000
0000
,  // measure 37
0100
0000
0000
0000
0010
0100
0000
0000
0000
0000
0010
0000
0010
0000
0000
0000
,  // measure 38
0000
0010
0100
0010
0100
0010
0100
1000
,  // measure 39
0000
0000
0010
0000
0100
0001
0000
1000
0010
0000
0000
0000
0100
0000
0000
0000
,  // measure 40
0000
0010
0001
0010
0001
0010
0100
0100
,  // measure 41
0000
0000
1000
0000
0010
0100
0000
0001
1000
0000
0000
0000
1001
0000
0000
0000
,  // measure 42
0000
0010
0001
0010
0001
0010
0100
0100
,  // measure 43
0000
0000
1000
0000
0010
0100
0000
0001
1000
0000
0000
0000
0010
0000
0000
0000
,  // measure 44
0000
0100
0010
0100
0010
0100
1000
0001
,  // measure 45
0000
0000
1000
0000
0100
0010
0000
0001
1000
0000
0000
0000
0000
0000
0000
0000
,  // measure 46
0010
0010
0100
0100
,  // measure 47
0010
0010
1000
1001
,  // measure 48
0001
0001
0100
0100
,  // measure 49
0010
0010
0100
0110
,  // measure 50
1000
1000
0100
0100
,  // measure 51
0010
0010
0001
0011
,  // measure 52
0010
0010
0100
0100
,  // measure 53
1001
0000
0000
0000
,  // measure 54
0000
0000
0000
0000
0000
0000
0000
0001
,  // measure 55
1000
1000
1000
0000
0010
0010
0010
0000
,  // measure 56
1000
0000
0010
0000
0011
0000
0000
0010
,  // measure 57
0100
0100
0010
0010
0001
0001
0010
0000
,  // measure 58
1000
0000
0000
0000
0001
1000
0000
0000
0000
0000
0000
0000
0000
0000
1000
0000
,  // measure 59
0100
0100
0100
0000
0010
0010
0010
0000
,  // measure 60
1010
0000
0101
0000
0011
0000
0000
0100
,  // measure 61
0010
0010
1000
1000
0010
0010
0001
0000
,  // measure 62
1001
0000
0000
0000
,  // measure 63
0110
0000
0000
0000
,  // measure 64
0000
1000
0100
1000
0100
1000
0010
0100
,  // measure 65
0000
0000
0010
0000
0100
0001
0000
1000
0001
0000
0000
0000
0010
0000
0000
0000
,  // measure 66
0000
0010
1000
0010
1000
0010
0100
0001
,  // measure 67
0000
0000
1000
0000
0001
0100
0000
1000
0010
0000
0000
0000
1001
0000
0000
0000
,  // measure 68
0000
0010
1000
0010
1000
0010
1000
0010
,  // measure 69
0000
0000
0100
0000
0001
1000
0000
0001
0100
0000
0000
0000
0010
0000
0000
0000
,  // measure 70
0000
0100
0010
0100
0010
0100
0001
1000
,  // measure 71
0000
0000
0001
0000
0100
0010
0000
1000
0001
0000
0000
0000
0000
0000
0000
0000
,  // measure 72
0000
0010
0100
0010
0001
0100
0010
1000
,  // measure 73
0000
0000
0100
0000
0010
0001
0000
1000
0010
0000
0000
0000
0101
0000
0000
0000
,  // measure 74
0000
0010
1000
0010
1000
0010
1000
0100
,  // measure 75
0000
0000
1000
0000
0100
0001
0000
0100
0010
0000
0000
0000
1001
0000
0000
0000
,  // measure 76
0000
0010
0100
0010
0100
0010
0100
1000
,  // measure 77
0000
0000
0001
0000
0100
0001
0000
1000
0001
0000
0000
0000
1001
0000
0000
0000
,  // measure 78
0000
0010
1000
0010
1000
0010
1000
0010
,  // measure 79
0000
0000
0100
0000
0010
0001
0000
1000
0010
0000
0000
0000
0000
0000
0000
0000
,  // measure 80
0100
0100
0010
0010
,  // measure 81
0001
0001
1000
1000
,  // measure 82
0010
0010
0100
0100
,  // measure 83
0010
0010
0100
0100
,  // measure 84
0010
0010
0000
0000
0100
0100
0000
0000
,  // measure 85
1000
0000
1000
0000
0000
0000
0000
0000
0010
0000
0000
0010
0000
0000
0010
0000
;
