#TITLE:What It Feels Like For A Girl;
#SUBTITLE:;
#ARTIST:Madonna;
#TITLETRANSLIT:;
#SUBTITLETRANSLIT:;
#ARTISTTRANSLIT:;
#GENRE:;
#CREDIT:;
#BANNER:What It Feels Like For A Girl.png;
#BACKGROUND:What It Feels Like For A Girl-bg.png;
#LYRICSPATH:;
#CDTITLE:.\CDTITLES\DDRMAX6.PNG;
#MUSIC:What It Feels Like For A Girl.ogg;
#OFFSET:1.080;
#SAMPLESTART:28.460;
#SAMPLELENGTH:15.000;
#SELECTABLE:YES;
#DISPLAYBPM:138.000;
#BPMS:0.000=138.000;
#STOPS:;
#BGCHANGES:0.000=What It Feels Like For A Girl-bg.png=1.000=0=0=1=====,
2.500=What It Feels Like For A Girl.avi=1.000=0=0=1=====,
207.000=What It Feels Like For A Girl-bg.png=1.000=0=0=1=====,
99999=-nosongbg-=1.000=0=0=0 // don't automatically add -songbackground-
;
#KEYSOUNDS:;

//---------------dance-single - ----------------
#NOTES:
     dance-single:
     :
     Easy:
     4:
     0.246,0.214,0.000,0.000,0.000,158.000,0.000,0.000,0.000,0.000,0.000,0.246,0.214,0.000,0.000,0.000,158.000,0.000,0.000,0.000,0.000,0.000: // measure 1
0000
0000
0000
0000
,  // measure 2
0000
0000
0000
0000
,  // measure 3
0000
0000
0000
0000
,  // measure 4
0000
0000
0000
0000
,  // measure 5
0000
0000
0000
0000
,  // measure 6
0000
0000
0000
0000
,  // measure 7
0000
0000
0000
0000
,  // measure 8
0000
0000
0000
0000
,  // measure 9
0000
0000
0000
0000
,  // measure 10
1000
0100
0001
0010
,  // measure 11
1000
0100
0001
0010
,  // measure 12
1000
0100
0001
0010
,  // measure 13
1000
0100
0001
0010
,  // measure 14
1000
0100
0001
0010
,  // measure 15
1000
0100
0001
0010
,  // measure 16
1000
0100
0001
0010
,  // measure 17
1000
0100
0001
0010
,  // measure 18
0100
0010
0001
1000
,  // measure 19
0100
0010
0001
1000
,  // measure 20
0100
0010
0001
1000
,  // measure 21
0100
0010
0001
1000
,  // measure 22
0100
0010
0001
1000
,  // measure 23
0100
0010
0001
1000
,  // measure 24
0100
0010
0001
1000
,  // measure 25
0100
0010
0001
1000
,  // measure 26
0100
0001
0010
1000
,  // measure 27
0100
0001
0010
1000
,  // measure 28
0100
0001
0010
1000
,  // measure 29
0100
0001
0010
1000
,  // measure 30
0100
0001
0010
1000
,  // measure 31
0100
0001
0010
1000
,  // measure 32
0100
0001
0010
1000
,  // measure 33
0100
0000
0000
0000
,  // measure 34
1000
0100
0001
0010
,  // measure 35
1000
0100
0001
0010
,  // measure 36
1000
0100
0001
0010
,  // measure 37
1000
0100
0001
0010
,  // measure 38
1000
0100
0001
0010
,  // measure 39
1000
0100
0001
0010
,  // measure 40
1000
0100
0001
0010
,  // measure 41
1000
0100
0001
0010
,  // measure 42
0001
0100
0010
1000
,  // measure 43
0001
0100
0010
1000
,  // measure 44
0001
0100
0010
1000
,  // measure 45
0001
0100
0010
1000
,  // measure 46
0001
0100
0010
1000
,  // measure 47
0001
0100
0010
1000
,  // measure 48
0001
0100
0010
1000
,  // measure 49
0001
0100
0010
1000
,  // measure 50
0001
0000
0000
0000
;

//---------------dance-single - ----------------
#NOTES:
     dance-single:
     :
     Medium:
     7:
     0.385,0.401,0.207,0.000,0.022,228.000,19.000,0.000,0.000,0.000,0.000,0.385,0.401,0.207,0.000,0.022,228.000,19.000,0.000,0.000,0.000,0.000:
0000
0000
0000
0000
,
0000
0000
0000
0000
,
0000
0000
0000
0000
,
0000
0000
0000
0000
,
0000
0000
0000
0000
,
0000
0000
0000
0000
,
0000
0000
0000
0000
,
0000
0000
0000
0000
,
0000
0000
0000
0000
,
1000
0100
0010
0000
0010
0000
0010
0000
,
0010
0001
0100
0000
0100
0000
0100
0000
,
0100
0010
1000
0000
1000
0000
1000
0000
,
1000
0100
0010
0000
0010
0000
0010
0000
,
0010
0001
0100
0000
0100
0000
0100
0000
,
0100
0010
1000
0000
1000
0000
1000
0000
,
1000
0010
0100
0000
0100
0000
0100
0000
,
0100
0001
0010
0000
0110
0000
0011
0000
,
1000
0100
1000
0000
1000
0010
1000
0000
,
0010
0100
0010
0000
0001
0010
0001
0000
,
0100
0010
0100
0000
1000
0100
1000
0000
,
0010
0100
0010
0000
1000
0001
1000
0000
,
0010
1000
0010
0000
0100
0010
0100
0000
,
0001
0010
0001
0000
0100
0010
0100
0000
,
1000
0100
1000
0000
0010
0100
0010
0000
,
1000
0001
1000
0000
0010
0010
0010
0000
,
0100
0010
0100
0000
0001
0001
0001
0000
,
1000
0010
1000
0000
0100
0100
0100
0000
,
0010
1000
0010
0000
0100
0100
0100
0000
,
0001
0100
0001
0000
0010
0010
0010
0000
,
0100
0010
0100
0000
1000
1000
1000
0000
,
0010
0100
0010
0000
1000
1000
1000
0000
,
0001
1000
0001
0000
0010
0010
0010
0000
,
0100
0010
0000
0100
0010
0000
0100
0010
0000
0100
0010
0000
0100
0000
0000
0000
,
0010
0010
0010
0000
0100
0100
0100
0000
,
1000
0001
1000
0000
1010
0000
1010
0000
,
0010
0001
0010
0000
0010
0010
0010
0000
,
0100
0010
0100
0000
0110
0000
0110
0000
,
1000
0100
1000
0000
0100
0001
0100
0000
,
0010
0100
0010
0000
1001
0000
1001
0000
,
0010
1000
0010
0000
0010
0001
0010
0000
,
0100
0010
0100
0000
0110
0000
0110
0000
,
1000
0100
1000
0000
0001
0100
0001
0000
,
0100
0010
0100
0000
0110
0000
0110
0000
,
1000
0100
1000
0000
0001
0100
0001
0000
,
0010
0100
0010
0000
0110
0000
0110
0000
,
1000
0010
1000
0000
0010
1000
0010
0000
,
0010
0001
0010
0000
0011
0000
0011
0000
,
0100
0100
0100
0000
0010
0010
0010
0000
,
1000
0001
1000
0000
0011
0000
1100
0000
,
1001
0000
0000
0000
;

//---------------dance-single - ----------------
#NOTES:
     dance-single:
     :
     Hard:
     8:
     0.438,0.454,0.044,0.142,0.164,264.000,4.000,13.000,0.000,0.000,0.000,0.438,0.454,0.044,0.142,0.164,264.000,4.000,13.000,0.000,0.000,0.000:
0000
0000
0000
0000
,
0000
0000
0000
0000
,
0000
0000
0000
0000
,
0000
0000
0000
0000
,
0000
0000
0000
0000
,
0000
0000
0000
0000
,
0000
0000
0000
0000
,
0000
0000
0000
0000
,
0000
0000
0000
0000
,
1000
0010
0100
0000
0001
0010
0100
0000
,
1100
0000
0011
0000
0010
0000
0100
0010
,
1000
0100
1000
0000
0010
0001
0010
0000
,
0100
0000
0010
0000
1000
0100
1000
0001
,
1000
0100
0010
0000
0010
0100
0100
0000
,
0011
0000
1010
0000
0010
0100
0010
0100
,
0001
0100
0010
0000
0010
1000
0001
0000
,
0100
0000
0010
0000
1000
0001
1000
0001
0000
0000
0010
0000
0100
0000
0000
0000
,
1000
0100
0010
0000
0001
0010
0100
0000
,
1000
0010
0100
0000
0001
0100
0001
0000
,
0010
0100
0010
0000
0100
0100
0100
0000
,
1000
0010
1000
0000
0010
0010
0010
0000
,
0100
0001
0100
0000
0010
0010
0010
0000
,
1000
0001
1000
0000
0010
0010
0010
0000
,
0100
1000
0100
0000
0010
0010
0010
0000
,
0100
0001
0100
0000
1000
1000
0010
0000
,
0100
0000
0010
0000
0001
1000
0001
1000
0000
0000
0100
0000
0010
0000
0100
0000
,
1000
0100
0001
0000
0010
0100
1000
0000
,
0010
0000
0100
0000
0010
0100
0010
0100
0000
0000
0010
0000
1000
0000
0000
0000
,
0100
1000
0001
0000
0010
0010
0010
0000
,
0100
0000
0010
0000
0001
1000
0001
1000
0000
0000
0100
0000
0010
0000
0000
0000
,
0001
0001
1000
0000
0010
0010
0010
0000
,
0100
0000
1000
0000
0001
1000
0001
1000
0000
0000
0010
0000
0100
0000
0000
0000
,
0001
1000
0000
0001
1000
0000
0001
1000
0000
0001
1000
0000
0001
0000
0000
0000
,
0100
0000
0001
0000
1000
0010
1000
0010
0000
0000
0010
0000
1000
0000
0000
0000
,
0100
0010
0100
0000
0002
0000
2003
0000
,
3010
0000
0001
0000
0010
0100
0010
0100
0000
0000
0010
0000
0100
0000
0000
0000
,
1000
0100
1000
0000
0020
0000
0230
0000
,
0301
0000
0010
0000
0001
1000
0001
1000
0000
0000
0100
0000
1000
0000
0000
0000
,
0010
0100
0010
0000
2000
0000
3002
0000
,
0103
0000
1000
0000
0100
0001
0100
0001
0000
0000
0100
0000
0010
0000
0000
0000
,
0010
0001
0010
0000
2000
0000
3200
0000
,
0310
0000
0010
0000
1000
0100
1000
0100
0000
0000
0001
0000
0001
0000
0000
0000
,
1000
1000
0010
0000
0002
0000
0203
0000
,
0310
0000
1000
0000
0001
1000
0001
1000
0000
0000
0010
0000
1000
0000
0000
0000
,
0100
0010
0100
0000
0002
0000
2003
0000
,
3010
0100
0100
0000
1000
1000
1000
0000
,
0001
0100
0001
0000
0020
0000
0031
0000
,
0100
0010
0100
0000
1000
0001
1000
0000
,
0010
0000
0100
0000
0010
0000
0000
0000
0001
1000
0001
1000
0001
1000
0001
1000
,
0001
0000
0000
0000
;

//---------------dance-single - ----------------
#NOTES:
     dance-single:
     :
     Challenge:
     9:
     0.534,0.588,0.621,0.087,0.185,278.000,57.000,8.000,0.000,0.000,0.000,0.534,0.588,0.621,0.087,0.185,278.000,57.000,8.000,0.000,0.000,0.000:
0000
0000
0000
0000
,
0000
0000
0000
0000
,
0000
0000
0000
0000
,
0000
0000
0000
0000
,
0000
0000
0000
0000
,
0000
0000
0000
0000
,
0000
0000
0000
0000
,
0000
0000
0000
0000
,
0000
0000
0000
0000
,
1000
0010
1000
0010
1000
0010
1000
0010
,
0100
0010
0100
0010
0100
0010
0100
0010
,
0001
0010
0001
0010
0001
0010
0001
0010
,
0100
0010
0100
0010
0100
0010
0100
0010
,
1000
0010
1000
0010
1000
0010
1000
0010
,
0100
0010
0100
0010
0100
0010
0100
0010
,
0001
0010
0001
0010
0001
0010
0001
0010
,
0100
0000
0010
0000
1000
0100
1000
0100
0000
0000
0100
0000
0110
0000
0000
0000
,
0001
0010
0110
0000
1000
0001
1001
0000
,
0010
0100
0110
0000
2000
0000
3002
0000
,
0103
0100
0110
0000
0001
0001
0011
0000
,
0100
0100
0110
0000
0002
0000
2003
0000
,
3010
0100
1100
0000
0010
0100
0110
0000
,
0001
0010
0011
0000
0200
0000
0320
0000
,
1030
0100
1100
0000
0100
0010
0011
0000
,
0010
1000
1001
0000
0200
0000
0302
0000
,
1003
0000
0100
0000
0010
0001
0010
0001
0000
0000
0010
0000
0110
0000
0000
0000
,
1000
0010
1001
0000
0011
0000
1100
0000
,
0010
0000
0100
0000
0001
1000
0001
1000
0000
0000
0100
0000
0110
0000
0000
0000
,
0001
0010
1100
0000
0110
0000
0011
0000
,
0100
0000
0010
0000
1000
0100
1000
0100
0000
0000
0010
0000
0110
0000
0000
0000
,
1000
0010
0101
0000
0011
0000
1010
0000
,
0010
0000
0100
0000
1000
0100
1000
0100
0000
0000
0010
0000
0110
0000
0000
0000
,
0001
1000
0000
0100
0010
0000
0001
0011
0000
0100
1001
0000
0001
0000
0011
0000
,
0100
0000
0010
0000
1000
0100
1000
0100
0000
0000
0010
0000
0110
0000
0000
0000
,
0001
0010
0110
0000
1010
0000
0011
0000
,
0100
0000
0001
0000
1000
0100
1000
0100
0000
0000
0010
0000
0110
0000
0000
0000
,
1000
0010
0101
0000
1100
0000
0110
0000
,
0100
0000
0001
0000
1000
0010
1000
0010
0000
0000
0100
0000
0101
0000
0000
0000
,
0100
1000
0011
0000
1100
0000
0011
0000
,
0100
0000
0001
0000
1000
0010
1000
0010
0000
0000
0100
0000
0101
0000
0000
0000
,
0010
1000
1100
0000
0110
0000
0011
0000
,
0001
0000
0100
0000
1000
0010
1000
0010
0000
0000
0100
0000
0110
0000
0000
0000
,
1000
0001
1001
0000
1010
0000
0101
0000
,
0010
0000
0001
0000
1000
0010
1000
0010
0000
0000
0100
0000
0101
0000
0000
0000
,
0010
0100
0110
0000
1010
0000
0011
0000
,
0100
0000
0010
0000
0100
0010
0100
0010
0000
0000
0100
0000
1100
0000
0000
0000
,
0010
0100
0110
0000
0001
1000
1001
0000
,
0010
0000
1000
0000
0100
0001
0100
0001
0000
0000
0100
0000
0110
0000
0000
0000
,
1000
0000
0001
0000
1000
0000
0010
0000
1000
0001
1000
0001
1000
0001
1000
0001
,
1000
0000
0000
0000
;

//---------------dance-single - ----------------
#NOTES:
     dance-single:
     :
     Beginner:
     1:
     0.093,0.107,0.000,0.000,0.000,60.000,0.000,0.000,0.000,0.000,0.000,0.093,0.107,0.000,0.000,0.000,60.000,0.000,0.000,0.000,0.000,0.000:
0000
0000
0000
0000
,
0000
0000
0000
0000
,
0000
0000
0000
0000
,
0000
0000
0000
0000
,
0000
0000
0000
0000
,
0000
0000
0000
0000
,
0000
0000
0000
0000
,
0000
0000
0000
0000
,
0000
0000
0000
0000
,
1000
0000
0000
0000
,
0100
0000
0100
0000
,
0001
0000
0000
0000
,
0000
0000
0000
0000
,
0010
0000
0000
0000
,
0010
0000
0010
0000
,
0100
0000
0000
0000
,
0000
0000
0000
0000
,
0010
0000
0010
0000
,
0010
0000
0000
0010
,
0100
0000
0100
0000
,
0100
0000
0000
0100
,
0010
0000
0010
0000
,
0010
0000
0000
0000
,
0100
0000
0100
0000
,
0100
0000
0000
0000
,
0000
0010
0010
0000
,
0010
0000
0000
0000
,
0000
0100
0100
0000
,
0100
0000
0000
0000
,
0000
0001
0001
0000
,
0010
0000
0000
0000
,
0000
1000
1000
0000
,
0100
0000
0000
0000
,
0000
0010
0010
0000
,
0001
0000
0000
0000
,
0000
0100
0100
0000
,
0010
0000
0000
0000
,
0000
0001
0001
0000
,
0100
0000
0000
0000
,
0000
0010
0010
0000
,
0100
0000
0000
0000
,
0000
0100
0100
0000
,
0010
0000
0000
0000
,
0000
0010
0010
0000
,
0100
0000
0000
0000
,
0000
0010
0100
0000
,
1000
0000
1000
0000
,
0000
0001
0100
0000
,
0010
0000
0000
0000
,
0100
0000
0000
0000
;
