#TITLE:What Is Love (Hardcore Remix);
#SUBTITLE:;
#ARTIST:Haddaway;
#TITLETRANSLIT:;
#SUBTITLETRANSLIT:;
#ARTISTTRANSLIT:;
#GENRE:;
#CREDIT:;
#BANNER:What Is Love (Hardcore Remix).png;
#BACKGROUND:What Is Love (Hardcore Remix)-bg.png;
#LYRICSPATH:;
#CDTITLE:.\CDTITLES\DDRMAX6.PNG;
#MUSIC:What Is Love (Hardcore Remix).ogg;
#OFFSET:1.000;
#SAMPLESTART:69.620;
#SAMPLELENGTH:15.000;
#SELECTABLE:YES;
#DISPLAYBPM:138.000;
#BPMS:0.000=138.000;
#STOPS:;
#BGCHANGES:;
#KEYSOUNDS:;

//---------------dance-single - ----------------
#NOTES:
     dance-single:
     :
     Hard:
     7:
     0.416,0.399,0.353,0.000,0.126,304.000,42.000,0.000,0.000,0.000,0.000,0.416,0.399,0.353,0.000,0.126,304.000,42.000,0.000,0.000,0.000,0.000:
0000
0000
0000
0000
,
0000
0000
0000
0000
,
0000
0000
0000
0000
,
0000
0000
0000
0000
,
0000
0000
0000
0000
,
0000
0000
0000
0000
,
0000
0000
0000
0000
,
0000
0000
0000
0000
,
0000
0000
0000
0000
,
1000
0000
0000
0000
1000
0000
0000
0000
0100
0000
0000
0010
0000
0000
0100
0000
,
0001
0000
0000
0000
0001
0000
0000
0000
0010
0000
0000
0100
0000
0000
0010
0000
,
0100
0000
0000
0000
0100
0000
0000
0000
1000
0000
0000
0010
0000
0000
1000
0000
,
0001
0000
0000
0000
0000
0100
0010
1000
,
0001
0000
0000
0000
0001
0000
0000
0000
0100
0000
0000
0010
0000
0000
0100
0000
,
1000
0000
0000
0000
1000
0000
0000
0000
0010
0000
0000
0100
0000
0000
0010
0000
,
0010
0000
0000
0000
0100
0000
0000
0000
0001
0000
0000
0100
0000
0000
0010
0000
,
1000
0100
0010
0100
1000
0010
0100
0000
,
1100
0000
0000
0000
1100
0000
0000
0000
0010
0000
0000
0100
0000
0000
0010
0000
,
0011
0000
0000
0000
0011
0000
0000
0000
0010
0000
0000
0100
0000
0000
0010
0000
,
1010
0000
0000
0000
1010
0000
0000
0000
0100
0000
0000
0010
0000
0000
0100
0000
,
0011
0000
0000
0000
0011
0000
0000
0000
0010
0000
0000
1000
0000
0000
0001
0000
,
1001
0000
0000
0000
1001
0000
0000
0000
0010
0000
0000
0100
0000
0000
0010
0000
,
1010
0000
0000
0000
1010
0000
0000
0000
0100
0000
0000
0010
0000
0000
0100
0000
,
0011
0000
0000
0000
0011
0000
0000
0000
0100
0000
0000
0010
0000
0000
1000
0000
,
0001
0000
0000
1000
0001
0000
0100
0000
0000
0000
0010
0000
1000
0000
0100
0000
,
0110
0000
0000
0000
0110
0000
0000
0000
0001
0000
0000
0010
0000
0000
0100
0000
,
1100
0000
0000
0000
1100
0000
0000
0000
1000
0000
0000
0010
0000
0000
0100
0000
,
0011
0000
0000
0000
0011
0000
0000
0000
0010
0000
0000
0100
0000
0000
0010
0000
,
1010
0000
0000
0000
1010
0000
0000
0000
0010
0000
0000
1000
0000
0000
0100
0000
,
0110
0000
0000
0000
0110
0000
0000
0000
0010
0000
0000
0001
0000
0000
1000
0000
,
1001
0000
0000
0000
1001
0000
0000
0000
0001
0000
0000
0100
0000
0000
0010
0000
,
1010
0000
0000
0000
1010
0000
0000
0000
0010
0000
0000
0100
0000
0000
0001
0000
,
0011
0000
0000
0000
0011
0000
0000
0000
0010
0000
0000
1000
0000
0000
0001
0000
,
1000
0000
0100
0010
1000
0001
0000
0010
,
0000
0000
1000
0010
0100
0001
0000
0010
,
0000
0000
0100
0010
0001
1000
0010
0100
,
0000
0010
1000
0100
0000
0001
0100
0101
,
0000
0000
0010
1000
0001
1000
0000
0010
,
0000
0000
0001
0100
1000
0100
0000
0010
,
0000
0100
0110
0000
1000
0001
1000
1001
,
0000
0000
0000
0000
0000
0010
0100
0010
,
0000
0100
0001
0100
1000
0010
1000
0100
,
0000
0010
0000
0001
0100
0001
0100
0010
,
0000
0100
0000
1000
0010
1000
0001
0100
,
0000
0010
0100
0010
,
1000
0000
1000
0100
0010
0001
1000
0010
,
0000
0100
0000
0001
0010
0001
0100
0010
,
0000
0100
0000
1000
0010
0100
0001
1000
,
0010
0000
1000
0000
0100
0010
0001
0010
,
0100
0000
1000
0000
0100
0010
0001
0010
,
0100
0001
1000
0010
0000
0100
0000
0001
,
0010
0100
0001
1000
0000
0010
0000
0000
,
1000
0000
0000
0001
0000
0000
0000
0000
,
1000
0000
0001
0000
0100
0010
1000
0001
,
0100
0010
1000
0001
0000
0010
0000
0100
,
1000
0010
0100
0001
0000
0010
0000
0000
,
1000
0000
0000
0100
0000
0010
0001
1000
,
0010
0000
0000
0000
0010
0000
0000
0000
0100
0000
0000
0001
0000
0000
1000
0000
,
0010
0000
0000
0000
0010
0000
0000
0000
1000
0000
0000
0001
0000
0000
1000
0000
,
0010
0000
0000
0000
0010
0000
0000
0000
1000
0000
0000
0100
0000
0000
1000
0000
,
0010
0000
0000
0000
0010
0000
0000
0000
0100
0000
0000
0001
0000
0000
0100
0000
,
1100
0000
0000
0000
1100
0000
0000
0000
0010
0000
0000
1000
0000
0000
0001
0000
,
0101
0000
0000
0000
0101
0000
0000
0000
0001
0000
0000
1000
0000
0000
0010
0000
,
0110
0000
0000
0000
0110
0000
0000
0000
0001
0000
0000
1000
0000
0000
0010
0000
,
1001
0000
0000
0000
1001
0000
0000
0000
0100
0000
0000
0001
0000
0000
1000
0000
,
1001
0000
0000
0000
0100
0010
1000
0001
,
0000
0010
0000
0000
0000
0000
0100
0010
,
0000
1000
0000
0000
0000
0000
0001
1000
;

//---------------dance-single - ----------------
#NOTES:
     dance-single:
     :
     Easy:
     3:
     0.198,0.200,0.084,0.000,0.000,155.000,10.000,0.000,0.000,0.000,0.000,0.198,0.200,0.084,0.000,0.000,155.000,10.000,0.000,0.000,0.000,0.000:
0000
0000
0000
0000
,
0000
0000
0000
0000
,
0000
0000
0000
0000
,
0000
0000
0000
0000
,
0000
0000
0000
0000
,
0000
0000
0000
0000
,
0000
0000
0000
0000
,
0000
0000
0000
0000
,
0000
0000
0000
0000
,
1000
1000
0001
0000
,
0010
0010
0100
0000
,
0001
0001
0010
0000
,
1001
0000
0000
0000
,
0010
0010
0001
0000
,
0100
0100
0010
0000
,
1000
1000
0001
0000
,
1001
0000
0000
0000
,
0010
0010
0100
0000
,
1000
1000
0010
0000
,
0001
0001
0100
0000
,
0010
0010
0100
0000
,
1000
1000
0001
0000
,
0100
0100
0001
0000
,
0010
0010
0100
0000
,
1000
1000
0001
0000
,
0001
1000
0001
0000
,
0010
0100
0010
0000
,
1000
0001
1000
0000
,
0010
0100
0010
0000
,
1000
0001
1000
0000
,
0010
0100
0010
0000
,
0001
1000
0001
0000
,
0010
0100
0010
0000
,
1000
0000
1001
0000
,
0010
0000
0110
0000
,
1000
0000
1001
0000
,
0010
0000
0110
0000
,
1001
0000
1000
0000
,
0100
0000
1000
0000
,
0010
0000
0100
0000
,
0001
0000
0000
0000
,
0010
0000
0100
0010
,
0100
0100
0000
0001
,
0100
0100
0000
1000
,
0001
0000
0000
0000
,
0010
0100
0010
0100
,
0001
0001
0000
0100
,
0010
0100
0000
1000
,
0001
0000
0000
0000
,
0010
0010
0001
0000
,
0100
0100
0010
0000
,
0010
0010
1000
0000
,
0110
0000
1001
0000
,
0010
0010
0001
0000
,
0100
0100
0010
0000
,
1000
1000
0001
0000
,
0010
0000
1001
0000
,
0001
0010
0001
0000
,
0100
1000
0100
0000
,
0001
0010
0001
0000
,
0100
1000
0100
0000
,
0010
0100
0010
0000
,
1000
0001
1000
0000
,
0010
0100
0010
0000
,
1000
0001
1000
0000
,
0010
0000
0100
0000
,
0100
0000
0000
0000
,
0010
0000
0000
0000
,
0001
0000
0000
0000
;

//---------------dance-single - ----------------
#NOTES:
     dance-single:
     :
     Medium:
     5:
     0.315,0.285,0.109,0.000,0.118,249.000,13.000,0.000,0.000,0.000,0.000,0.315,0.285,0.109,0.000,0.118,249.000,13.000,0.000,0.000,0.000,0.000: // measure 1
0000
0000
0000
0000
,  // measure 2
0000
0000
0000
0000
,  // measure 3
0000
0000
0000
0000
,  // measure 4
0000
0000
0000
0000
,  // measure 5
0000
0000
0000
0000
,  // measure 6
0000
0000
0000
0000
,  // measure 7
0000
0000
0000
0000
,  // measure 8
0000
0000
0000
0000
,  // measure 9
0000
0000
0000
0000
,  // measure 10
1000
0000
0000
0000
1000
0000
0000
0000
0010
0000
0000
0010
0000
0000
0010
0000
,  // measure 11
0100
0000
0000
0000
0100
0000
0000
0000
0100
0000
0000
0100
0000
0000
0010
0000
,  // measure 12
0001
0000
0000
0000
0001
0000
0000
0000
0001
0000
0000
0001
0000
0000
0100
0000
,  // measure 13
0010
0000
0000
0000
,  // measure 14
1000
0000
0000
0000
1000
0000
0000
0000
0010
0000
0000
0010
0000
0000
0100
0000
,  // measure 15
0001
0000
0000
0000
0001
0000
0000
0000
0100
0000
0000
0100
0000
0000
0010
0000
,  // measure 16
0100
0000
0000
0000
0100
0000
0000
0000
1000
0000
0000
0001
0000
0000
0100
0000
,  // measure 17
0010
0000
0000
0000
,  // measure 18
1000
0000
0000
0000
0100
0000
0000
0000
0010
0000
0000
0010
0000
0000
0001
0000
,  // measure 19
0100
0000
0000
0000
0100
0000
0000
0000
0010
0000
0000
1000
0000
0000
0001
0000
,  // measure 20
0100
0000
0000
0000
0100
0000
0000
0000
0010
0000
0000
1000
0000
0000
0001
0000
,  // measure 21
1000
0000
0000
0000
1000
0000
0000
0000
0010
0000
0000
0100
0000
0000
0010
0000
,  // measure 22
0001
0000
0000
0000
0001
0000
0000
0000
0100
0000
0000
0010
0000
0000
0100
0000
,  // measure 23
0100
0000
0000
0000
1000
0000
0000
0000
0010
0000
0000
0010
0000
0000
0100
0000
,  // measure 24
0001
0000
0000
0000
0010
0000
0000
0000
1000
0000
0000
0100
0000
0000
0010
0000
,  // measure 25
0100
0010
1000
0000
,  // measure 26
0010
0000
0000
0000
0100
0000
0000
0000
1000
0000
0000
1000
0000
0000
0100
0000
,  // measure 27
0001
0000
0000
0000
0001
0000
0000
0000
0001
0000
0000
0001
0000
0000
0010
0000
,  // measure 28
0100
0000
0000
0000
0100
0000
0000
0000
0100
0000
0000
0100
0000
0000
0010
0000
,  // measure 29
1000
0000
0000
0000
0100
0000
0000
0000
0010
0000
0000
0010
0000
0000
0001
0000
,  // measure 30
0100
0000
0000
0000
0010
0000
0000
0000
1000
0000
0000
0001
0000
0000
1000
0000
,  // measure 31
0010
0000
0000
0000
0100
0000
0000
0000
0010
0000
0000
0100
0000
0000
0010
0000
,  // measure 32
1000
0000
0000
0000
0001
0000
0000
0000
0100
0000
0000
0001
0000
0000
0100
0000
,  // measure 33
1000
0000
0000
0000
0010
0000
0000
0000
1000
0000
0000
1000
0000
0000
0010
0000
,  // measure 34
0100
0100
0001
0001
,  // measure 35
0010
0010
0100
0100
,  // measure 36
1000
1000
0010
0010
,  // measure 37
0100
0100
0010
0010
,  // measure 38
1000
0001
0100
0100
,  // measure 39
0010
0010
1000
1000
,  // measure 40
0100
0100
0010
0010
,  // measure 41
0001
0001
0100
0010
,  // measure 42
1000
0010
1010
0000
,  // measure 43
0010
0001
0011
0000
,  // measure 44
0010
0100
0110
0000
,  // measure 45
1000
0001
1001
0000
,  // measure 46
0110
0110
0110
0000
,  // measure 47
0001
1000
0001
0000
,  // measure 48
1001
1001
1001
0000
,  // measure 49
0110
0110
0010
0100
,  // measure 50
0010
0010
0100
0100
,  // measure 51
0001
0001
0100
0100
,  // measure 52
0010
0010
1000
1000
,  // measure 53
0100
0100
0010
0010
,  // measure 54
0001
0001
0100
0100
,  // measure 55
0010
0010
1000
1000
,  // measure 56
0100
0100
0010
0010
,  // measure 57
0001
0001
1000
1001
,  // measure 58
0010
0000
0000
0000
0100
0000
0000
0000
0010
0000
0000
0010
0000
0000
0010
0000
,  // measure 59
0001
0000
0000
0000
0100
0000
0000
0000
0010
0000
0000
0010
0000
0000
0100
0000
,  // measure 60
0010
0000
0000
0000
0010
0000
0000
0000
1000
0000
0000
0100
0000
0000
0010
0000
,  // measure 61
0001
0100
0010
1000
,  // measure 62
0100
0000
0000
0000
0001
0000
0000
0000
1000
0000
0000
0001
0000
0000
1000
0000
,  // measure 63
0010
0000
0000
0000
0100
0000
0000
0000
0001
0000
0000
1000
0000
0000
0001
0000
,  // measure 64
0010
0000
0000
0000
0100
0000
0000
0000
1000
0000
0000
0010
0000
0000
1000
0000
,  // measure 65
0100
0000
0000
0000
0010
0000
0000
0000
0100
0000
0000
0001
0000
0000
0100
0000
,  // measure 66
0010
0000
0000
0000
1000
0100
1000
0010
,  // measure 67
0000
0100
0000
0000
0000
0000
0001
0100
,  // measure 68
0000
1000
0000
0000
0000
0000
0100
0010
;

//---------------dance-single - ----------------
#NOTES:
     dance-single:
     :
     Beginner:
     1:
     0.114,0.114,0.000,0.000,0.000,95.000,0.000,0.000,0.000,0.000,0.000,0.114,0.114,0.000,0.000,0.000,95.000,0.000,0.000,0.000,0.000,0.000:
0000
0000
0000
0000
,
0000
0000
0000
0000
,
0000
0000
0000
0000
,
0000
0000
0000
0000
,
0000
0000
0000
0000
,
0000
0000
0000
0000
,
0000
0000
0000
0000
,
0000
0000
0000
0000
,
0000
0000
0000
0000
,
0010
0010
0000
0000
,
0010
0010
0000
0000
,
0010
0010
0000
0000
,
0100
0000
0000
0000
,
1000
1000
0000
0000
,
1000
1000
0000
0000
,
1000
1000
0000
0000
,
1000
0000
0000
0000
,
0010
0010
0000
0000
,
0010
0010
0000
0000
,
0010
0010
0000
0000
,
0001
0001
0000
0000
,
0100
0100
0000
0000
,
0100
0100
0000
0000
,
0010
0010
0000
0000
,
0100
0100
0000
0000
,
0010
0010
0000
0000
,
0001
0001
0000
0000
,
0100
0100
0000
0000
,
1000
1000
0000
0000
,
0001
0001
0000
0000
,
0100
0100
0000
0000
,
0010
0010
0000
0000
,
1000
1000
0000
0000
,
0001
0000
0000
0000
,
0000
0000
0000
0000
,
1000
0000
0000
0000
,
0000
0000
0000
0000
,
0010
0000
0000
0000
,
0000
0000
0000
0000
,
0100
0000
0000
0000
,
0000
0000
0000
0000
,
0001
0001
0000
0000
,
0000
0000
0000
0000
,
0000
0000
0000
0000
,
0000
0000
0000
0000
,
1000
1000
0000
0000
,
0000
0000
0000
0000
,
0001
0001
0000
0000
,
0010
0010
0000
0000
,
0100
0100
0000
0000
,
1000
1000
0000
0000
,
0001
0001
0000
0000
,
0010
0010
0000
0000
,
0100
0100
0000
0000
,
0010
0010
0000
0000
,
0001
0001
0000
0000
,
1000
1000
0000
0000
,
0010
0010
0000
0000
,
0100
0100
0000
0000
,
0001
0001
0000
0000
,
0010
0010
0000
0000
,
1000
1000
0000
0000
,
1000
1000
0000
0000
,
0001
0001
0000
0000
,
0001
0001
0000
0000
,
0010
0000
0100
0000
,
0010
0000
0000
0000
,
0100
0000
0000
0000
,
0010
0000
0000
0000
;
