#TITLE:わすれモノ;
#SUBTITLE:;
#ARTIST:いよわ feat.初音ミク;
#TITLETRANSLIT:Wasure Mono;
#SUBTITLETRANSLIT:;
#ARTISTTRANSLIT:Iyowa feat. Hatsune Miku;
#GENRE:;
#CREDIT:;
#BANNER:Wasure Mono.png;
#BACKGROUND:Wasure Mono-bg.png;
#LYRICSPATH:;
#CDTITLE:.\CDTITLES\DDRMAX6.PNG;
#MUSIC:Wasure Mono.ogg;
#OFFSET:-0.040;
#SAMPLESTART:62.080;
#SAMPLELENGTH:15.000;
#SELECTABLE:YES;
#DISPLAYBPM:230.000;
#BPMS:0.000=230.000;
#STOPS:;
#BGCHANGES:0.000=Wasure Mono.avi=1.000=0=0=1=====,
456.000=Wasure Mono-bg.png=1.000=0=0=1=====,
99999=-nosongbg-=1.000=0=0=0 // don't automatically add -songbackground-
;
#KEYSOUNDS:;

//---------------dance-single - ----------------
#NOTES:
     dance-single:
     :
     Hard:
     9:
     0.659,0.625,0.604,0.000,0.730,478.000,72.000,0.000,0.000,0.000,0.000,0.659,0.625,0.604,0.000,0.730,478.000,72.000,0.000,0.000,0.000,0.000:
0000
0000
0000
0000
,
0000
0000
0000
0000
,
1000
0000
0000
0100
0000
0000
1000
0000
0001
0100
0000
0010
,
0100
0000
1000
0010
0000
0000
0100
0000
0000
0000
0000
0000
,
1000
0110
0001
0110
,
1000
0110
0001
0110
,
1000
0011
0100
0011
,
1000
0011
0100
0011
,
1000
0110
0001
0110
,
1000
0110
0001
0110
,
1000
0011
0110
1010
,
0010
1001
1001
0110
,
0100
0011
0100
0011
,
0100
0011
0100
0011
,
1000
0110
0001
0110
,
1000
0110
0001
0110
,
0001
1100
0001
1100
,
0001
1100
0001
1100
,
0010
1001
0011
0101
,
0010
1100
1100
0110
,
0001
0000
0000
0000
1000
0000
0000
0000
0000
0010
0000
0000
,
0000
0100
0000
0000
,
0010
0000
0000
0010
0000
0000
0100
0000
0000
0001
0000
1000
,
0000
0000
0010
0000
0000
0100
0010
0000
0001
1000
0000
0100
,
0010
0000
0000
0010
0000
0000
1000
0000
0100
0010
0000
0001
,
0000
0000
0100
0000
0000
0010
1000
0000
0100
0010
0000
0100
,
0001
0000
0010
0100
0000
1000
0001
0000
0100
0000
0000
0010
,
0100
0000
0001
1000
0000
0100
0000
0000
0000
0010
0000
0100
,
0000
0010
1000
0100
,
0010
0000
0000
0101
0000
0000
0101
0000
0001
0010
0000
0100
,
0000
0000
1000
0010
0000
0100
0000
0000
0010
0100
0000
0001
,
0000
0000
0010
1000
0000
0100
0000
0000
0001
1000
0000
0100
,
0000
0000
0010
0000
0000
0001
0000
0000
0100
0000
0000
0010
,
0000
0100
1100
0010
,
0100
0000
0001
0100
0000
1000
0010
0000
0000
0100
0000
0010
,
0000
0000
0100
0000
0000
0001
1000
0000
0100
0010
0000
0100
,
0001
0000
0010
0000
0000
0100
1000
0000
0010
0100
0000
0001
,
0000
0000
0100
0000
0000
0010
1000
0000
0000
0100
0000
0001
,
0010
0000
0100
1000
0000
0001
0000
0000
1000
0000
0100
0000
,
0000
0000
0000
0000
0010
0000
0000
0000
0000
0100
0000
0010
,
0000
1100
1100
0011
,
0110
0000
0000
1001
0000
0000
0100
0000
0010
0001
0000
0100
,
0000
0000
1000
0010
0000
0100
0000
0000
0001
1000
0000
0010
,
0000
0000
0100
0001
0000
1000
0000
0000
0100
0010
0000
0100
,
0000
0010
0011
0000
,
1000
0011
0100
1010
,
0100
0000
0010
0100
0000
0001
0000
0000
0100
0000
0000
0010
,
0100
0000
0000
1000
0000
0001
0000
0000
0000
1000
0000
0100
,
0000
0010
0011
0100
,
1100
0110
1001
0011
,
0100
0010
1000
0010
,
1000
0000
0000
0000
0000
0001
0000
0000
0100
0010
0000
1000
,
0000
0000
0000
0100
0000
0001
0000
0000
0010
0000
0000
0001
,
1000
0000
0000
0100
0000
0010
0000
0000
0100
0001
0000
0000
,
1000
0001
1000
0100
,
0010
0000
0100
1000
,
0010
0000
0000
0100
0000
0010
0100
0000
0001
1000
0000
0010
,
0100
0001
1000
0010
,
0000
0000
0100
0000
0000
0000
0010
0000
0000
0000
1000
0000
,
0000
0100
0010
0001
,
1000
0000
0001
0100
0000
0010
0100
0000
1000
0010
0000
0100
,
0001
0000
0010
0100
0000
1000
0001
0000
0000
0100
0000
0000
,
0010
0000
1000
0001
0000
0100
0010
0000
1000
0100
0000
0010
,
0100
0000
0001
1000
0000
0000
0010
0000
0000
0100
0000
0001
,
1000
0000
0100
0010
0000
1000
0001
0000
0100
0000
0000
0010
,
0100
0000
0000
0000
0000
1000
0100
0000
0000
0000
0000
0010
,
0000
0000
0000
0000
0000
0000
0100
0000
0001
0100
0000
0010
,
1000
0000
0100
0000
0000
0100
0010
0000
0001
0100
0000
0010
,
1000
0000
0000
0100
0000
0001
0010
0000
0100
0010
0000
1000
,
0000
0000
0001
0000
0000
0100
0000
0000
0010
0000
0000
0000
,
1000
0001
0000
0000
0000
0000
0100
0000
0000
0000
0000
0010
,
0000
0000
0100
0000
,
0010
0000
1000
0001
0000
0100
0000
0000
0010
0000
0000
1000
,
0000
0000
0010
0100
0000
0001
0000
0000
0010
0000
0000
0000
,
0000
0000
0000
1000
0001
0000
0000
0100
0000
0000
0010
0000
,
0000
0000
0100
0001
0000
0010
0000
0000
0000
0100
0000
0000
,
1000
0000
0000
0000
0000
0100
0001
0000
0000
0010
0000
0100
,
0010
0000
1000
0001
0000
0100
0010
0000
0000
1000
0000
0000
,
0001
0000
0010
0100
0000
1000
0001
0000
0100
0010
0000
1000
,
0001
0000
0100
0010
0000
0000
1000
0000
0000
0100
0000
0001
,
0100
0000
0010
1000
0000
0100
0010
0000
0001
0100
0000
0010
,
0000
0000
0000
0000
0000
0001
1000
0000
0000
0000
0000
0100
,
0010
0000
0000
0000
0000
0000
0100
0000
0010
0100
0000
0001
,
0000
0000
1000
0000
0000
0100
0000
0000
0000
0001
0000
0100
,
1000
0000
0000
0000
0000
0000
0010
0000
0001
0100
0000
1000
,
0010
0000
0100
0001
0000
1000
0000
0000
0000
0100
0000
0010
,
0100
0000
0001
0000
,
0010
0000
0000
0000
,
1000
0000
0010
0100
0000
0001
0000
0000
1000
0000
0000
0010
,
0000
0000
0100
0000
,
0000
0000
1000
1010
,
1000
1010
1000
1010
,
1000
1010
0001
0011
,
0001
0011
0001
0011
,
0001
0011
0100
0011
,
0100
0011
0100
0011
,
0100
0000
0000
0011
0000
0000
1000
0000
0001
1000
0000
0010
,
0000
0000
0100
0000
0000
0010
0000
0000
0000
0000
0000
1000
,
0000
0000
0100
0011
,
1000
0011
0100
0011
,
1000
0011
0100
1001
,
0010
1001
0010
1001
,
0100
0000
0000
1001
0000
0000
0010
0000
0100
0000
0000
0010
,
0001
0000
0000
0100
0000
0010
0000
0000
0001
1000
0000
0010
,
0000
0000
0100
0001
0000
0000
0100
0000
0001
1000
0000
0010
,
0000
0000
0100
0000
0000
0001
0000
0000
0000
0000
0000
0000
,
1000
0000
0010
0000
;

//---------------dance-single - ----------------
#NOTES:
     dance-single:
     :
     Easy:
     6:
     0.319,0.357,0.252,0.000,0.000,236.000,30.000,0.000,0.000,0.000,0.000,0.319,0.357,0.252,0.000,0.000,236.000,30.000,0.000,0.000,0.000,0.000:
0000
0000
0000
0000
,
0000
0000
0000
0000
,
1000
0010
1000
1000
,
0100
0001
1001
0000
,
0010
0000
0100
0000
,
1000
0000
0010
0000
,
0100
0000
0001
0000
,
0100
0000
0010
0000
,
1001
0000
0010
0000
,
0100
0000
0010
0000
,
0110
0000
1000
0000
,
1001
0000
0011
0000
,
0100
0000
0010
0000
,
0110
0000
0110
0000
,
1000
0000
0001
0000
,
1001
0000
1001
0000
,
0010
0000
0100
0000
,
0010
0000
0100
0000
,
1001
0000
0110
0000
,
1001
0000
0011
0000
,
0010
0000
0100
0000
,
1100
0000
0010
0000
,
0010
0100
0010
0000
,
0100
0001
0100
0010
,
1000
0100
1000
0000
,
0010
0100
0010
0100
,
0001
0100
0010
0100
,
1000
0000
1000
0000
,
0010
0000
0110
0000
,
0001
0000
0110
0000
,
1000
0000
1000
0000
,
0100
0000
0100
0000
,
0010
0100
0010
0100
,
0001
0000
0000
0000
,
1000
0100
0010
0000
,
0001
0100
0010
0100
,
1000
0000
0110
0000
,
0010
0001
0100
0010
,
1000
1000
0100
0010
,
0001
0000
0010
0000
,
1001
0000
0000
0000
,
0110
0000
0000
0000
,
1000
0000
0100
0000
,
0010
0000
0001
0000
,
1000
0010
0100
0010
,
1000
0000
0100
0000
,
0001
0000
0001
0000
,
0100
0000
0100
0000
,
0010
0010
0100
0000
,
1000
1000
0001
0001
,
0100
0010
1000
0010
,
0100
0000
0010
0001
,
0100
0000
0000
0000
,
0010
0000
0000
0000
,
0100
0010
0100
0010
,
1000
0000
0100
0000
,
0001
0000
0010
0000
,
0001
0000
0100
0000
,
0010
0000
0000
0000
,
0100
0000
0100
0010
,
0001
0000
1000
0100
,
0010
0100
1001
0000
,
0010
0100
0010
0100
,
0001
1000
0001
0100
,
0001
0001
0100
0100
,
0010
0000
0010
0000
,
0100
0000
0000
0000
,
0010
0000
0000
0000
,
1000
0000
0100
0000
,
0010
0000
0001
0000
,
1001
0000
0100
0000
,
0010
0000
0100
0000
,
0001
1000
0010
0000
,
0100
0000
0010
0000
,
0110
0000
0000
0000
,
1001
0000
0000
0000
,
0011
0000
0100
0010
,
1000
0100
0010
0000
,
0100
0010
0010
0100
,
0001
1000
1000
0010
,
0100
0000
0010
0000
,
0100
0000
0010
0000
,
1000
0000
0000
0000
,
0001
0000
0000
0000
,
1000
0000
0100
0000
,
0010
0000
0001
0000
,
0100
0000
0010
0000
,
1000
0000
0000
0000
,
0010
0000
0100
0000
,
0110
0000
0001
0000
,
0000
0000
1001
0000
,
0010
0000
0100
0000
,
0010
0000
1000
0000
,
0100
0000
1000
0000
,
0010
0000
0011
0000
,
0010
0000
0100
0000
,
0010
0000
1000
0000
,
0000
0000
0000
0000
,
0000
0000
0010
0000
,
0100
0000
1000
0000
,
0010
0000
0100
0000
,
0010
0000
1000
0000
,
0001
0000
0100
0000
,
0000
0000
0010
0000
,
0000
0000
0100
0000
,
0000
0000
1001
0000
,
0110
0000
1001
0000
;

//---------------dance-single - ----------------
#NOTES:
     dance-single:
     :
     Medium:
     7:
     0.417,0.447,0.336,0.000,0.042,308.000,40.000,0.000,0.000,0.000,0.000,0.417,0.447,0.336,0.000,0.042,308.000,40.000,0.000,0.000,0.000,0.000:
0000
0000
0000
0000
,
0000
0000
0000
0000
,
1000
0100
0010
0010
,
0100
0001
1000
1001
,
0010
0000
0100
0000
,
0010
0000
0100
0000
,
1000
0000
0100
0000
,
1000
0000
0100
0000
,
0011
0000
1100
0000
,
0110
0000
0011
0000
,
0100
0010
0100
0010
,
1000
0001
1001
0110
,
1000
0000
0100
0000
,
1000
0000
0100
0000
,
0010
0000
0001
0000
,
0010
0000
0001
0000
,
0100
0000
1001
0000
,
0010
0000
0110
0000
,
1000
0001
1000
0001
,
1000
0010
0100
1000
,
1010
0000
0000
0000
,
0011
0000
0000
0000
,
0100
0010
0100
0100
,
0010
1000
1000
0001
,
0100
0010
0010
0100
,
0001
0001
1000
0010
,
0100
0010
1000
0001
,
1001
0000
0110
0000
,
1001
0001
1000
0001
,
0100
0000
0000
0010
0000
0000
0100
0000
0000
0010
0000
0001
,
1000
0000
0000
0000
0000
0100
1000
0000
0000
0000
0000
0100
,
0010
0000
0000
0000
0000
0010
0001
0000
0000
0000
0000
0010
,
0100
1000
0100
0100
,
0010
0001
0100
0010
,
0100
0010
0110
0100
,
0001
1000
0100
0100
,
0010
1000
0001
0100
,
0010
1000
0001
0001
,
0010
0100
1000
0000
,
1000
0000
0110
0000
,
0001
0000
0110
0000
,
0011
0000
0000
0000
0000
0000
1100
0000
0000
0001
0000
0010
,
0100
0000
0000
0000
0000
1000
0001
0000
0000
0000
0000
0100
,
0010
0000
0000
0000
0000
1000
0010
0000
0000
0000
0000
0100
,
0001
0010
1000
0100
,
1000
0010
0010
0100
,
0001
1000
1000
0100
,
0010
0000
0100
0000
,
1001
0001
1000
0010
,
1000
0000
1100
0000
,
0010
0010
0100
0100
,
0010
0000
0100
0010
,
0110
0000
0000
0000
,
1001
0000
0000
0000
,
0001
0001
0100
0100
,
0010
0000
0100
0010
,
0100
0100
0001
0001
,
1000
1000
0010
0010
,
0000
0000
0000
0000
,
1001
0000
0001
0100
,
0010
0000
0100
0010
,
0001
0001
0100
0000
,
0010
1000
0010
0100
,
0010
0010
0100
0001
,
1000
0100
0010
0010
,
0100
0000
1001
0000
,
1000
0000
0010
0010
,
0100
0010
1000
0100
,
0001
0000
0011
0010
,
0100
1000
0010
0100
,
0110
0000
1010
0010
,
0100
0010
0001
1000
,
1001
1000
0100
0010
,
0100
0100
0010
1000
,
1001
0000
0000
0000
,
0110
0000
1000
0000
,
1001
0000
1000
0100
,
1000
1000
0010
0000
,
0001
0010
0100
1000
,
0010
0010
0100
0001
,
1000
0000
0100
0000
,
0010
0000
0001
0000
,
0100
0000
0010
1000
,
0100
0010
0110
0001
,
1000
0000
0100
0010
,
1000
0100
0010
0001
,
1000
0000
0001
0000
,
1001
0000
0000
0000
,
0010
0100
1000
0100
,
0010
0000
0101
0000
,
0000
0000
1000
0000
,
1000
0000
0010
0000
,
0100
0100
0001
0000
,
0001
0000
0001
0000
,
1000
1000
0010
0000
,
0010
0000
0100
0000
,
0001
0001
0100
0000
,
0010
0000
1001
0000
,
0000
0000
1000
0000
,
0100
0000
0010
0000
,
1000
1000
0001
0000
,
0100
0000
0010
0000
,
1000
1000
0001
0000
,
0010
0000
0100
0000
,
1000
0000
1001
0000
,
0000
0000
0110
0000
,
1001
0000
1001
0000
;

//---------------dance-single - ----------------
#NOTES:
     dance-single:
     :
     Beginner:
     3:
     0.167,0.268,0.101,0.000,0.000,127.000,12.000,0.000,0.000,0.000,0.000,0.167,0.268,0.101,0.000,0.000,127.000,12.000,0.000,0.000,0.000,0.000: // measure 1
0000
0000
0000
0000
,  // measure 2
0000
0000
0000
0000
,  // measure 3
1000
0000
0000
0000
,  // measure 4
0000
0000
0000
0000
,  // measure 5
0001
0000
0001
0000
,  // measure 6
0100
0000
0100
0000
,  // measure 7
0010
0000
0010
0000
,  // measure 8
0100
0000
0100
0000
,  // measure 9
1000
0000
1001
0000
,  // measure 10
0010
0000
0110
0000
,  // measure 11
0001
0000
0000
0000
,  // measure 12
0000
0000
0000
0000
,  // measure 13
1000
0000
1000
0000
,  // measure 14
0010
0000
0010
0000
,  // measure 15
0100
0000
0100
0000
,  // measure 16
0001
0000
0001
0000
,  // measure 17
0100
0000
0110
0000
,  // measure 18
0001
0000
1001
0000
,  // measure 19
1000
0000
0000
0000
,  // measure 20
0000
0000
0000
0000
,  // measure 21
0001
0000
0000
0000
,  // measure 22
0000
0000
0000
0000
,  // measure 23
1000
0000
1000
0000
,  // measure 24
0010
0000
0010
0000
,  // measure 25
0100
0000
0100
0000
,  // measure 26
0001
0000
0001
0000
,  // measure 27
0010
0000
0000
0000
,  // measure 28
0100
0000
0000
0000
,  // measure 29
0010
0000
0100
0000
,  // measure 30
0010
0000
0000
0010
,  // measure 31
0010
0000
0010
0000
,  // measure 32
0010
0000
0010
0000
,  // measure 33
0100
0000
0000
0000
,  // measure 34
0000
0000
0000
0000
,  // measure 35
1000
0000
0100
0000
,  // measure 36
1000
0000
1000
0000
,  // measure 37
0010
0000
0100
0000
,  // measure 38
0001
0000
0001
0000
,  // measure 39
0010
0000
0000
0000
,  // measure 40
0100
0000
0000
0000
,  // measure 41
1000
0000
0000
0000
,  // measure 42
0000
0000
0000
0010
,  // measure 43
0010
0000
0010
0000
,  // measure 44
0010
0000
0010
0000
,  // measure 45
0001
0000
0001
0000
,  // measure 46
0001
0000
0001
0000
,  // measure 47
0100
0000
0000
0000
,  // measure 48
0000
0000
0000
0000
,  // measure 49
0010
0000
0000
0000
,  // measure 50
0000
0000
0000
0000
,  // measure 51
0100
0000
0100
0000
,  // measure 52
0001
0000
0001
0000
,  // measure 53
0100
0000
0000
0000
,  // measure 54
0010
0000
0000
0000
,  // measure 55
1000
0000
1000
0000
,  // measure 56
0010
0000
0010
0000
,  // measure 57
0100
0000
0000
0000
,  // measure 58
0001
0000
0000
0000
,  // measure 59
0000
0000
0000
0000
,  // measure 60
0000
0000
0010
0000
,  // measure 61
1000
0000
0000
0000
,  // measure 62
0000
0000
0001
0000
,  // measure 63
1001
0000
0000
0000
,  // measure 64
0000
0000
0010
0000
,  // measure 65
0110
0000
0000
0000
,  // measure 66
0000
0000
0000
0000
,  // measure 67
1001
0000
0000
0000
,  // measure 68
0000
0000
0000
0000
,  // measure 69
0010
0000
0000
0000
,  // measure 70
0100
0000
0000
0000
,  // measure 71
0010
0000
0000
0000
,  // measure 72
0000
0000
0000
0000
,  // measure 73
0001
0000
0000
0000
,  // measure 74
0010
0000
0000
0000
,  // measure 75
0100
0000
0000
0000
,  // measure 76
0000
0000
1000
0000
,  // measure 77
1001
0000
0000
0000
,  // measure 78
0010
0000
0000
0000
,  // measure 79
0110
0000
0000
0000
,  // measure 80
0001
0000
0000
0000
,  // measure 81
1001
0000
0000
0000
,  // measure 82
0000
0000
0000
0000
,  // measure 83
0110
0000
0000
0000
,  // measure 84
0000
0000
0000
0000
,  // measure 85
1000
0000
0000
0000
,  // measure 86
0000
0000
0000
0000
,  // measure 87
0001
0000
0010
0000
,  // measure 88
0100
0000
0000
0000
,  // measure 89
1000
0000
0000
0000
,  // measure 90
0000
0000
0000
0000
,  // measure 91
0000
0000
0100
0000
,  // measure 92
0000
0000
0010
0000
,  // measure 93
0000
0000
0001
0000
,  // measure 94
0000
0000
1000
0000
,  // measure 95
0100
0000
0010
0000
,  // measure 96
0000
0000
0001
0000
,  // measure 97
0000
0000
0100
0000
,  // measure 98
0000
0000
0010
0000
,  // measure 99
0010
0000
0010
0000
,  // measure 100
0000
0000
0100
0000
,  // measure 101
0000
0000
0001
0000
,  // measure 102
0000
0000
1000
0000
,  // measure 103
0010
0000
0100
0000
,  // measure 104
0000
0000
0010
0000
,  // measure 105
0000
0000
0001
0000
,  // measure 106
0000
0000
0100
0000
,  // measure 107
0010
0000
1001
0000
;
