#TITLE:Waiting For Tonight;
#SUBTITLE:;
#ARTIST:3rd Party;
#TITLETRANSLIT:;
#SUBTITLETRANSLIT:;
#ARTISTTRANSLIT:;
#GENRE:;
#CREDIT:;
#BANNER:Waiting For Tonight.png;
#BACKGROUND:Waiting For Tonight-bg.png;
#LYRICSPATH:;
#CDTITLE:.\CDTITLES\DDRMAX6.PNG;
#MUSIC:Waiting For Tonight.ogg;
#OFFSET:-0.020;
#SAMPLESTART:59.780;
#SAMPLELENGTH:15.000;
#SELECTABLE:YES;
#DISPLAYBPM:126.000;
#BPMS:0.000=126.450;
#STOPS:;
#BGCHANGES:;
#KEYSOUNDS:;

//---------------dance-single - ----------------
#NOTES:
     dance-single:
     :
     Hard:
     7:
     0.371,0.359,0.157,0.000,0.230,233.000,15.000,0.000,0.000,0.000,0.000,0.371,0.359,0.157,0.000,0.230,233.000,15.000,0.000,0.000,0.000,0.000:
0000
0000
0000
0000
,
0000
0000
0000
0000
,
0000
0000
0000
0000
,
0000
0000
0000
0000
,
1000
0000
0000
0000
0010
0000
0000
0010
0000
0000
0010
0000
0000
0000
0001
0000
,
0100
0000
0000
0000
0010
0000
0000
0010
0000
0000
0010
0000
0000
0000
0100
0000
,
1000
0000
0000
0000
0010
0000
0000
0010
0000
0000
0010
0000
0000
0000
0100
0000
,
0001
0000
0000
0000
0010
0000
0000
0010
0000
0000
0010
0000
0000
0000
1000
0000
,
0001
0000
0000
0000
0100
0000
0000
0010
0000
0000
0100
0000
0000
0000
0001
0000
,
1000
0000
0000
0000
0010
0000
0000
1000
0000
0000
0010
0000
0000
0000
0100
0000
,
0001
0000
0000
0000
0010
0000
0000
0100
0000
0000
0010
0000
0000
0000
1000
0000
,
0001
0000
0000
0000
0100
0000
0000
0010
0000
0000
0100
0000
0000
0000
0001
0000
,
1000
0000
0000
0000
0010
0000
0000
1000
0000
0000
0010
0000
0000
0000
0100
0000
,
0010
0000
0000
0000
0001
0000
0000
0100
0000
0000
0001
0000
0000
0000
0010
0000
,
1000
0000
0000
0000
0001
0000
0000
1000
0000
0000
0001
0000
0000
0000
0100
0000
,
0010
0000
0000
0000
1000
0000
0000
0100
0000
0000
1000
0000
0000
0000
0010
0000
,
0100
0000
0000
0000
0010
0000
0001
0100
0000
0000
0010
0000
1001
0000
0000
0000
,
0000
0000
0000
0000
0010
0000
1000
0001
0000
0000
0100
0000
0110
0000
0000
0000
,
0000
0000
0010
0000
1000
0000
0100
0010
,
0110
0110
0000
0000
,
0001
0000
0000
0000
1000
0000
0100
0010
0000
0000
0100
0000
0101
0000
0000
0000
,
0010
0000
0000
0000
1000
0000
0001
1000
0000
0000
0010
0000
1010
0000
0000
0000
,
0000
0000
0000
0000
0100
0000
0010
0100
0000
0000
0010
0000
1000
0000
0001
0000
,
1000
0000
1001
0000
0000
0000
0000
0010
,
0100
0000
0000
0100
0000
0000
0001
0000
1000
0000
0000
1000
0000
0000
0010
0000
,
0100
0000
0000
0100
0000
0000
0001
0000
1000
0000
0000
0000
0000
0000
0010
0000
,
0100
0000
0000
0100
0000
0000
0001
0000
1000
0000
0000
1000
0000
0000
0010
0000
,
0100
0000
0000
0100
0000
0000
0001
0000
0010
0000
0000
0000
0000
0000
0010
0000
,
0100
0000
0000
0100
0000
0000
0010
0000
1000
0000
0000
1000
0000
0000
0010
0000
,
0100
0000
0000
0001
0000
0000
0010
0000
1001
0000
0000
0000
0000
0000
0000
0000
,
0100
0000
0000
0100
0000
0000
0010
0000
1000
0000
0000
1000
0000
0000
0010
0000
,
1001
0000
0000
0000
0010
0100
0010
0100
,
0110
0000
0000
0000
0001
0000
0000
1000
0000
0000
0001
0000
0100
0000
0010
0000
,
1000
0000
0000
0000
1000
0000
0000
0100
0000
0000
0010
0000
0000
0000
0100
0000
,
0010
0000
0000
0010
0000
0000
0010
0000
0100
0000
0000
0100
0000
0000
0010
0000
,
0100
0000
0000
0000
0001
1000
0001
1000
,
0001
0000
0000
0000
0100
0000
0000
0100
0000
0000
0010
0000
1000
0000
0100
0000
,
0010
0000
0000
0000
0001
0000
0000
0100
0000
0000
0010
0000
0000
0000
1000
0000
,
0010
0000
0000
0010
0000
0000
0010
0000
0001
0000
0000
0001
0000
0000
0001
0000
,
0100
0000
0000
0000
0010
0100
0010
0100
,
0110
0000
0000
0000
1000
0000
0000
0001
0000
0000
1000
0000
0100
0000
0010
0000
,
0011
0000
0000
0000
0010
0000
0000
0100
0000
0000
1000
0000
0000
0000
0010
0000
,
0100
0000
0000
0100
0000
0000
0100
0000
0010
0000
0000
0010
0000
0000
0010
0000
,
0001
0000
0000
0000
0010
1000
0010
1000
,
1010
0000
0000
0000
0100
0000
0000
0010
0000
0000
0100
0000
0010
0000
0001
0000
,
1001
0000
0000
0000
0010
0000
0000
1000
0000
0000
0001
0000
0000
0000
0100
0000
,
0010
0000
0000
0010
0000
0000
0010
0000
0100
0000
0000
0100
0000
0000
0100
0000
,
0010
0000
0000
0000
0100
0010
0100
0010
,
0110
0000
0000
0000
0000
0000
0001
0010
,
1000
0000
0000
0000
;

//---------------dance-single - ----------------
#NOTES:
     dance-single:
     :
     Medium:
     5:
     0.257,0.359,0.544,0.042,0.000,116.000,52.000,4.000,0.000,0.000,0.000,0.257,0.359,0.544,0.042,0.000,116.000,52.000,4.000,0.000,0.000,0.000:
0000
0000
0000
0000
,
0000
0000
0000
0000
,
0000
0000
0000
0000
,
0000
0000
0000
0000
,
1000
0000
1010
0000
,
0010
0000
0110
0000
,
0001
0000
0011
0000
,
1000
0000
1010
0000
,
0100
0000
0110
0000
,
0010
0000
1001
0000
,
0010
0000
0110
0000
,
0001
0000
0011
0000
,
0010
0000
1010
0000
,
0100
0000
0110
0000
,
0001
0000
0011
0000
,
0010
0000
1010
0000
,
0000
0002
0100
1003
,
0000
2000
0010
3100
,
0000
0001
0100
0010
,
1010
1010
0000
0000
,
0000
0002
0100
0013
,
0000
2000
0010
3100
,
0000
0001
1000
0001
,
0110
0110
0000
0000
,
1000
0000
1100
0000
,
0010
0000
1010
0000
,
0100
0000
0110
0000
,
0001
0000
0011
0000
,
0010
0000
0110
0000
,
1000
0000
1001
0000
,
0010
0000
0110
0000
,
1001
0000
0000
0000
0001
1000
0001
1000
,
0001
0000
0000
0010
,
0110
0000
0000
0000
,
1100
0110
1010
0011
,
0110
0000
0000
0000
0010
1000
0010
1000
,
0010
0000
0000
0100
,
0110
0000
0000
0000
,
0101
1001
1010
0011
,
1010
0000
0000
0000
0100
0010
0100
0010
,
0100
0000
0000
0011
,
0011
0000
0000
0000
,
1010
1010
0110
0110
,
1001
0000
0000
0000
1000
0001
1000
0001
,
1000
0000
0000
0110
,
0110
0000
0000
0000
,
0011
0011
1010
0110
,
1001
0000
0000
0000
0010
0100
0010
0100
,
0010
0000
0000
0110
,
0110
0000
0000
0000
;

//---------------dance-single - ----------------
#NOTES:
     dance-single:
     :
     Easy:
     3:
     0.176,0.205,0.209,0.000,0.000,98.000,20.000,0.000,0.000,0.000,0.000,0.176,0.205,0.209,0.000,0.000,98.000,20.000,0.000,0.000,0.000,0.000:
0000
0000
0000
0000
,
0000
0000
0000
0000
,
0000
0000
0000
0000
,
0000
0000
0000
0000
,
1000
0000
1000
0000
,
0001
0000
0001
0000
,
0010
0000
0010
0000
,
0100
0000
0001
0000
,
1000
0000
0110
0000
,
0001
0000
1001
0000
,
0010
0000
0110
0000
,
1000
0000
1000
0000
,
0001
0000
0110
0000
,
1000
0000
0110
0000
,
0001
0000
1001
0000
,
0010
0000
0110
0000
,
0000
1000
0001
1000
,
0000
0010
0100
0010
,
0000
1000
0010
1000
,
0100
0100
0000
0000
,
0000
0001
0100
0001
,
0000
0010
0100
0010
,
0000
1000
0001
1000
,
0010
0010
0000
0000
,
1000
0000
0100
0000
,
0010
0000
0001
0000
,
0010
0000
0100
0000
,
1000
0000
1001
0000
,
0010
0000
0001
0000
,
0010
0000
0001
0000
,
0100
0000
0010
0000
,
0110
0000
0001
1000
,
1001
0000
0000
0010
,
0010
0000
0000
0000
,
0100
0000
0010
0000
,
0100
0000
0001
1000
,
1001
0000
0000
0010
,
0010
0000
0000
0000
,
0100
0000
0010
0000
,
0100
0000
1000
0001
,
1001
0000
0000
0010
,
0010
0000
0000
0000
,
0110
0000
0110
0000
,
1001
0000
1000
0001
,
1001
0000
0000
0100
,
0100
0000
0000
0000
,
0110
0000
0110
0000
,
1001
0000
0100
0010
,
0110
0000
0000
0001
,
0001
0000
0000
0000
;

//---------------dance-single - ----------------
#NOTES:
     dance-single:
     :
     Beginner:
     1:
     0.091,0.103,0.000,0.000,0.000,61.000,0.000,0.000,0.000,0.000,0.000,0.091,0.103,0.000,0.000,0.000,61.000,0.000,0.000,0.000,0.000,0.000: // measure 1
0000
0000
0000
0000
,  // measure 2
0000
0000
0000
0000
,  // measure 3
0000
0000
0000
0000
,  // measure 4
0000
0000
0000
0000
,  // measure 5
1000
0000
0000
0000
,  // measure 6
0000
0000
0000
0000
,  // measure 7
0001
0000
0000
0000
,  // measure 8
0000
0000
0000
0000
,  // measure 9
1000
0000
0000
0000
,  // measure 10
1000
0000
0000
0000
,  // measure 11
0010
0000
0000
0000
,  // measure 12
0010
0000
0000
0000
,  // measure 13
0100
0000
0000
0000
,  // measure 14
0100
0000
0000
0000
,  // measure 15
0001
0000
0000
0000
,  // measure 16
0001
0000
0000
0000
,  // measure 17
0000
0000
0010
0000
,  // measure 18
0000
0000
0100
0000
,  // measure 19
0000
0000
0010
0000
,  // measure 20
0100
0000
0000
0000
,  // measure 21
0000
0000
1000
0000
,  // measure 22
0000
0000
0001
0000
,  // measure 23
0000
0000
0100
0000
,  // measure 24
0100
0000
0000
0000
,  // measure 25
0010
0000
0001
0000
,  // measure 26
0010
0000
0010
0000
,  // measure 27
0100
0000
0010
0000
,  // measure 28
0100
0000
0100
0000
,  // measure 29
1000
0000
1000
0000
,  // measure 30
1000
0000
1000
0000
,  // measure 31
0001
0000
0001
0000
,  // measure 32
0010
0000
0000
0000
,  // measure 33
0100
0000
0000
0010
,  // measure 34
0010
0000
0000
0000
,  // measure 35
0001
0000
1000
0000
,  // measure 36
0001
0000
0000
0000
,  // measure 37
0100
0000
0000
1000
,  // measure 38
1000
0000
0000
0000
,  // measure 39
0010
0000
0100
0000
,  // measure 40
0010
0000
0000
0000
,  // measure 41
0001
0000
0000
0100
,  // measure 42
0100
0000
0000
0000
,  // measure 43
0010
0000
1000
0000
,  // measure 44
0010
0000
0100
0000
,  // measure 45
0001
0000
0000
1000
,  // measure 46
1000
0000
0000
0000
,  // measure 47
0100
0000
0010
0000
,  // measure 48
0100
0000
0000
0000
,  // measure 49
0010
0000
0000
0100
,  // measure 50
0100
0000
0000
0000
;
