#TITLE:愛スクリ~ム!;
#SUBTITLE:;
#ARTIST:Toritenya's VOCALOIDs;
#TITLETRANSLIT:The Vocaloid Family Song (Love Scream!);
#SUBTITLETRANSLIT:;
#ARTISTTRANSLIT:鶏天家のVOCALOID達で;
#GENRE:;
#CREDIT:;
#BANNER:The Vocaloid Family Song (Love Scream!).png;
#BACKGROUND:The Vocaloid Family Song (Love Scream!)-bg.png;
#LYRICSPATH:;
#CDTITLE:.\CDTITLES\DDRMAX6.PNG;
#MUSIC:The Vocaloid Family Song (Love Scream!).ogg;
#OFFSET:1.160;
#SAMPLESTART:3.940;
#SAMPLELENGTH:15.000;
#SELECTABLE:YES;
#DISPLAYBPM:132.000;
#BPMS:0.000=132.000;
#STOPS:;
#BGCHANGES:0.000=The Vocaloid Family Song (Love Scream!)-bg.png=1.000=0=0=1=====,
3.000=The Vocaloid Family Song (Love Scream!).avi=1.000=0=0=1=====,
148.000=The Vocaloid Family Song (Love Scream!)-bg.png=1.000=0=0=1=====,
99999=-nosongbg-=1.000=0=0=0 // don't automatically add -songbackground-
;
#KEYSOUNDS:;

//---------------dance-single - ----------------
#NOTES:
     dance-single:
     :
     Easy:
     5:
     0.265,0.217,0.226,0.105,0.000,101.000,15.000,7.000,0.000,0.000,0.000,0.265,0.217,0.226,0.105,0.000,101.000,15.000,7.000,0.000,0.000,0.000:
0000
0000
0000
0000
,
0000
0000
0000
0000
,
0000
0000
0000
0000
,
0010
0000
0020
0000
,
0130
0100
0100
0000
,
0010
0001
1000
0010
,
0100
0110
0110
0000
,
1000
0000
0002
0000
,
0103
0100
0100
0000
,
0010
0001
1000
0010
,
0010
1001
0110
0000
,
0001
0000
0200
0000
,
0310
0010
0001
0000
,
0010
1000
0001
1000
,
0001
0110
0110
0000
,
1000
0000
0002
0000
,
0103
0100
0100
0000
,
0010
0100
0010
0100
,
1000
1001
1001
0000
,
0010
0000
0200
0000
,
0310
1000
0001
0000
,
0100
0001
0010
0100
,
0001
0011
0110
0000
,
0010
0000
0200
0000
,
0310
1000
0001
0000
,
0100
0010
0001
0010
,
0100
1010
0101
0000
,
1000
0000
0002
0000
,
0103
0100
0100
0000
,
0010
1000
0010
1000
,
0000
0011
1100
0000
,
0011
0000
0000
0000
,
1000
0001
0100
0001
,
0100
0001
0100
0001
,
0010
1000
0010
1000
,
0010
1000
0010
1000
,
0100
0000
0000
0000
;

//---------------dance-single - ----------------
#NOTES:
     dance-single:
     :
     Hard:
     8:
     0.482,0.434,0.151,0.226,0.354,199.000,10.000,15.000,0.000,0.000,0.000,0.482,0.434,0.151,0.226,0.354,199.000,10.000,15.000,0.000,0.000,0.000: // measure 1
0000
0000
0000
0000
,  // measure 2
0000
0000
0000
0000
,  // measure 3
0000
0000
0000
0000
0000
0000
0000
0000
0000
0000
0000
0000
0000
0000
0001
1000
,  // measure 4
0001
0000
0010
0100
0000
0000
0010
0000
2000
0000
0000
0000
0000
0000
0000
0000
,  // measure 5
3100
0000
0010
0000
0001
0000
0100
0000
0010
0000
0000
1000
0000
0000
0100
0000
,  // measure 6
0020
0000
0000
0000
0100
0000
0000
0000
0130
0000
0000
0000
0000
0100
0010
0100
,  // measure 7
0010
0000
0000
0000
1000
0000
0000
0000
1100
0000
0000
0000
0000
0000
0010
0001
,  // measure 8
0010
0000
0001
0100
0000
0000
0010
0000
2000
0000
0000
0000
0000
0000
0000
0000
,  // measure 9
3010
0000
0001
0000
0100
0000
0010
0000
1000
0000
0000
0001
0000
0000
0100
0000
,  // measure 10
0020
0000
0000
0000
0100
0000
0000
0000
0130
0000
0000
0000
0000
1000
0001
1000
,  // measure 11
0001
0000
0000
0000
0100
0000
0000
0000
0110
0000
0000
0000
0000
0000
0010
0100
,  // measure 12
0010
0000
0100
0001
0000
0000
0100
0000
0002
0000
0000
0000
0000
0000
0000
0000
,  // measure 13
0013
0000
1000
0000
0001
0000
0100
0000
0010
0000
0000
0100
0010
0000
0010
0000
,  // measure 14
0002
0000
0000
0000
0010
0000
0000
0000
0013
0000
0000
0000
0000
0100
0010
0100
,  // measure 15
0010
0000
0000
0000
0100
0000
0000
0000
1100
0000
0000
0000
0000
0000
1000
0001
,  // measure 16
1000
0000
0010
0001
0000
0000
0010
0000
0200
0000
0000
0000
0000
0000
0000
0000
,  // measure 17
0310
0000
0001
0000
1000
0000
0010
0000
1000
0000
0000
0010
0000
0000
0001
0000
,  // measure 18
0200
0000
0000
0000
0010
0000
0000
0000
0310
0000
0000
0000
0010
0100
0010
0100
,  // measure 19
0000
0000
0000
0000
0000
0000
0000
0000
0000
0000
0000
0000
0100
0000
0000
0000
0010
0000
0000
0000
0100
0000
0000
0000
0010
0000
0000
0000
0000
0000
0000
0000
0000
0000
0000
0000
0000
0000
0000
0010
0000
0000
0100
0000
0000
0010
0000
0000
,  // measure 20
0100
0000
0000
0000
0000
0000
0010
0000
0000
1000
0000
0000
0000
0000
0000
0000
0000
0000
0001
0000
0000
0000
0000
0000
0000
0000
0000
0000
2000
0000
0000
0000
0000
0000
0000
0000
0000
0000
0000
0000
0000
0000
0000
0000
0000
0000
0000
0000
,  // measure 21
3100
0000
0010
0000
0100
0000
0010
0000
0100
0000
0000
0010
0000
0000
0100
0000
,  // measure 22
0001
0000
1001
0000
0000
0000
0010
0000
0011
0000
0000
0000
0000
0010
0100
0010
,  // measure 23
0100
0000
0000
0000
1000
0000
0000
0000
1010
0000
0000
0000
0000
0010
0100
0010
,  // measure 24
0100
0000
0100
0001
0000
0000
0010
0000
2000
0000
0000
0000
0000
0000
0000
0000
,  // measure 25
3010
0000
0100
0000
0010
0000
0100
0000
0001
0000
0000
0010
0000
0000
0001
0000
,  // measure 26
0020
0000
0000
0000
0100
0000
0000
0000
0130
0000
0000
0000
0000
0100
0010
0100
,  // measure 27
0000
0000
0000
0000
0000
0000
0010
0000
0100
0000
0010
0000
0000
0000
0000
0000
0000
0000
0000
0000
0000
0010
0000
0000
,  // measure 28
1000
1100
0000
0010
2002
0000
3003
0000
,  // measure 29
0010
0000
1000
0000
0001
0000
1000
0000
0010
0000
0000
0001
0000
0000
0010
0000
,  // measure 30
0100
0010
0100
0000
1000
0001
0100
1100
,  // measure 31
0000
0000
0010
0100
0202
0000
0303
0000
,  // measure 32
0001
0000
1000
0000
0010
0000
0100
0010
0100
0000
1000
0000
0010
0000
0000
0000
,  // measure 33
0001
0000
0010
0000
0000
1000
0000
0000
0100
0000
0000
0001
0000
0000
0010
0000
,  // measure 34
0010
0000
1000
0000
0000
0100
0000
0000
1000
0000
0000
0010
0000
0000
0100
0000
,  // measure 35
0100
0000
0010
0000
0000
0001
0000
0000
0010
0000
0000
1000
0000
0000
0100
0000
,  // measure 36
0100
0000
0001
0000
0000
1000
0000
0000
0010
0000
0000
0100
0000
0000
1000
0000
,  // measure 37
1000
0000
0000
0000
;

//---------------dance-single - ----------------
#NOTES:
     dance-single:
     :
     Challenge:
     9:
     0.632,0.596,0.256,0.316,0.565,256.000,17.000,21.000,0.000,0.000,0.000,0.632,0.596,0.256,0.316,0.565,256.000,17.000,21.000,0.000,0.000,0.000:
0000
0000
0000
0000
,
0000
0000
0000
0000
,
0000
0000
0000
0000
0000
0000
0000
0000
0000
0000
0000
0000
0000
0000
0010
1000
,
0010
0000
0100
0001
0000
0010
0100
0000
2000
0000
0000
0000
3002
0000
0000
0000
,
0103
0000
1000
0000
0010
0000
0100
0000
0001
0000
0010
2000
0000
0000
0000
0000
,
3200
0000
0000
0000
0302
0000
0000
0000
1003
0000
0000
0000
0000
0010
0100
0010
,
0100
0000
0000
0000
1001
0000
0000
0000
0110
0000
0000
0000
0000
0000
0010
1000
,
0001
0000
0100
0010
0000
1000
0001
0000
0020
0000
0000
0000
2030
0000
0000
0000
,
3001
0000
0010
0000
0100
0000
1000
0000
0001
0000
0010
0002
0000
0000
0000
0000
,
0203
0000
0000
0000
2300
0000
0000
0000
3010
0000
0000
0000
0000
0100
0010
0100
,
0010
0000
0000
0000
1001
0000
0000
0000
0011
0000
0000
0000
0000
0000
0010
1000
,
0010
0000
0100
0001
0000
1000
0010
0000
0200
0000
0000
0000
0302
0000
0000
0000
,
1003
0000
0010
0000
0100
0000
0001
0000
1000
0000
0001
0100
0001
0000
0010
0000
,
0010
0000
0100
0010
0000
0000
0000
0000
0100
0000
0001
1000
0000
0010
0100
0010
,
0100
0000
0000
0000
0011
0000
0000
0000
1100
0000
0000
0000
0000
0000
1000
0010
,
1000
0000
0100
0010
0000
0001
1000
0000
0020
0000
0000
0000
0230
0000
0000
0000
,
0301
0000
0010
0000
0001
0000
1000
0000
0100
0000
0001
2000
0000
0000
0000
0000
,
3010
0000
0001
0000
0010
0000
0001
0000
1000
0000
0100
0000
1000
0001
1000
0001
,
1000
0000
0000
0000
0000
0000
0000
0000
0000
0000
0000
0000
0100
0000
0000
0000
0010
0000
0000
0000
0100
0000
0000
0000
0010
0000
0000
0000
0000
0000
0000
0000
0000
0000
0000
0000
0000
0000
0000
0001
0000
0000
1000
0000
0000
0001
0000
0000
,
1000
0000
0000
0000
0000
0000
0001
0000
0000
1000
0000
0000
0000
0000
0000
0000
0000
0000
0100
0000
0000
0000
0000
0000
0000
0000
0000
0000
0020
0000
0000
0000
0000
0000
0000
0000
0000
0000
0000
0000
0000
0000
0000
0000
0000
0000
0000
0000
,
1030
0000
0100
0000
0010
0000
0001
0000
0010
0000
0100
0002
0000
0000
0000
0000
,
0103
0000
0101
0000
0000
0000
0010
0000
1001
0000
0000
0000
0000
0010
0100
0010
,
0100
0000
0000
0000
1100
0000
0000
0000
0011
0000
0000
0000
0000
0010
1000
0010
,
1000
0000
0100
0010
0000
0001
0010
0000
0100
0000
0010
0100
0000
0100
0010
0000
,
0010
0000
0001
0000
0010
0000
0100
0000
0010
0000
0001
0020
0000
0000
0000
0000
,
0130
0000
1000
0000
0100
0000
1000
0000
0010
0000
0000
0000
0000
0010
0100
0010
,
0100
0000
0000
0000
0000
0000
0000
0000
0000
0000
0000
0000
1000
0000
0000
0000
0100
0000
0000
0000
1000
0000
0000
0000
0000
0000
0000
0000
0000
0000
0100
0000
0000
0110
0000
0000
0000
0000
0000
0000
0000
0000
0010
0000
0000
0000
0000
0000
,
1000
0000
0001
1000
0000
0100
0010
0000
0020
0000
0000
0000
0230
0000
0000
0000
,
1300
0000
0100
0000
0010
0000
0100
0000
0001
0000
0100
0020
0000
0000
0000
0000
,
0130
0010
0110
0000
1001
0001
0101
0010
,
0011
0000
0000
0000
1010
0000
1010
0000
0001
0000
1000
0000
0010
0100
0010
0100
,
0010
0000
1000
0000
0100
0000
0010
0001
0010
0001
0010
0001
0010
0000
0000
0000
,
1000
0000
0010
1000
0000
0001
0100
0000
0010
1000
0000
0001
0100
0000
0010
1000
,
0010
0000
0100
0010
0000
0001
0010
0000
0100
1000
0000
0010
0100
0000
0001
1000
,
0001
0000
0010
0100
0000
1000
0010
0000
0100
0001
0000
1000
0010
0000
0100
0010
,
0100
0000
0001
0100
0000
0010
1000
0000
0100
0010
0000
0001
1000
0000
0010
0100
,
0010
0000
0000
0000
;

//---------------dance-single - ----------------
#NOTES:
     dance-single:
     :
     Medium:
     6:
     0.333,0.325,0.467,0.166,0.000,113.000,31.000,11.000,0.000,0.000,0.000,0.333,0.325,0.467,0.166,0.000,113.000,31.000,11.000,0.000,0.000,0.000:
0000
0000
0000
0000
,
0000
0000
0000
0000
,
0000
0000
0000
0000
,
1000
0010
2020
3030
,
0100
0001
0011
0000
,
0020
0000
0000
0000
0130
0000
0000
0100
,
0010
1000
1001
0000
,
0010
0001
0022
0033
,
0100
1000
1010
0000
,
0010
0000
1000
0000
1001
0000
0000
0100
,
0010
0100
0110
0000
,
1000
0000
0000
0001
1000
0000
0000
0000
,
0100
0000
0010
0000
0110
0000
1000
0100
,
0010
0000
0000
0000
0000
0000
0000
0001
,
0010
0000
0100
0000
1100
0000
0000
0100
,
0010
0100
0220
0330
,
1000
0001
1001
0000
,
0011
0000
0110
0000
1100
0000
0100
0010
,
0000
0000
0100
0000
0001
0000
0000
0010
,
0100
0000
0110
0000
,
1000
0100
1100
0000
,
0010
0100
0000
0000
0100
0000
0000
0010
,
0001
0000
0010
0000
0011
0000
0000
0010
,
0100
1000
2200
3300
,
0010
0100
0110
0000
,
1000
0000
0001
0000
1001
0000
0000
0010
,
0100
0000
0010
0100
0000
0000
0000
1000
,
0001
1000
2002
3003
,
0010
0001
0011
0000
,
1010
0110
1000
0100
,
0000
0101
1010
0000
,
0100
0010
0100
0010
,
0110
0001
0100
1000
,
1010
0010
1000
0010
,
0110
0010
0001
0010
,
0110
0100
1000
0100
,
1001
0000
0000
0000
;

//---------------dance-single - ----------------
#NOTES:
     dance-single:
     :
     Beginner:
     1:
     0.153,0.136,0.000,0.000,0.000,71.000,0.000,0.000,0.000,0.000,0.000,0.153,0.136,0.000,0.000,0.000,71.000,0.000,0.000,0.000,0.000,0.000:
0000
0000
0000
0000
,
0000
0000
0000
0000
,
0000
0000
0000
0000
,
1000
0000
1000
0000
,
0010
0000
0010
0000
,
0100
0000
0100
0000
,
0010
0010
0010
0000
,
0001
0000
0001
0000
,
0100
0000
0100
0000
,
0010
0000
0010
0000
,
0100
0100
0100
0000
,
1000
0000
1000
0000
,
0010
0000
0010
0000
,
0100
0000
0100
0000
,
0001
0001
0001
0000
,
0010
0000
0010
0000
,
0100
0000
0100
0000
,
1000
0000
1000
0000
,
0010
0010
0010
0000
,
0100
0000
0100
0000
,
0001
0000
0001
0000
,
0010
0000
0010
0000
,
0100
0100
0100
0000
,
1000
0000
1000
0000
,
0010
0000
0010
0000
,
0100
0000
0100
0000
,
0001
0001
0001
0000
,
0010
0000
0010
0000
,
0100
0000
0100
0000
,
1000
0000
1000
0000
,
0000
0010
0100
0000
,
0000
0000
0000
0000
,
1000
0000
1000
0000
,
0010
0000
0010
0000
,
0100
0000
0100
0000
,
0001
0000
0001
0000
,
0010
0000
0000
0000
;
