#TITLE:The Exciting Hyper Highspeed Star;
#SUBTITLE:;
#ARTIST:JEA vs. DJ Sharpnel;
#TITLETRANSLIT:;
#SUBTITLETRANSLIT:;
#ARTISTTRANSLIT:;
#GENRE:;
#CREDIT:;
#BANNER:The Exciting Hyper Highspeed Star.png;
#BACKGROUND:The Exciting Hyper Highspeed Star-bg.png;
#LYRICSPATH:;
#CDTITLE:.\CDTITLES\DDRMAX6.PNG;
#MUSIC:The Exciting Hyper Highspeed Star.ogg;
#OFFSET:0.000;
#SAMPLESTART:4.860;
#SAMPLELENGTH:15.000;
#SELECTABLE:YES;
#DISPLAYBPM:180.000;
#BPMS:0.000=180.000,4.000=175.000,8.000=180.000,48.000=181.000,52.000=180.000,112.000=181.000,116.000=180.000,128.000=182.000,136.000=180.000,232.000=183.000,236.000=180.000,252.000=181.000,256.000=180.000,296.000=181.000,304.000=180.000;
#STOPS:;
#BGCHANGES:;
#KEYSOUNDS:;

//---------------dance-single - ----------------
#NOTES:
     dance-single:
     :
     Hard:
     9:
     0.778,0.583,0.626,0.000,0.037,516.000,67.000,0.000,0.000,0.000,0.000,0.778,0.583,0.626,0.000,0.037,516.000,67.000,0.000,0.000,0.000,0.000:
0000
0000
0000
0000
,
0000
0000
0000
0000
,
0000
0000
0000
0000
,
0000
0000
0000
0000
0000
0001
0100
0010
,
1000
0000
0000
0000
0100
0000
0000
0010
0000
0000
0100
0000
1000
0000
0100
0000
,
1000
0010
0100
0010
0100
0001
0010
0001
,
0010
0100
0010
0100
0010
1000
0100
1000
,
0100
0010
0001
0010
0001
0100
0010
0100
,
1000
0000
0000
0000
0100
0000
0000
0010
0000
0000
0100
0000
0010
0000
0100
0000
,
0010
0001
0010
0001
0100
0010
0100
0010
,
1000
0100
1000
0100
0010
0100
0010
0100
,
0001
0010
0001
0010
1100
0000
0110
0000
,
0011
0000
0000
0000
0010
0000
0000
0100
0000
0000
0010
0000
0100
0000
0010
0000
,
0100
1000
0100
1000
0100
0010
0100
0010
,
0001
0010
0001
0010
0100
0010
0100
0010
,
0100
1000
0100
1000
0100
0010
0100
0010
,
0001
0000
0000
0000
0010
0000
0000
0100
0000
0000
0010
0000
1000
0000
0010
0000
,
1000
0100
1000
0100
0010
0100
0010
0100
,
0001
0010
0001
0010
0100
0010
0100
0010
,
1000
0100
1000
0100
0011
0000
0110
0000
,
1000
0100
0010
0100
1000
0100
0010
0100
,
1000
0100
0010
0100
1000
0100
0010
0100
,
0001
0010
0100
0010
0001
0010
0100
0010
,
0001
0010
0100
0010
0001
0010
0100
0010
,
1000
0100
0010
0100
1000
0100
0010
0100
,
1000
0100
0010
0100
1000
0100
0010
0100
,
0001
0010
0100
0010
0001
0010
0100
0010
,
0001
0010
0100
0010
0001
0010
0100
1000
,
0001
0010
0100
0010
0001
0010
0100
0010
,
0001
0010
0100
0010
0001
0010
0100
1000
,
0010
0100
1000
0100
0010
0100
1000
0100
,
0010
0100
1000
0100
0010
0100
1000
0010
,
0001
0010
0100
0010
0001
0010
0100
0010
,
0001
0010
0100
0010
0001
0010
0100
0010
,
1000
0100
0010
0100
1000
0100
0010
0100
,
1000
0100
0010
0100
1000
0100
0010
0001
,
1000
0001
1001
0000
0010
0100
0110
0000
,
0010
0010
0011
0000
0100
0100
1100
0000
,
0010
0100
0110
0000
0001
1000
1001
0000
,
0010
0100
0011
0000
0010
0100
1001
0000
,
0010
0100
1100
0000
0010
0100
0110
0000
,
0001
0010
0011
0000
0100
0010
0110
0000
,
1000
0100
0001
0100
1000
0100
0001
0100
,
1000
0100
0001
0100
1000
0100
0010
0100
,
1000
0010
0001
0010
1000
0010
0001
0010
,
1000
0010
0001
0010
1000
0010
0100
0010
,
0100
0110
0000
0011
0000
1100
0000
0010
,
0100
0110
0000
1100
0000
0110
0000
0010
,
0001
0011
0000
0110
0000
1100
0000
0010
,
0100
0110
0000
1010
0000
0110
0000
0010
,
0001
0011
0000
0110
0000
1100
0000
0010
,
0100
0110
0000
1010
0000
0110
0000
0001
,
0100
0110
0000
1001
0000
0110
0000
0010
,
1000
0100
0001
0100
1000
0100
0001
0100
,
1000
1010
0000
0110
0000
0011
0000
0010
,
0100
1100
0000
0110
0000
0011
0000
0010
,
0100
0110
0000
1010
0000
0011
0000
0010
,
0100
1100
0000
0110
0000
0011
0000
0010
,
0100
0110
0000
1010
0000
0011
0000
0010
,
0100
1100
0000
0110
0000
0011
0000
0010
,
0100
0110
0000
1010
0000
0011
0000
0100
,
0010
0110
0000
1001
0000
0010
0100
0010
,
0100
0000
0000
0000
0010
0000
0000
1000
0000
0000
0100
0000
1000
0000
0100
0000
,
1000
0100
1000
0100
0010
0100
0010
0100
,
0001
0010
0001
0010
0100
0010
0100
0010
,
1000
0100
1000
0100
0010
0001
1000
0010
,
0100
0000
0000
0000
0010
0000
0000
1000
0000
0000
0001
0000
0010
0000
0001
0000
,
0010
0100
0010
0100
1000
0100
1000
0100
,
0010
0100
0010
0100
0001
0010
0001
0010
,
0100
0010
0100
0010
1010
0000
0011
0000
,
0011
0000
0000
0000
0100
0000
0000
0010
0000
0000
0100
0000
1000
0000
0100
0000
,
1000
0010
1000
0010
0100
0010
0100
0010
,
0001
0100
0001
0100
0010
0100
0010
0100
,
1000
0100
1000
0100
0010
0001
1000
0010
,
0100
0000
0000
0000
0010
0000
0000
0100
0000
0000
0010
0000
1000
0000
0010
0000
,
0100
0010
0100
0010
0001
0010
0001
0010
,
0100
0010
0100
0010
1000
0010
1000
0010
,
0100
0010
0100
0010
1010
0000
0011
0000
,
1001
0000
0000
0000
;

//---------------dance-single - ----------------
#NOTES:
     dance-single:
     :
     Medium:
     8:
     0.548,0.510,0.234,0.075,0.000,378.000,25.000,8.000,0.000,0.000,0.000,0.548,0.510,0.234,0.075,0.000,378.000,25.000,8.000,0.000,0.000,0.000:
0000
0000
0000
0000
,
0000
0000
0000
0000
,
0000
0000
0000
0000
,
0000
0000
0000
0010
,
0100
0000
0100
0000
0100
0000
0010
0001
,
0100
0010
0100
0010
0100
0010
0100
0010
,
1000
0100
1000
0100
1000
0100
1000
0100
,
0010
0001
0100
1000
,
0010
0000
0010
0000
0010
0000
0010
0100
,
1000
0100
1000
0100
1000
0100
0010
0001
,
0010
0100
0010
0100
0010
0100
0010
0000
,
0001
0010
1100
0110
,
0001
0000
0010
0000
0100
0000
1000
0010
,
1000
0010
1000
0010
1000
0010
0100
0001
,
0010
0100
0010
0100
0010
0100
1000
0100
,
0001
0100
0010
1000
,
0100
0000
0010
0000
1000
0000
0100
0010
,
0100
0010
0100
0010
0001
0010
0100
0010
,
1000
0100
1000
0100
1000
0100
0010
0000
,
0001
0100
1010
0011
,
0200
0001
0301
0011
,
0200
1000
1300
1010
,
0002
0100
0103
0110
,
2000
0001
3001
1001
,
0200
0010
0310
0011
,
0020
1000
1030
1100
,
0002
0100
0103
0110
,
2000
0001
3001
1001
,
0001
0010
0100
0010
,
0001
0010
0100
0010
,
0001
0010
0100
0010
,
0001
0010
0100
0010
,
0100
1000
0100
0010
,
0100
1000
0100
0010
,
0100
1000
0100
0010
,
0100
1000
0100
0010
,
0010
0001
0010
0001
,
0010
0001
0010
0010
,
0100
1000
0100
1000
,
0100
1000
0100
0100
,
0010
0100
0010
0100
,
0010
0100
0010
0010
,
1001
0010
0100
0010
,
0100
0010
0110
0100
,
1100
0100
0010
0100
,
0010
0100
0110
0010
,
0011
0010
0000
0100
0000
1000
0000
1000
,
0100
0110
0000
0010
0000
0010
0000
0001
,
0010
0011
0000
0100
0000
0100
0000
0100
,
0010
0110
0000
0100
0000
0100
0000
1000
,
0001
1000
0000
0010
0000
0100
0000
0010
,
0100
0010
0000
1000
0000
0100
0000
0010
,
0001
0010
0000
0100
0000
1000
0000
0010
,
0100
0010
0000
1000
0000
0100
0000
0010
,
0001
0010
0000
0100
0000
1000
0000
0010
,
1000
0010
0000
0100
0000
0010
0000
0100
,
0001
1000
0000
0010
0000
0100
0000
1000
,
0010
1000
0000
0010
0000
0100
0000
0001
,
0100
0010
0000
0100
0000
1000
0000
0010
,
0100
0010
0000
1000
0000
0100
0000
0010
,
0001
0010
0000
0100
0000
1000
0000
0010
,
0100
0010
0100
0010
0000
0100
0001
1000
,
0010
0000
0010
0000
0010
0000
0010
0100
,
0010
0100
0010
0100
1000
0100
1000
0100
,
0010
0001
0010
0001
0010
0100
0010
0100
,
0010
0100
1000
0100
,
0001
0000
1000
0000
0010
0000
1000
0100
,
1000
0100
1000
0100
0010
0100
0010
0100
,
0001
0100
0010
0100
,
1000
1000
0011
0110
,
0001
0000
0010
0000
0100
0000
1000
0100
,
1000
0100
1000
0100
0010
0100
0010
0100
,
0001
0010
0100
1000
,
0010
0100
0010
1000
,
0100
0000
0010
0000
0100
0000
0001
0100
,
0001
0100
0001
0100
0010
0100
0010
0100
,
1000
0100
1000
0100
0010
0100
0010
1000
,
0001
0010
1100
0110
,
1001
0000
0000
0000
;

//---------------dance-single - ----------------
#NOTES:
     dance-single:
     :
     Easy:
     5:
     0.371,0.364,0.383,0.000,0.000,237.000,41.000,0.000,0.000,0.000,0.000,0.371,0.364,0.383,0.000,0.000,237.000,41.000,0.000,0.000,0.000,0.000:
0000
0000
0000
0000
,
0000
0000
0000
0000
,
0000
0000
0000
0000
,
0000
0000
0000
0010
,
0100
0000
0100
0000
0100
0000
0100
0001
,
1000
1000
0100
0100
,
0010
0010
0001
0001
,
0100
0100
0010
0010
,
0100
0000
0100
0000
0100
0000
0010
0100
,
1000
1000
0100
0100
,
0010
0010
0001
0001
,
0100
0100
1010
0011
,
1000
0000
1000
0000
1000
0000
0100
0001
,
0010
0010
0100
0100
,
1000
1000
0100
0100
,
0010
0010
0001
0001
,
0100
0000
0100
0000
0100
0000
0010
1000
,
0001
0001
0100
0100
,
0010
0010
0100
0100
,
1000
1000
1010
0011
,
0100
1100
0000
0000
,
0010
0110
0000
0000
,
1000
1100
0000
0000
,
0010
0011
0000
0000
,
0100
0110
0000
0000
,
1000
1010
0000
0000
,
0010
0011
0000
0000
,
0100
0110
0000
0000
,
1000
1100
0000
0000
,
0010
0110
0000
0000
,
0001
0011
0000
0000
,
0010
0110
0000
0000
,
1000
1100
0000
0000
,
0010
0110
0000
0000
,
0001
0011
0000
0000
,
0010
0110
0000
0000
,
1000
1100
0000
0000
,
0010
0110
0000
0000
,
0001
0011
0000
0000
,
0010
0110
0000
0000
,
1000
1100
0000
0000
,
0001
0011
0000
0000
,
0010
0000
0010
0000
,
0001
0000
0001
0000
,
0100
0000
0100
0000
,
0010
0000
0010
0000
,
0100
0010
0100
0010
,
0100
0010
0110
0000
,
0001
0010
0001
0010
,
0001
0010
0011
0000
,
0100
1000
0100
1000
,
0100
1000
1100
0000
,
0110
0000
0000
0000
,
1001
0000
0000
0000
,
0010
0001
0010
0001
,
0010
0001
0011
0000
,
0100
1000
0100
1000
,
0100
1000
1100
0000
,
0010
0100
0010
0100
,
0010
0100
0110
0000
,
0011
0000
0000
0000
,
1001
0000
0000
0100
,
0001
0000
0001
0000
0001
0000
0010
0100
,
1000
1000
0100
0100
,
0010
0010
0001
0001
,
0100
0100
0010
0010
,
1000
0000
1000
0000
1000
0000
0010
0100
,
0001
0001
1000
1000
,
0100
0100
0010
0010
,
0001
0001
0011
1100
,
0010
0000
0010
0000
0010
0000
0100
1000
,
0001
0001
0100
0100
,
0010
0010
1000
1000
,
0100
0100
0010
0010
,
1000
0000
1000
0000
1000
0000
0001
0010
,
0001
0001
0100
0100
,
1000
1000
0010
0010
,
0100
0100
1100
0110
,
0011
0000
0000
0000
;

//---------------dance-single - ----------------
#NOTES:
     dance-single:
     :
     Beginner:
     2:
     0.176,0.182,0.093,0.000,0.000,122.000,10.000,0.000,0.000,0.000,0.000,0.176,0.182,0.093,0.000,0.000,122.000,10.000,0.000,0.000,0.000,0.000: // measure 1
0000
0000
0000
0000
,  // measure 2
0000
0000
0000
0000
,  // measure 3
0000
0000
0000
0000
,  // measure 4
0000
0000
0000
0010
,  // measure 5
0010
0000
0000
0001
,  // measure 6
0001
0000
0000
1000
,  // measure 7
1000
0000
0000
0010
,  // measure 8
0010
0000
0000
0000
,  // measure 9
0100
0000
0000
0010
,  // measure 10
0010
0000
0000
0001
,  // measure 11
0001
0000
0000
1000
,  // measure 12
1000
0000
0010
0010
,  // measure 13
0010
0000
0000
0100
,  // measure 14
0100
0000
0000
0010
,  // measure 15
0010
0000
0000
0001
,  // measure 16
0001
0000
0000
0000
,  // measure 17
1000
0000
0000
0100
,  // measure 18
0100
0000
0000
0010
,  // measure 19
0010
0000
0000
0100
,  // measure 20
0100
0000
0010
0010
,  // measure 21
0010
0000
0000
0000
,  // measure 22
0100
0000
0000
0000
,  // measure 23
1000
0000
0000
0000
,  // measure 24
0100
0000
0000
0000
,  // measure 25
0010
0000
0000
0000
,  // measure 26
0001
0000
0000
0000
,  // measure 27
0100
0000
0000
0000
,  // measure 28
0010
0000
0000
0000
,  // measure 29
1001
0000
0000
0000
,  // measure 30
0110
0000
0000
0000
,  // measure 31
1001
0000
0000
0000
,  // measure 32
0110
0000
0000
0000
,  // measure 33
1001
0000
0000
0000
,  // measure 34
1000
0000
0000
0000
,  // measure 35
0110
0000
0000
0000
,  // measure 36
0001
0000
0000
0000
,  // measure 37
1000
0000
0000
0000
,  // measure 38
1001
0000
0000
0000
,  // measure 39
0010
0000
0000
0000
,  // measure 40
0110
0000
0000
0000
,  // measure 41
1001
0000
0000
0000
,  // measure 42
0110
0000
0000
0000
,  // measure 43
0100
0000
0000
0000
,  // measure 44
0000
0000
0000
0000
,  // measure 45
0001
0000
0000
0000
,  // measure 46
0000
0000
0000
0000
,  // measure 47
1000
1000
0000
0000
,  // measure 48
0010
0010
0000
0000
,  // measure 49
0001
0001
0000
0000
,  // measure 50
0100
0100
0000
0000
,  // measure 51
0010
0010
0000
0000
,  // measure 52
0100
0100
0000
0000
,  // measure 53
1000
1000
0000
0000
,  // measure 54
0010
0010
0000
0000
,  // measure 55
0100
0100
0000
0000
,  // measure 56
0001
0001
0000
0000
,  // measure 57
0010
0010
0000
0000
,  // measure 58
0100
0100
0000
0000
,  // measure 59
1000
1000
0000
0000
,  // measure 60
0010
0010
0000
0000
,  // measure 61
0100
0100
0000
0000
,  // measure 62
0001
0000
0000
0010
,  // measure 63
0010
0000
0000
0100
,  // measure 64
0100
0000
0000
1000
,  // measure 65
1000
0000
0000
0010
,  // measure 66
0010
0000
0000
0000
,  // measure 67
0100
0000
0000
0001
,  // measure 68
0001
0000
0000
1000
,  // measure 69
1000
0000
0000
0010
,  // measure 70
0010
0000
0100
0100
,  // measure 71
0100
0000
0000
0010
,  // measure 72
0010
0000
0000
0001
,  // measure 73
0001
0000
0000
1000
,  // measure 74
1000
0000
0000
0000
,  // measure 75
0010
0000
0000
0100
,  // measure 76
0100
0000
0000
0010
,  // measure 77
0010
0000
0000
0100
,  // measure 78
0100
0000
0010
0010
,  // measure 79
0010
0000
0000
0000
;
