#TITLE:The Device Has Been Modified;
#SUBTITLE:;
#ARTIST:DJ Victims of Science;
#TITLETRANSLIT:;
#SUBTITLETRANSLIT:;
#ARTISTTRANSLIT:;
#GENRE:;
#CREDIT:;
#BANNER:The Device Has Been Modified.png;
#BACKGROUND:The Device Has Been Modified-bg.png;
#LYRICSPATH:;
#CDTITLE:.\CDTITLES\DDRMAX6.PNG;
#MUSIC:The Device Has Been Modified.ogg;
#OFFSET:0.880;
#SAMPLESTART:54.480;
#SAMPLELENGTH:15.000;
#SELECTABLE:YES;
#DISPLAYBPM:129.000;
#BPMS:0.000=130.000;
#STOPS:;
#BGCHANGES:;
#KEYSOUNDS:;

//---------------dance-single - ----------------
#NOTES:
     dance-single:
     :
     Hard:
     9:
     0.580,0.659,0.965,0.000,0.316,260.000,81.000,0.000,0.000,0.000,0.000,0.580,0.659,0.965,0.000,0.316,260.000,81.000,0.000,0.000,0.000,0.000:
0000
0000
0000
0000
,
0000
0000
0000
0000
,
0000
0000
0000
0000
,
0000
0000
0000
0000
,
0000
0000
0000
0000
,
0000
0000
0000
0000
,
0000
0000
0000
0000
,
0000
0000
0000
0000
,
0000
0000
0000
0000
,
0010
0100
0010
0000
0000
0000
1000
0001
1000
0000
0000
0000
0000
0000
0000
0000
,
0000
0010
0011
0100
1100
0110
1001
0110
,
1000
0001
1000
0000
0000
0000
0010
0100
0010
0000
0000
0000
0000
0000
0000
0000
,
0000
0010
0110
0001
0011
0110
1010
1001
,
0100
0010
0100
0000
0000
0000
0001
1000
0001
0000
0000
0000
0000
0000
0000
0000
,
0000
0010
0110
0001
0011
1010
0110
1001
,
0100
0001
0100
0000
0000
0000
0010
1000
0010
0000
0000
0000
0000
0000
0000
0000
,
0000
0010
1010
0100
0101
1001
0110
0011
,
0100
0100
0011
0011
0100
1010
0001
0011
,
0100
1000
1100
0000
0000
0000
0010
0001
0011
0000
0000
0000
0000
0000
0000
0000
,
0000
0010
0110
1000
1001
0101
0011
1001
,
0010
1000
1010
0000
0000
0000
0100
0010
0110
0000
0000
0000
0000
0000
0000
0000
,
0000
0001
1001
0010
0110
1010
0110
0011
,
0100
1000
1100
0000
0000
0000
0010
0001
0011
0000
0000
0000
0000
0000
0000
0000
,
0000
0010
0110
1000
1001
0010
0011
1100
,
0010
1000
1010
0000
0000
0000
0100
0001
0101
0000
0000
0000
0000
0000
0000
0000
,
0000
0010
0100
0010
0000
0000
1000
0000
0001
0100
0000
0010
1000
0000
0000
0000
,
0010
0100
0110
0000
0000
0000
1000
0001
1001
0000
0000
0000
0000
0000
0000
0000
,
0000
0001
0101
0001
0011
1000
1100
0110
,
0010
0001
0011
0000
0000
0000
0100
1000
1100
0000
0000
0000
0000
0000
0000
0000
,
0000
0010
0011
0100
0110
1000
1010
1001
,
1000
0100
1001
0000
0000
0000
0010
0100
1001
0000
0000
0000
0000
0000
0000
0000
,
0000
1000
1001
0001
0101
0001
0011
0101
,
0100
0010
1001
0000
0000
0000
0010
0100
1001
0000
0000
0000
0000
0000
0000
0000
,
0000
1000
1100
0010
0110
0001
0011
0101
,
1000
0000
0010
1000
0001
0000
0101
0000
0010
0000
1000
0010
1000
0000
0100
0000
,
0010
0000
0001
0010
0001
0000
0100
0000
0010
0000
1000
0001
1000
0000
0010
0000
,
0100
0000
0001
0100
0001
0000
0100
0000
0010
0000
1000
0010
1000
0000
0100
0000
,
0011
0000
0100
0010
0100
0000
1000
0000
0001
0000
0100
0010
0100
0000
1000
0000
,
1010
0000
0100
0010
0001
0000
0010
0000
0110
0000
1000
0001
0010
0000
0100
0000
,
1010
0000
0100
0010
0001
0000
0100
0000
1010
0000
0010
1000
0001
0000
0100
0000
,
1001
0000
0001
0010
0001
0000
0100
0000
1010
0000
0100
0010
0100
0000
0001
0000
,
1100
0000
0010
0001
0100
0000
0010
0000
1001
0000
0010
1000
0001
1000
0010
0000
,
1001
0000
0000
0000
0000
0000
0000
0000
0000
0000
0000
0000
0000
0000
0000
0000
0000
0000
0000
0000
0000
0000
0000
0000
0000
0000
0000
0000
0010
0000
0000
0000
0000
0100
0000
0000
0000
0000
0000
0010
0000
0000
0001
0000
0000
0000
0000
0000
,
1000
0000
0000
0000
0000
0000
0000
0000
0010
0000
0000
0000
0000
0000
0000
0001
0000
0000
0000
0000
0010
0000
0000
0000
0100
0000
0000
0000
1000
0000
0000
0000
0000
0000
0000
0000
0100
0000
0000
0000
0000
0000
0000
0000
0000
0000
0000
0000
,
0000
0010
0000
0100
0000
0000
0000
0000
0000
0000
0000
0000
;

//---------------dance-single - ----------------
#NOTES:
     dance-single:
     :
     Easy:
     4:
     0.213,0.211,0.298,0.000,0.000,100.000,25.000,0.000,0.000,0.000,0.000,0.213,0.211,0.298,0.000,0.000,100.000,25.000,0.000,0.000,0.000,0.000: // measure 1
0000
0000
0000
0000
,  // measure 2
0000
0000
0000
0000
,  // measure 3
0000
0000
0000
0000
,  // measure 4
0000
0000
0000
0000
,  // measure 5
0000
0000
0000
0000
,  // measure 6
0000
0000
0000
0000
,  // measure 7
0000
0000
0000
0000
,  // measure 8
0000
0000
0000
0000
,  // measure 9
0000
0000
0000
0000
,  // measure 10
1000
0000
1001
0000
,  // measure 11
0000
0001
0100
0010
,  // measure 12
1000
0000
1001
0000
,  // measure 13
0000
0001
0100
0010
,  // measure 14
1000
0000
1010
0000
,  // measure 15
0000
0100
0010
0001
,  // measure 16
1000
0000
0011
0000
,  // measure 17
0000
0010
1000
0001
,  // measure 18
1000
1000
1000
1000
,  // measure 19
1001
0000
0101
0000
,  // measure 20
0000
0010
1000
0010
,  // measure 21
0011
0000
1100
0000
,  // measure 22
0000
0010
0100
0010
,  // measure 23
0110
0000
0011
0000
,  // measure 24
0000
0010
1000
0010
,  // measure 25
1010
0000
0110
0000
,  // measure 26
0000
0001
0000
1000
,  // measure 27
1001
0000
0011
0000
,  // measure 28
0000
0001
0100
0010
,  // measure 29
1010
0000
0110
0000
,  // measure 30
0000
0001
0010
1000
,  // measure 31
1001
0000
0110
0000
,  // measure 32
0000
0010
1000
0001
,  // measure 33
0011
0000
1100
0000
,  // measure 34
0000
0010
1000
0001
,  // measure 35
1000
0010
0100
0010
,  // measure 36
0010
0001
0100
1000
,  // measure 37
1000
0010
0100
0001
,  // measure 38
0001
0010
0100
1000
,  // measure 39
1000
0010
0010
0001
,  // measure 40
0001
0100
1000
0010
,  // measure 41
0010
1000
0001
1000
,  // measure 42
1000
0010
0100
0001
,  // measure 43
1001
0000
0011
0000
,  // measure 44
1100
0000
1001
0000
,  // measure 45
0000
1001
0000
0000
;

//---------------dance-single - ----------------
#NOTES:
     dance-single:
     :
     Medium:
     5:
     0.311,0.316,0.441,0.000,0.000,146.000,37.000,0.000,0.000,0.000,0.000,0.311,0.316,0.441,0.000,0.000,146.000,37.000,0.000,0.000,0.000,0.000:
0000
0000
0000
0000
,
0000
0000
0000
0000
,
0000
0000
0000
0000
,
0000
0000
0000
0000
,
0000
0000
0000
0000
,
0000
0000
0000
0000
,
0000
0000
0000
0000
,
0000
0000
0000
0000
,
0000
0000
0000
0000
,
1000
0000
0011
0000
,
0000
0001
0010
0001
0100
0001
0100
0001
,
0100
0000
1010
0000
,
0000
1000
0100
1000
0100
0001
0010
1000
,
0001
0000
0011
0000
,
0000
1000
0100
1000
0100
0001
0010
1000
,
0001
0000
0101
0000
,
0000
1000
0010
0100
1000
0100
0010
0100
,
1000
1000
1000
1000
,
0100
0000
0011
0000
,
0000
0100
0001
0010
0001
0100
1000
0001
,
0100
0000
1001
0000
,
0000
0010
1000
0100
0010
0001
0100
0001
,
1000
0000
1001
0000
,
0000
1000
0010
1000
0100
0010
0001
0010
,
0001
0000
1010
0000
,
1100
0011
0101
1001
,
0010
0000
1001
0000
,
0000
0100
0010
0001
0100
0001
0010
1000
,
0001
0000
1001
0000
,
0000
0010
0100
1000
0001
0010
1000
0010
,
0100
0000
0011
0000
,
0000
0010
0100
0001
0010
0100
1000
0001
,
1000
0000
1010
0000
,
0000
0010
0100
1000
0010
1000
0010
1000
,
0010
1100
0010
0011
,
1000
1100
0001
0011
,
1000
1100
0010
0011
,
0100
1100
0001
0011
,
1000
1100
0010
0011
,
1000
1100
0010
0011
,
0100
1100
0010
0011
,
1000
1100
0001
0011
,
1001
0000
0000
0110
,
0000
1001
0000
0011
,
0000
1001
0000
0000
;

//---------------dance-single - ----------------
#NOTES:
     dance-single:
     :
     Beginner:
     1:
     0.077,0.079,0.000,0.000,0.000,45.000,0.000,0.000,0.000,0.000,0.000,0.077,0.079,0.000,0.000,0.000,45.000,0.000,0.000,0.000,0.000,0.000:
0000
0000
0000
0000
,
0000
0000
0000
0000
,
0000
0000
0000
0000
,
0000
0000
0000
0000
,
0000
0000
0000
0000
,
0000
0000
0000
0000
,
0000
0000
0000
0000
,
0000
0000
0000
0000
,
0000
0000
0000
0000
,
1000
0000
0000
0000
,
0000
0100
0000
0010
,
0010
0000
0000
0000
,
0000
0010
0000
0100
,
0100
0000
0000
0000
,
0000
0010
0000
0100
,
0100
0000
0000
0000
,
0000
0001
0000
1000
,
1000
0000
0000
0000
,
0010
0000
0000
0000
,
0000
0100
0000
0010
,
0010
0000
0000
0000
,
0000
0001
0000
1000
,
1000
0000
0000
0000
,
0000
0010
0000
0100
,
0100
0000
0000
0000
,
0000
0000
0000
0000
,
0001
0000
0000
0000
,
0000
0010
0000
0100
,
0100
0000
0000
0000
,
0000
1000
0000
0010
,
0010
0000
0000
0000
,
0000
0100
0000
0001
,
0001
0000
0000
0000
,
0000
0010
0000
0100
,
0100
0000
0000
0000
,
0010
0000
0000
0000
,
0001
0000
0000
0000
,
0010
0000
0000
0000
,
0100
0000
0000
0000
,
1000
0000
0000
0000
,
0010
0000
0000
0000
,
0100
0000
0000
0000
,
0001
0000
0000
0000
,
0000
0000
0000
0000
,
0000
1000
0000
0000
;
