#TITLE:Tarzan Boy;
#SUBTITLE:;
#ARTIST:DJ Ivan B.;
#TITLETRANSLIT:;
#SUBTITLETRANSLIT:;
#ARTISTTRANSLIT:;
#GENRE:;
#CREDIT:;
#BANNER:Tarzan Boy.png;
#BACKGROUND:Tarzan Boy-bg.png;
#LYRICSPATH:;
#CDTITLE:.\CDTITLES\DDRMAX6.PNG;
#MUSIC:Tarzan Boy.ogg;
#OFFSET:-0.020;
#SAMPLESTART:65.040;
#SAMPLELENGTH:15.000;
#SELECTABLE:YES;
#DISPLAYBPM:132.000;
#BPMS:0.000=132.000,168.000=131.000,172.000=130.000,176.000=132.000;
#STOPS:;
#BGCHANGES:;
#KEYSOUNDS:;

//---------------dance-single - ----------------
#NOTES:
     dance-single:
     :
     Easy:
     4:
     0.236,0.294,0.185,0.000,0.000,143.000,18.000,0.000,0.000,0.000,0.000,0.236,0.294,0.185,0.000,0.000,143.000,18.000,0.000,0.000,0.000,0.000:
0000
0000
0000
0000
,
0000
0000
0000
0000
,
0000
0000
0000
0000
,
0000
0000
0000
0000
,
0000
0000
0000
0000
,
0000
0000
0000
0000
,
0000
0000
0000
0000
,
0000
0000
0000
0000
,
0010
1000
0100
1000
,
1001
0000
0000
0000
,
0010
1000
0010
0100
,
0110
0000
0000
0000
,
1000
1000
0010
0010
,
0100
0100
0001
0001
,
1000
1000
0010
0010
,
0100
0100
0010
0010
,
1000
1000
0100
0100
,
0010
0010
0001
0001
,
1000
1000
0010
0010
,
0100
0100
0100
0100
,
0010
0001
0010
0001
,
0010
0001
0010
0001
,
1000
0100
1000
0100
,
1000
0100
1000
0100
,
1000
0010
1000
0010
,
1000
0010
1000
0010
,
0100
0001
0100
0001
,
0100
0001
0100
0001
,
0100
0010
0110
0000
,
0001
1000
0001
1000
,
0001
0100
0101
0000
,
0010
1000
0010
1000
,
0010
0100
0110
0000
,
1000
0100
1000
0100
,
0110
0010
1001
0010
,
1001
0010
0110
0000
,
1000
0100
0010
0001
,
1001
0000
0000
0000
,
0001
0010
0100
1000
,
1001
0000
0000
0000
,
1000
0010
0100
0001
,
1001
0000
0000
0000
,
0010
1000
0100
0010
,
0011
0000
0000
0000
,
0010
0100
1000
0010
,
0011
0000
0000
0000
,
0010
1000
0100
0010
,
0110
0000
0000
0000
,
0001
1000
0010
1000
,
1001
0000
0000
0000
,
0010
1000
0100
0010
,
0110
0000
0000
0000
,
1001
0000
0000
0000
;

//---------------dance-single - ----------------
#NOTES:
     dance-single:
     :
     Medium:
     6:
     0.344,0.401,0.514,0.031,0.000,181.000,50.000,3.000,0.000,0.000,0.000,0.344,0.401,0.514,0.031,0.000,181.000,50.000,3.000,0.000,0.000,0.000:
0000
0000
0000
0000
,
0000
0000
0000
0000
,
0000
0000
0000
0000
,
0000
0000
0000
0000
,
0000
0000
0000
0000
,
0000
0000
0000
0000
,
0000
0000
0000
0000
,
0000
0000
0000
0000
,
1100
1000
1100
0100
,
0110
0110
0000
0010
,
0011
0001
0011
0010
,
0110
0000
0110
0000
0000
0000
0010
0001
,
1000
1000
0100
0100
,
0010
0000
0010
0000
1000
0000
0001
0010
,
0100
0100
1000
1000
,
0010
0000
0010
0000
0100
0000
0001
1000
,
0001
0010
0100
1000
,
0100
0010
0100
0100
,
0001
0001
1000
0010
,
1001
0010
1001
0100
,
0100
0010
0100
0010
0100
0010
0100
0000
,
0001
0010
0001
0010
0001
0010
0001
0000
,
0100
1000
0100
1000
0100
1000
0100
0000
,
0010
0100
0010
0100
0010
0100
0010
0010
,
0001
0001
0001
0001
,
0100
0100
0100
0100
,
1000
1000
1000
1000
,
0010
1000
0100
0000
,
0011
0011
0010
0010
,
1000
0100
1000
0100
,
1100
1100
0100
0100
,
0010
0100
0010
0100
,
0110
0110
0010
0010
,
0001
0010
0001
0010
,
0002
1003
2000
3010
,
0200
0310
1001
0010
,
1100
0100
1100
1000
,
1100
1100
0000
0010
,
0011
0010
0011
0010
,
0011
0011
0000
0100
,
0110
0100
0110
0100
,
0110
0110
0000
0001
,
1001
1000
1001
0001
,
0101
0101
0000
0100
,
0110
0100
0110
0010
,
0110
0110
0000
1000
,
1010
0010
1010
1000
,
1010
1010
0000
0100
,
0110
0010
0110
0010
,
0110
0110
0000
0001
,
1001
1000
1001
0001
,
0101
0101
0000
0000
,
1001
0000
0000
0000
;

//---------------dance-single - ----------------
#NOTES:
     dance-single:
     :
     Hard:
     8:
     0.451,0.428,0.000,0.113,0.262,296.000,0.000,11.000,0.000,0.000,0.000,0.451,0.428,0.000,0.113,0.262,296.000,0.000,11.000,0.000,0.000,0.000:
0000
0000
0000
0000
,
0000
0000
0000
0000
,
0000
0000
0000
0000
,
0000
0000
0000
0000
,
0000
0000
0000
0000
,
0000
0000
0000
0000
,
0000
0000
0000
0000
,
0000
0000
0000
0000
,
1000
0000
0010
1000
0000
1000
0010
0000
0100
0000
0100
0000
0000
0000
0100
0000
,
0010
0000
0000
1000
0000
0000
0001
0000
0000
0000
0000
0000
1000
0000
0010
0000
,
0100
0000
0010
0100
0000
0100
0010
0000
1000
0000
0100
0000
0000
0000
0001
0000
,
0001
0000
0000
0100
0000
0000
1000
0000
0000
0000
0000
0000
0100
0000
1000
0000
,
0001
0000
0000
0000
0000
0000
1000
0000
0100
0010
0000
0100
0000
0010
0100
0000
,
0000
0010
0100
0001
0000
0000
0010
1000
,
0001
0000
0000
0000
0000
0000
0010
0000
0100
0000
0000
0010
0000
0000
0010
0000
,
0000
1000
0100
1000
0000
0000
0001
1000
,
0100
0000
0000
0000
0000
0000
0100
0000
1000
0100
0000
0010
0000
0100
0001
0000
,
0100
0000
0010
0000
0100
0000
1000
0000
0010
0000
0100
0000
0001
1000
0000
0010
,
0000
1000
0000
0000
0000
0000
0010
0100
0010
0100
0000
1000
0000
0010
1000
0000
,
0002
2003
3002
2003
,
3010
0000
0001
0000
0010
0000
1000
0000
0010
0000
0001
0000
0010
0000
0000
0100
,
1000
0100
0001
0100
1000
0100
0001
0000
,
0100
0000
1000
0000
0100
0000
0010
0000
0100
0000
1000
0000
0100
0000
0000
0010
,
0001
0010
1000
0010
0001
0010
1000
0100
,
0010
1000
0010
0001
0010
1000
0010
0001
,
0100
0000
1000
0000
0100
0000
0001
0000
0100
0000
1000
0000
0100
0000
0000
0010
,
1000
0000
0010
0000
0001
0000
0010
0000
1000
0000
0010
0000
0001
0000
0010
0100
,
0010
0001
0010
0100
1000
0000
0000
0000
,
0100
0000
0010
0100
0000
0000
0010
0000
0001
0000
0010
0000
0001
0000
0000
0000
,
0100
0010
0100
0010
0100
1000
0100
1000
,
0100
0000
0010
0001
0000
0000
0010
0000
0100
0000
0010
0000
0100
0000
0000
0000
,
0001
1000
0001
1000
0001
1000
0010
1000
,
0100
0000
0010
0001
0000
0000
0001
0000
1000
0000
0001
0000
1000
0000
0000
0000
,
0001
1000
0100
1000
0100
0010
0100
0001
,
0200
0320
2030
3200
,
0320
0000
0032
0000
2003
0000
3010
0010
,
0100
0000
0010
0100
0000
0100
0010
0000
0100
0000
0010
0000
0000
0000
1000
0000
,
0001
0000
0000
0001
0000
0000
0100
0000
0000
0000
0000
0000
1000
0000
0100
0000
,
1000
0000
0010
1000
0000
1000
0010
0000
0100
0000
0100
0000
0000
0000
1000
0000
,
0010
0000
0000
1000
0000
0000
0001
0000
0000
0000
0000
0000
0010
0000
0010
0000
,
0100
0000
1000
0100
0000
0010
0100
0000
0001
0000
0100
0000
0000
0000
1000
0000
,
0100
0000
0000
0100
0000
0000
0010
0000
0000
0000
0000
0000
0010
0000
1000
0000
,
0001
0000
0100
0010
0000
0100
0010
0000
1000
0000
0001
0000
0000
0000
0010
0000
,
1000
0000
0000
1000
0000
0000
0001
0000
0000
0000
0000
0000
0010
0000
1000
0000
,
0001
0000
1000
0010
0000
1000
0001
0000
0100
0000
0010
0000
0000
0000
0100
0000
,
0010
0000
0000
0010
0000
0000
0010
0000
0000
0000
0000
0000
0100
0000
0010
0000
,
0100
0000
0001
1000
0000
0010
0100
0000
1000
0000
0010
0000
0000
0000
0001
0000
,
1000
0000
0000
1000
0000
0000
0001
0000
0000
0000
0000
0000
0100
0000
1000
0000
,
0001
0100
0000
1000
0010
0000
0100
0000
0001
0000
1000
0000
0000
0000
0100
0000
,
0010
0000
0000
0010
0000
0000
0010
0000
0000
0000
0000
0000
0100
0000
0010
0000
,
1000
0000
0001
1000
0000
1000
0001
0000
0100
0000
0100
0000
0000
0000
0010
0000
,
0010
0000
0000
0010
0000
0000
0100
0000
0000
0000
0000
0000
0010
0000
1000
0000
,
0001
0000
0000
0000
;

//---------------dance-single - ----------------
#NOTES:
     dance-single:
     :
     Beginner:
     1:
     0.100,0.107,0.000,0.000,0.000,68.000,0.000,0.000,0.000,0.000,0.000,0.100,0.107,0.000,0.000,0.000,68.000,0.000,0.000,0.000,0.000,0.000: // measure 1
0000
0000
0000
0000
,  // measure 2
0000
0000
0000
0000
,  // measure 3
0000
0000
0000
0000
,  // measure 4
0000
0000
0000
0000
,  // measure 5
0000
0000
0000
0000
,  // measure 6
0000
0000
0000
0000
,  // measure 7
0000
0000
0000
0000
,  // measure 8
0000
0000
0000
0000
,  // measure 9
1000
0000
1000
0000
,  // measure 10
0001
0000
0000
0000
,  // measure 11
0001
0000
0001
0000
,  // measure 12
1000
0000
0000
0000
,  // measure 13
1000
0000
1000
0000
,  // measure 14
0000
0000
0000
0000
,  // measure 15
1000
0000
1000
0000
,  // measure 16
1000
0000
0000
0000
,  // measure 17
0001
0000
0001
0000
,  // measure 18
0001
0000
0000
0000
,  // measure 19
0001
0000
0001
0000
,  // measure 20
0001
0000
0000
0000
,  // measure 21
1000
0000
1000
0000
,  // measure 22
0001
0000
0001
0000
,  // measure 23
1000
0000
1000
0000
,  // measure 24
0001
0000
0001
0000
,  // measure 25
1000
0000
1000
0000
,  // measure 26
0001
0000
0001
0000
,  // measure 27
1000
0000
1000
0000
,  // measure 28
0001
0000
0001
0000
,  // measure 29
1000
0000
0000
0000
,  // measure 30
1000
0000
0000
0000
,  // measure 31
0001
0000
0000
0000
,  // measure 32
0001
0000
0000
0000
,  // measure 33
1000
0000
0000
0000
,  // measure 34
1000
0000
0000
0000
,  // measure 35
0001
0000
0001
0000
,  // measure 36
1000
0000
1000
0000
,  // measure 37
0001
0000
0001
0000
,  // measure 38
1000
0000
0000
0000
,  // measure 39
1000
0000
1000
0000
,  // measure 40
0001
0000
0000
0000
,  // measure 41
0001
0000
0001
0000
,  // measure 42
1000
0000
0000
0000
,  // measure 43
1000
0000
1000
0000
,  // measure 44
0001
0000
0000
0000
,  // measure 45
0001
0000
0001
0000
,  // measure 46
1000
0000
0000
0000
,  // measure 47
1000
0000
1000
0000
,  // measure 48
0001
0000
0000
0000
,  // measure 49
0001
0000
0001
0000
,  // measure 50
1000
0000
0000
0000
,  // measure 51
1000
0000
1000
0000
,  // measure 52
0001
0000
0000
0000
,  // measure 53
0001
0000
0000
0000
;
