#TITLE:Sweat;
#SUBTITLE:;
#ARTIST:Melanie C;
#TITLETRANSLIT:;
#SUBTITLETRANSLIT:;
#ARTISTTRANSLIT:;
#GENRE:;
#CREDIT:;
#BANNER:Sweat.png;
#BACKGROUND:Sweat-bg.png;
#LYRICSPATH:;
#CDTITLE:./CDTITLES/25th Anniversary 2001.png;
#MUSIC:Sweat.ogg;
#OFFSET:0.060;
#SAMPLESTART:44.864;
#SAMPLELENGTH:15.000;
#SELECTABLE:YES;
#DISPLAYBPM:63.000:127.000;
#BPMS:0.000=128.000,96.000=128.280,128.000=128.000,208.000=128.160,224.000=128.000,240.000=63.300,244.000=63.750,248.000=63.980,252.000=63.590,256.000=130.000,268.000=128.000;
#STOPS:;
#BGCHANGES:;
#KEYSOUNDS:;

//---------------dance-single - ----------------
#NOTES:
     dance-single:
     :
     Easy:
     2:
     0.150,0.153,0.111,0.000,0.000,169.000,20.000,0.000,0.000,0.000,0.000,0.150,0.153,0.111,0.000,0.000,169.000,20.000,0.000,0.000,0.000,0.000:
0000
0000
0000
0000
,
0000
0000
0000
0000
,
0000
0000
0000
0000
,
0000
0000
0000
0000
,
0000
0000
0000
0000
,
0000
0000
0000
0000
,
0000
0000
0000
0000
,
0000
0000
0000
0000
,
0000
0010
0000
0010
,
0000
0001
0000
0001
,
0000
1000
0000
1000
,
0000
0010
0000
0010
,
0100
0000
0000
0000
,
0000
0010
0000
0001
,
1000
0000
0000
0000
,
0000
0100
0000
0010
,
0001
0000
0001
0000
,
1000
0000
1000
0000
,
0010
0000
0010
0000
,
0100
0000
0100
0000
,
0010
0000
0001
0000
,
0010
0000
0100
0000
,
1000
0000
1000
0000
,
0000
0010
0000
1000
,
0001
0000
0110
0000
,
1000
0000
0110
0000
,
0001
0000
0110
0000
,
0000
0010
0000
1000
,
0001
0000
1001
0000
,
0010
0000
0110
0000
,
1000
0000
1001
0000
,
0000
0010
0000
0001
,
0000
0100
0000
0100
,
0000
0010
0000
0010
,
0000
0001
0000
0001
,
0000
0010
0000
1000
,
0001
0010
0000
0010
,
0000
0100
0000
0100
,
0000
1000
0000
1000
,
0000
0010
0000
0100
,
0001
0010
0000
0010
,
0000
0100
0000
0100
,
0000
1000
0000
1000
,
0000
0010
0000
1000
,
0001
0000
0000
0000
,
0000
1000
0000
0010
,
0100
0000
0000
0000
,
0000
0010
0000
1000
,
0001
0000
0110
0000
,
0100
0000
1001
0000
,
0010
0000
0110
0000
,
0000
0010
0000
1000
,
0001
0000
0110
0000
,
1000
0000
1001
0000
,
0010
0000
0110
0000
,
0000
1000
0000
0010
,
0100
0000
0000
0000
,
1001
0000
0000
0000
,
0100
0000
0000
0000
,
1001
0000
0010
0010
,
0010
0000
0010
0100
,
0010
0010
0001
0000
,
0010
0000
0100
0100
,
0010
0010
1000
0000
,
0100
0000
0000
0100
,
0001
0000
0010
0000
,
0100
0000
0010
0000
,
0100
0000
0010
0100
,
0100
0000
0000
0100
,
0010
0000
0001
0000
,
0100
0000
0010
0000
,
0100
0000
0010
0000
,
0100
0000
0100
0000
,
0010
0000
0010
0000
,
0001
0000
1000
0000
,
0000
0010
0000
0100
,
0001
0000
0110
0000
,
1000
0000
0110
0000
,
0001
0000
1001
0000
,
0000
0010
0000
0010
,
0001
0000
1001
0000
,
0010
0000
0110
0000
,
1000
0000
1001
0000
,
0000
0010
0000
0100
,
0010
0000
0000
0001
,
0010
0000
0010
0000
,
0100
0000
0100
0000
,
0010
0000
0000
0000
,
1000
0000
0000
0100
,
0010
0000
0010
0000
,
0100
0000
0100
0000
,
0000
0010
0000
0010
,
0100
0000
0000
0000
;

//---------------dance-single - ----------------
#NOTES:
     dance-single:
     :
     Hard:
     7:
     0.417,0.408,0.255,0.311,0.116,425.000,46.000,56.000,0.000,0.000,0.000,0.417,0.408,0.255,0.311,0.116,425.000,46.000,56.000,0.000,0.000,0.000:
0000
0000
0000
0000
,
0000
0000
0000
0000
,
0000
0000
0000
0000
,
0000
0000
0000
0000
,
0000
0000
0000
0000
,
0000
0000
0000
0000
,
0000
0000
0000
0000
,
0000
0000
0000
0000
,
0000
0000
0000
0000
0010
0000
1000
0010
0000
0000
0000
0000
0100
0000
0010
0000
,
0000
0000
0000
0000
0001
0000
1000
0010
0000
0000
0000
0000
0100
0000
0001
0000
,
0000
0000
0000
0000
0010
0000
1000
0001
0000
0000
0000
0000
0010
0000
0100
0000
,
0000
0010
0100
0110
0000
0001
1000
0010
,
0110
0000
0000
0000
0010
0000
0100
0010
0000
1000
0000
0000
0100
0000
0010
0000
,
0000
0001
0010
0011
0000
0100
0010
1000
,
1001
0000
0000
0000
0010
0000
0001
0100
0000
0010
0000
0000
0100
0000
0010
0000
,
0000
0100
1000
1100
0000
0010
0001
0100
,
0020
0031
0200
0310
,
2000
3100
0120
0031
,
2000
3001
0200
0310
,
0002
0103
1020
0031
,
0200
0310
0002
1003
,
0200
0310
2010
3100
,
0002
0103
0020
1030
,
0000
0100
0001
1000
0000
0010
0100
1000
,
0002
0013
2000
3100
,
0020
0130
1002
0103
,
0020
1030
0200
0301
,
0000
0010
1000
0001
0000
0100
0010
1000
,
0002
0103
0020
1030
,
0200
0301
1002
0103
,
2000
3010
0200
0301
,
0000
0100
0001
1000
0000
0010
1000
0001
,
0000
0000
0000
0000
0010
0000
1000
0001
0000
0000
0000
0000
0100
0000
0001
0000
,
0000
0000
0000
0000
0010
0000
1000
0001
0000
0000
0000
0000
0100
0000
0010
0000
,
0000
0000
0000
0000
1000
0000
0001
0100
0000
0000
0000
0000
0010
0000
1000
0000
,
0000
0100
0010
0110
0000
0001
1000
0001
,
0010
0000
0000
0000
0100
0000
0001
0010
0000
0000
0000
0000
0100
0000
0010
0000
,
0000
0000
0000
0000
1000
0000
0100
0010
0000
0000
0000
0000
0100
0000
0001
0000
,
0000
0000
0000
0000
0010
0000
1000
0001
0000
0000
0000
0000
0100
0000
0010
0000
,
0000
1000
0001
1000
0000
0010
0100
1000
,
1001
0000
0000
0000
0010
0000
0100
0010
0000
0000
0000
0000
1000
0000
0001
0000
,
0000
0000
0000
0000
0100
0000
0010
0001
0000
0000
0000
0000
0010
0000
0001
0000
,
0000
0000
0000
0000
0100
0000
0010
0100
0000
0000
0000
0000
0001
0000
1000
0000
,
0000
0100
0001
1001
0000
0010
0100
0010
,
0100
0000
0000
0000
0010
0000
0001
1000
0000
0010
0000
0000
0100
0000
0001
0000
,
0000
0010
1000
1010
0000
0100
0001
1000
,
1010
0000
0000
0000
0100
0000
0001
1000
0000
0010
0000
0000
0100
0000
0010
0000
,
0000
0100
0010
0110
0000
0001
1000
0010
,
0200
0310
0002
1003
,
0020
0130
1002
0103
,
0020
0130
2000
3100
,
0000
0001
0010
0001
0000
1000
0100
0010
,
0200
0301
0002
1003
,
0020
0130
1020
0130
,
0002
0103
0020
1030
,
0000
0010
0100
1000
0000
0001
0100
0010
,
0001
0000
0000
0000
0010
0000
1000
0001
0000
0100
0000
0000
0010
0000
0100
0000
,
1001
0000
0000
0000
0100
0000
0010
1000
0000
0001
0000
0000
0100
0000
0010
0000
,
0101
0000
0000
0000
0010
0000
1000
0001
0000
0100
0000
0000
0010
0000
1000
0000
,
0100
0010
0001
1000
0100
0010
0100
0000
,
0010
0000
0000
0000
0000
0001
0010
0001
0000
0100
0010
0100
0000
0000
1000
0010
,
0000
0000
0010
0001
0000
0000
0001
0100
0000
0000
0000
0000
0010
0100
0010
0000
,
1000
0000
0000
0000
0000
1000
0010
0100
0000
0001
0100
0010
0000
0000
0100
0001
,
0000
0000
0010
1000
0000
0000
0100
0010
0000
0000
0000
0000
0100
0001
0010
0000
,
0100
0000
0000
0000
0000
0010
1000
0001
,
0000
0100
0010
1000
0000
0000
0100
0101
,
0000
0000
0010
1010
0000
0000
0010
0110
,
0000
0000
0000
0000
0010
0100
1000
0000
,
0010
0000
0000
0000
0000
0100
0001
0010
,
0000
1000
0001
0100
0000
0000
0010
0101
,
0000
0000
0100
1001
0000
0000
0010
1100
,
0000
0000
1000
0011
0000
0000
0000
0000
,
0020
0031
0200
0310
,
2000
3100
1002
0103
,
0020
1030
0002
0103
,
0000
0010
1000
0001
0000
0100
0010
0001
,
2000
3010
0002
0103
,
0020
1030
1002
0013
,
0200
0310
0002
1003
,
0000
0010
1000
0001
0000
1000
0010
0100
,
0002
1003
0020
0130
,
0002
1003
0120
0031
,
2000
3100
0020
0130
,
0000
0001
1000
0010
0000
1000
0100
1000
,
0010
0000
0000
0000
0000
0010
0100
0110
,
0000
0001
1000
1001
0000
0000
0010
0110
,
0000
0000
0001
1001
0000
0000
0010
0110
,
0000
1010
0110
0011
,
0110
0000
0000
0000
0000
0010
0100
1001
,
0000
0010
0100
1010
0000
0000
0010
0101
,
0000
0000
0010
1100
0000
0000
0010
0101
,
0000
1000
0010
0011
0000
0010
1000
0100
,
1001
0000
0000
0000
;

//---------------dance-single - ----------------
#NOTES:
     dance-single:
     :
     Medium:
     5:
     0.300,0.332,0.366,0.277,0.000,263.000,66.000,50.000,0.000,0.000,0.000,0.300,0.332,0.366,0.277,0.000,263.000,66.000,50.000,0.000,0.000,0.000:
0000
0000
0000
0000
,
0000
0000
0000
0000
,
0000
0000
0000
0000
,
0000
0000
0000
0000
,
0000
0000
0000
0000
,
0000
0000
0000
0000
,
0000
0000
0000
0000
,
0000
0000
0000
0000
,
0000
0010
0010
0110
,
0000
0010
0010
0110
,
0000
1000
1000
1001
,
0000
0100
0000
0010
,
1010
0000
0000
0000
0100
0100
0000
0000
,
0000
0010
0000
0010
,
0110
0000
0000
0000
0001
0001
0000
0000
,
0000
0110
0000
0011
,
0200
0310
2000
3001
,
0200
0310
2000
3100
,
0020
0130
0002
1003
,
0200
0310
0002
1003
,
0020
0031
0200
0310
,
2000
3100
0020
0031
,
0200
0310
2000
3100
,
0000
0101
0000
0110
,
0020
0130
0002
1003
,
0200
0310
2000
3100
,
0020
0130
0002
1003
,
0000
0110
0000
1010
,
0020
0130
0002
0103
,
0020
1030
0200
0310
,
0002
1003
0200
0310
,
0000
0110
0000
0011
,
0000
0010
0010
0110
,
0000
1000
1000
1001
,
0000
0010
0010
0110
,
0000
1100
0000
0010
,
0100
0010
0010
0011
,
0000
0010
0010
0110
,
0000
1000
1000
1010
,
0000
0110
0000
0011
,
1000
0100
0100
0110
,
0000
0001
0001
1001
,
0000
0010
0010
0110
,
0000
1100
0000
0011
,
0110
0000
0000
0000
1000
1000
0000
0000
,
0000
0110
0000
1001
,
0010
0000
0000
0000
0100
0100
0000
0000
,
0000
0110
0000
1001
,
0200
0310
0002
1003
,
0020
0130
0002
0103
,
0020
1030
0200
0310
,
0000
1001
0000
1000
,
0020
0130
0002
1003
,
0200
0310
2000
3001
,
0020
0130
2000
3100
,
0000
0110
0000
1001
,
0001
0000
0000
0000
0010
0010
0000
0000
,
0110
0000
0000
0000
1000
1000
0000
0000
,
0010
0000
0000
0000
0100
0100
0000
0000
,
1001
0000
0010
0100
,
0110
0000
0000
0100
0001
1000
0010
0000
,
1001
0000
0100
0000
0110
0000
0001
0001
,
0100
0000
0000
0010
0100
0000
1001
0000
,
0010
0000
0110
0000
1000
0000
0010
1000
,
0001
0000
0000
0100
,
0010
0001
1001
0000
,
0011
0000
0110
0000
,
1010
0000
0100
0001
,
1001
0000
0000
0010
,
0100
1000
1010
0000
,
0011
0000
0110
0000
,
1001
0000
0011
0000
,
0100
0100
0010
0010
,
0001
0001
1000
1000
,
0010
0010
0100
0100
,
0000
1001
0000
0110
,
0002
1003
0020
0130
,
0002
1003
0020
0130
,
0002
1003
0200
0301
,
0000
1100
0000
0011
,
0200
0310
0002
1003
,
0020
0130
0002
1003
,
0020
0130
2000
3010
,
0000
1010
0000
0110
,
0010
0000
0000
0100
,
0010
0001
1001
0000
,
0100
0000
1010
0000
,
0100
0000
0011
0000
,
1001
0000
0000
0100
,
0010
0001
1001
0000
,
0011
0000
0110
0000
,
0000
1000
0000
0010
,
1001
0000
0000
0000
;

//---------------dance-single - ----------------
#NOTES:
     dance-single:
     :
     Beginner:
     1:
     0.101,0.128,0.000,0.000,0.000,127.000,0.000,0.000,0.000,0.000,0.000,0.101,0.128,0.000,0.000,0.000,127.000,0.000,0.000,0.000,0.000,0.000: // measure 1
0000
0000
0000
0000
,  // measure 2
0000
0000
0000
0000
,  // measure 3
0000
0000
0000
0000
,  // measure 4
0000
0000
0000
0000
,  // measure 5
0000
0000
0000
0000
,  // measure 6
0000
0000
0000
0000
,  // measure 7
0000
0000
0000
0000
,  // measure 8
0000
0000
0000
0000
,  // measure 9
0000
0000
0010
0000
,  // measure 10
0000
0000
0100
0000
,  // measure 11
0000
0000
0010
0000
,  // measure 12
0000
0000
0100
0000
,  // measure 13
0010
0000
0000
0000
,  // measure 14
0000
0000
0010
0000
,  // measure 15
0010
0000
0000
0000
,  // measure 16
0000
0000
0100
0000
,  // measure 17
0010
0000
0010
0000
,  // measure 18
0001
0000
0001
0000
,  // measure 19
0100
0000
0100
0000
,  // measure 20
0010
0000
0010
0000
,  // measure 21
0100
0000
0100
0000
,  // measure 22
1000
0000
1000
0000
,  // measure 23
0010
0000
0010
0000
,  // measure 24
0000
0000
0000
0000
,  // measure 25
1000
0000
1000
0000
,  // measure 26
0010
0000
0010
0000
,  // measure 27
1000
0000
1000
0000
,  // measure 28
0000
0000
0010
0000
,  // measure 29
0001
0000
0001
0000
,  // measure 30
0010
0000
0010
0000
,  // measure 31
1000
0000
1000
0000
,  // measure 32
0000
0000
1000
0000
,  // measure 33
0000
0000
0100
0000
,  // measure 34
0000
0000
0010
0000
,  // measure 35
0000
0000
0001
0000
,  // measure 36
0000
0000
1000
0000
,  // measure 37
0000
0000
0010
0000
,  // measure 38
0000
0000
0100
0000
,  // measure 39
0000
0000
0010
0000
,  // measure 40
0000
0000
0000
0000
,  // measure 41
0100
0000
0100
0000
,  // measure 42
0000
0000
0010
0000
,  // measure 43
0000
0000
0001
0000
,  // measure 44
0000
0000
1000
0000
,  // measure 45
0000
0000
0100
0000
,  // measure 46
0000
0000
0010
0000
,  // measure 47
0000
0000
0001
0000
,  // measure 48
0000
0000
0010
0000
,  // measure 49
1000
0000
1000
0000
,  // measure 50
0010
0000
0010
0000
,  // measure 51
1000
0000
1000
0000
,  // measure 52
0000
0000
0100
0000
,  // measure 53
0010
0000
0010
0000
,  // measure 54
0001
0000
0001
0000
,  // measure 55
1000
0000
1000
0000
,  // measure 56
0000
0000
0010
0000
,  // measure 57
0100
0000
0000
0000
,  // measure 58
0000
0000
0000
0000
,  // measure 59
0010
0000
0000
0000
,  // measure 60
0000
0000
0100
0100
,  // measure 61
0010
0000
0010
0000
,  // measure 62
0010
0000
0010
0000
,  // measure 63
0001
0000
0001
0000
,  // measure 64
0001
0000
0001
0000
,  // measure 65
1000
0000
0000
0000
,  // measure 66
0010
0000
0010
0000
,  // measure 67
0100
0000
0100
0000
,  // measure 68
0010
0000
0100
0100
,  // measure 69
0010
0000
0000
0000
,  // measure 70
0001
0000
0001
0000
,  // measure 71
0100
0000
0100
0000
,  // measure 72
0010
0000
0010
0000
,  // measure 73
0100
0000
0100
0000
,  // measure 74
0001
0000
0001
0000
,  // measure 75
0010
0000
0100
0000
,  // measure 76
0000
0000
0000
0000
,  // measure 77
0010
0000
0010
0000
,  // measure 78
0100
0000
0100
0000
,  // measure 79
0001
0000
0001
0000
,  // measure 80
0000
0000
0010
0000
,  // measure 81
1000
0000
1000
0000
,  // measure 82
0010
0000
0010
0000
,  // measure 83
1000
0000
1000
0000
,  // measure 84
0000
0000
0100
0000
,  // measure 85
0010
0000
0000
0000
,  // measure 86
0001
0000
0001
0000
,  // measure 87
0100
0000
0100
0000
,  // measure 88
0010
0000
0000
0000
,  // measure 89
1000
0000
0000
0000
,  // measure 90
0100
0000
0100
0000
,  // measure 91
0010
0000
0010
0000
,  // measure 92
0100
0000
0000
0010
,  // measure 93
0010
0000
0000
0000
;
