#TITLE:Steve's Lava Chicken (Extreme 2025 Remix);
#SUBTITLE:;
#ARTIST:Jack Black From A Minecraft Movie;
#TITLETRANSLIT:;
#SUBTITLETRANSLIT:;
#ARTISTTRANSLIT:;
#GENRE:;
#CREDIT:;
#BANNER:Steve's Lava Chicken (Extreme 2025 Remix).png;
#BACKGROUND:Steve's Lava Chicken (Extreme 2025 Remix)-bg.png;
#LYRICSPATH:;
#CDTITLE:.\CDTITLES\DDRMAX6.PNG;
#MUSIC:Steve's Lava Chicken (Extreme 2025 Remix).ogg;
#OFFSET:0.780;
#SAMPLESTART:53.000;
#SAMPLELENGTH:15.000;
#SELECTABLE:YES;
#DISPLAYBPM:150.000;
#BPMS:0.000=150.000;
#STOPS:;
#BGCHANGES:;
#KEYSOUNDS:;

//---------------dance-single - ----------------
#NOTES:
     dance-single:
     :
     Easy:
     3:
     0.176,0.240,0.149,0.000,0.000,138.000,19.000,0.000,0.000,0.000,0.000,0.176,0.240,0.149,0.000,0.000,138.000,19.000,0.000,0.000,0.000,0.000:
0000
0000
0000
0000
,
0000
0000
0000
0000
,
0000
0000
0000
0000
,
0000
0000
0000
0000
,
0000
0000
0000
0000
,
0000
0000
0000
0000
,
0000
0000
0000
0000
,
0000
0000
0000
0000
,
0000
0000
0000
0000
,
0000
0000
0000
0000
,
1000
0000
0000
0000
,
1000
0000
0000
0000
,
0001
0000
0000
0000
,
0001
0000
0000
0000
,
0010
0000
0000
0000
,
0010
0000
0000
0000
,
0100
0000
0000
0000
,
0000
0000
0000
0000
,
0100
0000
0100
0000
,
0010
0000
0010
0000
,
0001
0000
0001
0000
,
1000
0000
1000
0000
,
0010
0000
0001
0000
,
0100
0000
1000
0000
,
0010
0000
0001
0000
,
0100
0000
0010
0000
,
0001
0000
1000
0000
,
0010
0000
0100
0000
,
1000
0000
1000
0000
,
0100
0000
0010
0000
,
0001
0000
0100
0000
,
1000
0000
0100
0000
,
0100
0000
0010
0000
,
0001
0000
0000
1000
,
1001
0000
0000
0010
,
0110
0000
0000
0000
,
1000
0100
0010
0001
,
1000
0001
1001
0000
,
0001
1000
0010
1000
,
0100
1000
1001
0000
,
0010
0100
1000
0001
,
1000
0001
1001
0000
,
0010
0100
1000
0010
,
1001
0000
0000
0000
,
0110
0000
0000
0000
,
1001
0000
0000
0000
,
0110
0000
0000
0000
,
1001
0000
0000
0000
,
0110
0000
0000
0000
,
1001
0000
0000
0000
,
0010
0100
0010
0100
,
1001
0000
0000
0000
,
0000
0000
0000
0000
,
0010
0000
0100
0000
,
0010
0000
0001
0000
,
0010
0000
0010
0000
,
0100
0000
0100
0000
,
1000
0000
0001
0000
,
0100
0000
0010
0000
,
0001
0000
0100
0000
,
1000
0000
0100
0000
,
0010
0000
0010
0000
,
1000
0000
0001
0000
,
0010
0000
0001
0000
,
0010
0000
0001
0000
,
0100
0000
0100
0000
,
0010
0000
0000
0010
,
1001
0000
0000
1000
,
1001
0000
0000
0000
,
0010
0001
1000
0010
,
1000
0001
1001
0000
,
1000
0010
0100
0010
,
1000
0001
1001
0000
,
0010
0100
1000
0010
,
0100
0001
1001
0000
,
0010
1000
0100
1000
,
0010
0100
1001
0000
;

//---------------dance-single - ----------------
#NOTES:
     dance-single:
     :
     Medium:
     6:
     0.333,0.330,0.063,0.220,0.000,261.000,8.000,28.000,0.000,0.000,0.000,0.333,0.330,0.063,0.220,0.000,261.000,8.000,28.000,0.000,0.000,0.000:
0000
0000
0000
0000
,
0000
0000
0000
0000
,
0000
0000
0000
0000
,
0000
0000
0000
0000
,
0000
0000
0000
0000
,
0000
0000
0000
0000
,
0000
0000
0000
0000
,
0000
0000
0000
0000
,
0000
0000
0000
0000
,
0000
0000
0000
0000
,
1000
1000
1000
1000
,
1000
1000
1000
1000
,
1000
1000
1000
1000
,
1000
1000
1000
1000
,
0001
0001
0001
0001
,
0001
0001
0001
0001
,
0001
0001
0001
0001
,
0001
0010
0100
1000
,
1002
0103
0010
0010
,
0200
1300
0100
0100
,
0020
0130
1000
1000
,
0200
0310
0100
0100
,
0020
0031
0010
0010
,
0002
0013
0100
0100
,
0020
0031
1000
1000
,
0020
0130
1000
1001
,
1020
0130
0010
0010
,
0200
0310
0001
0001
,
0020
0130
1000
1000
,
0200
1300
0010
0010
,
0200
0310
0001
0001
,
0020
0130
1000
1000
,
0020
0130
0001
0001
,
0010
0100
1000
0010
,
0010
0100
0000
0000
0010
0000
1000
0000
,
0001
1000
0000
0000
0110
0000
0011
0000
,
0010
0001
0010
0001
,
0010
0001
0100
0010
,
1000
0100
1000
0100
,
1000
0100
0010
0001
,
0100
0010
0100
0010
,
0100
1000
1000
0010
,
0100
0001
0100
0001
,
0100
0100
0100
0100
,
0100
0100
0100
0100
,
0010
0010
0010
0010
,
0010
0010
0010
0010
,
0100
0100
0100
0100
,
0100
0100
0100
0100
,
0001
0001
0001
0001
,
1000
0100
0010
0001
,
1001
0000
0000
0000
,
0110
0100
0010
0100
,
0020
0031
0001
0100
,
0020
0130
0100
1000
,
0020
0130
0100
0001
,
0200
1300
1000
0010
,
0200
0301
0001
0010
,
0200
1300
1000
0010
,
0102
0013
0010
1000
,
0002
0103
0100
0010
,
2000
3100
0100
0010
,
2000
3001
0001
0100
,
0020
1030
1000
0100
,
0020
0031
0001
0100
,
0020
1030
1000
0010
,
0100
0100
0100
0100
,
0010
0001
0000
0000
0010
0000
0100
0000
,
1000
0001
0000
0000
0010
0000
0100
0000
,
1000
0100
0001
0010
,
0100
0000
1000
0001
0000
0000
0000
0000
,
0010
0100
1000
0010
,
0100
0000
0001
1000
0000
0000
0000
0000
,
0010
1000
0001
1000
,
0010
0000
0100
0001
0000
0000
0000
0000
,
0010
0100
1000
0010
,
0100
0000
0001
1000
0000
0000
0000
0000
;

//---------------dance-single - ----------------
#NOTES:
     dance-single:
     :
     Hard:
     7:
     0.393,0.420,0.361,0.094,0.000,292.000,46.000,12.000,0.000,0.000,0.000,0.393,0.420,0.361,0.094,0.000,292.000,46.000,12.000,0.000,0.000,0.000:
0000
0000
0000
0000
,
0000
0000
0000
0000
,
0000
0000
0000
0000
,
0000
0000
0000
0000
,
0000
0000
0000
0000
,
0000
0000
0000
0000
,
0000
0000
0000
0000
,
0000
0000
0000
0000
,
0000
0000
0000
0000
,
0000
0000
0000
0000
,
1000
1000
1000
1000
,
1000
1000
1000
1000
,
0001
0001
0001
0001
,
0001
0001
0001
0001
,
0100
0100
0100
0100
,
0100
0100
0100
0100
,
0010
0010
0010
0010
,
0001
0010
0100
1000
,
0100
0100
0010
0010
,
1100
1100
0011
0011
,
0010
0010
0110
0110
,
0100
0100
0010
0010
,
0100
0100
0011
0011
,
1010
1010
0110
0110
,
1000
1000
1001
1001
,
0020
0032
0203
0320
,
1030
1000
1010
1010
,
0011
0011
0110
0110
,
1000
1000
0110
0110
,
0011
0011
0110
0110
,
1000
1001
0010
0110
,
1000
1001
0010
0110
,
2000
3200
0320
0032
,
1003
0000
0001
0000
0000
0100
0010
0001
,
0100
0010
0000
0000
0000
0100
0010
0100
,
0001
0010
0000
0000
0000
0000
0000
0100
,
0000
0000
0001
1000
0001
1000
0010
0100
,
0010
0001
1000
0001
0000
0000
0000
1000
,
0000
0000
0100
0010
0100
0001
0100
0010
,
1000
0010
0100
0001
0000
0000
0000
0010
,
0000
0000
0010
0100
1000
0001
1000
0010
,
0100
0001
1000
0010
0000
0000
0000
0100
,
0000
0000
0010
1000
0001
1000
0010
0100
,
0001
0001
0001
0001
,
0001
0001
0001
0001
,
1000
1000
1000
1000
,
1000
1000
1000
1000
,
0010
0010
0010
0010
,
0010
0010
0010
0010
,
1000
1000
1000
1000
,
0001
0010
0100
0001
,
1001
0010
0110
1000
,
0020
0032
0203
0302
,
0103
1100
0100
0110
,
0001
0100
1000
0010
,
0100
0110
0001
0011
,
0010
0100
1000
0010
,
0100
0110
0001
0011
,
0010
0100
1000
0010
,
0100
0110
0001
1001
,
0010
0100
1000
0010
,
0100
0110
0001
0011
,
0010
0100
1000
0010
,
0100
0110
0001
0011
,
0010
0100
1000
0010
,
0100
0110
0001
1001
,
0010
0000
0100
0000
0010
1000
0010
0001
,
0100
0010
0000
0000
0000
0100
1000
0010
,
0100
0001
0000
0000
0000
0000
0000
0010
,
0000
0000
0100
1000
0010
0100
0001
0000
,
0010
0100
1000
0001
0000
0000
0000
0010
,
0000
0000
1000
0010
0100
1000
0001
0100
,
0010
1000
0010
0100
0000
0000
0000
0010
,
0000
0000
0100
0010
1000
0001
0100
0010
,
0100
0001
0100
0010
0000
0000
0000
0010
,
0000
0000
0010
1000
0001
0100
0010
1000
,
0100
1000
0010
0100
0000
0000
0000
0000
;

//---------------dance-single - ----------------
#NOTES:
     dance-single:
     :
     Beginner:
     1:
     0.074,0.060,0.000,0.000,0.000,66.000,0.000,0.000,0.000,0.000,0.000,0.074,0.060,0.000,0.000,0.000,66.000,0.000,0.000,0.000,0.000,0.000: // measure 1
0000
0000
0000
0000
,  // measure 2
0000
0000
0000
0000
,  // measure 3
0000
0000
0000
0000
,  // measure 4
0000
0000
0000
0000
,  // measure 5
0000
0000
0000
0000
,  // measure 6
0000
0000
0000
0000
,  // measure 7
0000
0000
0000
0000
,  // measure 8
0000
0000
0000
0000
,  // measure 9
0000
0000
0000
0000
,  // measure 10
0000
0000
0000
0000
,  // measure 11
1000
0000
0000
0000
,  // measure 12
1000
0000
0000
0000
,  // measure 13
0001
0000
0000
0000
,  // measure 14
0001
0000
0000
0000
,  // measure 15
1000
0000
0000
0000
,  // measure 16
1000
0000
0000
0000
,  // measure 17
0001
0000
0000
0000
,  // measure 18
0000
0000
0000
0000
,  // measure 19
0010
0000
0000
0000
,  // measure 20
0100
0000
0000
0000
,  // measure 21
0010
0000
0000
0000
,  // measure 22
0100
0000
0000
0000
,  // measure 23
0001
0000
0000
0000
,  // measure 24
0010
0000
0000
0000
,  // measure 25
0100
0000
0000
0000
,  // measure 26
1000
0000
0000
0000
,  // measure 27
0100
0000
0000
0000
,  // measure 28
0010
0000
0000
0000
,  // measure 29
0001
0000
0000
0000
,  // measure 30
0100
0000
0000
0000
,  // measure 31
0010
0000
0000
0000
,  // measure 32
0100
0000
0000
0000
,  // measure 33
1000
0000
0000
0000
,  // measure 34
0010
0000
0000
0000
,  // measure 35
0010
0000
0000
0000
,  // measure 36
0100
0000
0000
0000
,  // measure 37
0010
0000
0000
0000
,  // measure 38
0001
0000
0000
0000
,  // measure 39
0010
0000
0000
0000
,  // measure 40
0010
0000
0000
0000
,  // measure 41
0100
0000
0000
0000
,  // measure 42
1000
0000
0000
0000
,  // measure 43
1000
0000
0000
0000
,  // measure 44
0010
0000
0000
0000
,  // measure 45
0010
0000
0000
0000
,  // measure 46
0010
0000
0000
0000
,  // measure 47
0010
0000
0000
0000
,  // measure 48
0100
0000
0000
0000
,  // measure 49
0100
0000
0000
0000
,  // measure 50
0100
0000
0000
0000
,  // measure 51
0100
0000
0000
0000
,  // measure 52
1000
0000
0000
0000
,  // measure 53
0001
0000
0000
0000
,  // measure 54
0001
0000
0000
0000
,  // measure 55
1000
0000
0000
0000
,  // measure 56
1000
0000
0000
0000
,  // measure 57
1000
0000
0000
0000
,  // measure 58
0010
0000
0000
0000
,  // measure 59
0010
0000
0000
0000
,  // measure 60
0100
0000
0000
0000
,  // measure 61
0100
0000
0000
0000
,  // measure 62
0001
0000
0000
0000
,  // measure 63
0001
0000
0000
0000
,  // measure 64
0010
0000
0000
0000
,  // measure 65
0010
0000
0000
0000
,  // measure 66
1000
0000
0000
0000
,  // measure 67
0100
0000
0000
0000
,  // measure 68
0001
0000
0000
0000
,  // measure 69
0001
0000
0000
0000
,  // measure 70
1000
0000
0000
0000
,  // measure 71
1000
0000
0000
0000
,  // measure 72
0100
0000
0000
0000
,  // measure 73
0100
0000
0000
0000
,  // measure 74
0010
0000
0000
0000
,  // measure 75
0010
0000
0000
0000
,  // measure 76
0100
0000
0000
0000
,  // measure 77
0100
0000
0000
0000
;
