#TITLE:Save Tonight;
#SUBTITLE:;
#ARTIST:Jackie 'O';
#TITLETRANSLIT:;
#SUBTITLETRANSLIT:;
#ARTISTTRANSLIT:;
#GENRE:;
#CREDIT:;
#BANNER:Save Tonight.png;
#BACKGROUND:Save Tonight-bg.png;
#LYRICSPATH:;
#CDTITLE:./CDTITLES/The Witch's Bakery Lunne Bonus.PNG;
#MUSIC:Save Tonight.ogg;
#OFFSET:0.614;
#SAMPLESTART:57.856;
#SAMPLELENGTH:15.000;
#SELECTABLE:YES;
#DISPLAYBPM:133.000;
#BPMS:0.000=133.000;
#STOPS:;
#BGCHANGES:;
#KEYSOUNDS:;

//---------------dance-single - ----------------
#NOTES:
     dance-single:
     :
     Easy:
     4:
     0.216,0.215,0.146,0.000,0.000,327.000,35.000,0.000,0.000,0.000,0.000,0.216,0.215,0.146,0.000,0.000,327.000,35.000,0.000,0.000,0.000,0.000:
0000
0000
0000
0000
,
0000
0000
0000
0000
,
0000
0000
0000
0000
,
0000
0000
0000
0000
,
0000
0000
0000
0000
,
0000
0000
0000
0000
,
0000
0000
0000
0000
,
0000
0000
0000
0000
,
0000
0000
0000
0000
,
1000
1000
0100
0000
,
0100
0100
0001
0000
,
0001
0001
0010
0000
,
0010
0010
0100
0000
,
0100
0100
1000
0000
,
1000
1000
0010
0000
,
0010
0010
0001
0000
,
0001
0001
0100
0000
,
0010
0010
1000
0000
,
1000
1000
0100
0000
,
0100
0100
0001
0000
,
0001
0001
0010
0000
,
0010
0010
0100
0000
,
0100
0100
1000
0000
,
1000
1000
0010
0000
,
0010
0010
0001
0000
,
0001
0001
0100
0000
,
0100
0100
0010
0000
,
0010
0010
1000
0000
,
1000
1000
0100
0000
,
0100
0100
0001
0000
,
0001
0001
0010
0000
,
0010
0010
0100
0000
,
1000
1000
0100
0000
,
0001
1000
0001
0000
,
0010
0100
0010
0000
,
1000
0010
1000
0000
,
0001
0010
0001
0000
,
0100
0001
0100
0000
,
1000
0100
1000
0000
,
0010
0100
0010
0000
,
1000
0001
1000
0000
,
0010
0010
0001
0000
,
0001
0001
0100
0000
,
0100
0100
1000
0000
,
1000
1000
0010
0000
,
0010
0010
0001
0000
,
0001
0001
0100
0000
,
0100
0100
0010
0000
,
0010
0010
1000
0000
,
1000
1000
0100
0000
,
0100
0100
0001
0000
,
0001
0001
0010
0000
,
0010
0010
1000
0000
,
1000
1000
0100
0000
,
0001
0001
0100
0000
,
0010
0010
1000
0000
,
1001
0000
0000
0000
,
0010
0100
0010
0000
,
1000
0001
1000
0000
,
0010
0100
0010
0000
,
1000
0001
1000
0000
,
0010
0100
0010
0000
,
1000
0001
1000
0000
,
0010
0100
0010
0000
,
1000
0001
1000
0000
,
0010
0010
0001
0000
,
0001
0001
0100
0000
,
0100
0100
0010
0000
,
0010
0010
1000
0000
,
1000
1000
0100
0000
,
0001
0001
0100
0000
,
0010
0010
1000
0000
,
0100
0100
0001
0000
,
1001
0000
0010
0000
,
0110
0000
0010
0000
,
1001
0000
1000
0000
,
1001
0000
0010
0000
,
0110
0000
0010
0000
,
1001
0000
0100
0000
,
0110
0000
0010
0000
,
1001
0000
1000
0000
,
1000
0001
1001
0000
,
0001
1000
1001
0000
,
0010
0100
0110
0000
,
0100
0010
0110
0000
,
1000
0001
1001
0000
,
0001
1000
1001
0000
,
0010
0100
0110
0000
,
1000
0001
1001
0000
,
0010
0010
0001
0000
,
0001
0001
0100
0000
,
0100
0100
0010
0000
,
1000
1000
0010
0000
,
0100
0100
0010
0000
,
0001
0001
1000
0000
,
0010
0010
0100
0000
,
0100
0100
0001
0000
,
1000
0000
1001
0000
,
0010
0000
0110
0000
,
0001
0000
1001
0000
,
0110
0000
1001
0000
,
1000
0000
1001
0000
,
0010
0000
0110
0000
,
0001
0000
1000
0000
,
1001
0000
0110
0000
,
1100
0000
0000
0000
,
1001
0000
0000
0000
,
0011
0000
0000
0000
,
1001
0000
0000
0000
,
0110
0000
0000
0000
,
1010
0000
0000
0000
,
0110
0000
0000
0000
,
1001
0000
0000
0000
,
0010
0010
0001
0000
,
0001
0001
0100
0000
,
0100
0100
0010
0000
,
1000
1000
0001
0000
,
0100
0100
0010
0000
,
1000
1000
0100
0000
,
0001
0001
0100
0000
,
0010
0010
1000
0000
,
0001
1000
0001
0000
,
0010
0100
0010
0000
,
1000
0010
1000
0000
,
0010
0001
0010
0000
,
0100
0010
0100
0000
,
1000
0100
1000
0000
,
0001
0100
0001
0000
,
1000
0001
1000
0000
,
1001
0000
0000
0000
;

//---------------dance-single - ----------------
#NOTES:
     dance-single:
     :
     Beginner:
     1:
     0.107,0.108,0.029,0.000,0.000,172.000,7.000,0.000,0.000,0.000,0.000,0.107,0.108,0.029,0.000,0.000,172.000,7.000,0.000,0.000,0.000,0.000:
0000
0000
0000
0000
,
0000
0000
0000
0000
,
0000
0000
0000
0000
,
0000
0000
0000
0000
,
0000
0000
0000
0000
,
0000
0000
0000
0000
,
0000
0000
0000
0000
,
0000
0000
0000
0000
,
0000
0000
0000
0000
,
1000
0000
1000
0000
,
1000
0000
1000
0000
,
0001
0000
0001
0000
,
0001
0000
0001
0000
,
0010
0000
0010
0000
,
0010
0000
0010
0000
,
0100
0000
0100
0000
,
0100
0000
0100
0000
,
1000
0000
0000
0000
,
0100
0000
0000
0000
,
0010
0000
0000
0000
,
0001
0000
0000
0000
,
0010
0000
0000
0000
,
0100
0000
0000
0000
,
1000
0000
0000
0000
,
0100
0000
0000
0000
,
0001
0000
0000
0000
,
0010
0000
0000
0000
,
0100
0000
0000
0000
,
0010
0000
0000
0000
,
1000
0000
0000
0000
,
0001
0000
0000
0000
,
0100
0000
0000
0000
,
0010
0000
0000
0000
,
0100
0000
0100
0000
,
0010
0000
0010
0000
,
0001
0000
0001
0000
,
1000
0000
1000
0000
,
0010
0000
0010
0000
,
0100
0000
0100
0000
,
0001
0000
0001
0000
,
1000
0000
1000
0000
,
0010
0000
0000
0000
,
0010
0000
0000
0000
,
0001
0000
0000
0000
,
0001
0000
0000
0000
,
0100
0000
0000
0000
,
0100
0000
0000
0000
,
0010
0000
0000
0000
,
1000
0000
0000
0000
,
0100
0000
0000
0000
,
0100
0000
0000
0000
,
0001
0000
0000
0000
,
0001
0000
0000
0000
,
1000
0000
0000
0000
,
1000
0000
0000
0000
,
0010
0000
0000
0000
,
0000
0000
0000
0000
,
0100
0000
0100
0000
,
0001
0000
0001
0000
,
1000
0000
1000
0000
,
0010
0000
0010
0000
,
0100
0000
0100
0000
,
0001
0000
0001
0000
,
1000
0000
1000
0000
,
0010
0000
0010
0000
,
1000
0000
1000
0000
,
1000
0000
1000
0000
,
0001
0000
0001
0000
,
0001
0000
0001
0000
,
0100
0000
0100
0000
,
0100
0000
0100
0000
,
0010
0000
0010
0000
,
0010
0000
0010
0000
,
1000
0000
0000
0000
,
0100
0000
0000
0000
,
0010
0000
0000
0000
,
0001
0000
0000
0000
,
0100
0000
0000
0000
,
0010
0000
0000
0000
,
1000
0000
0000
0000
,
0100
0000
0000
0000
,
0010
0000
0000
0000
,
0110
0000
0000
0000
,
1000
0000
0000
0000
,
1001
0000
0000
0000
,
0010
0000
0000
0000
,
0110
0000
0000
0000
,
1000
0000
0000
0000
,
1001
0000
0000
0000
,
0010
0000
0010
0000
,
0010
0000
0010
0000
,
1000
0000
1000
0000
,
1000
0000
1000
0000
,
0001
0000
0001
0000
,
0001
0000
0001
0000
,
0010
0000
0010
0000
,
0010
0000
0010
0000
,
0100
0000
0000
0000
,
0000
0000
0000
0000
,
0010
0000
0000
0000
,
0000
0000
0000
0000
,
0110
0000
0000
0000
,
0000
0000
0000
0000
,
1001
0000
0000
0000
,
0000
0000
0000
0000
,
1000
0000
0000
0000
,
0010
0000
0000
0000
,
0001
0000
0000
0000
,
0100
0000
0000
0000
,
0010
0000
0000
0000
,
0100
0000
0000
0000
,
1000
0000
0000
0000
,
0001
0000
0000
0000
,
0010
0000
0010
0000
,
0010
0000
0010
0000
,
0100
0000
0100
0000
,
0100
0000
0100
0000
,
1000
0000
1000
0000
,
1000
0000
1000
0000
,
0001
0000
0001
0000
,
0001
0000
0001
0000
,
0010
0000
0010
0000
,
0100
0000
0100
0000
,
0001
0000
0001
0000
,
1000
0000
1000
0000
,
0010
0000
0010
0000
,
0100
0000
0100
0000
,
0001
0000
0001
0000
,
1000
0000
1000
0000
,
1001
0000
0000
0000
;

//---------------dance-single - ----------------
#NOTES:
     dance-single:
     :
     Medium:
     6:
     0.292,0.323,0.113,0.083,0.000,444.000,27.000,20.000,0.000,0.000,0.000,0.292,0.323,0.113,0.083,0.000,444.000,27.000,20.000,0.000,0.000,0.000:
0000
0000
0000
0000
,
0000
0000
0000
0000
,
0000
0000
0000
0000
,
0000
0000
0000
0000
,
0000
0000
0000
0000
,
0000
0000
0000
0000
,
0000
0000
0000
0000
,
0000
0000
0000
0000
,
0000
0000
0000
0000
,
1000
1000
0100
0001
,
0010
0010
0100
1000
,
0010
0010
0001
0100
,
0010
0010
0100
1000
,
0010
0010
0100
0001
,
1000
1000
0010
0100
,
0001
0001
0100
1000
,
0010
0010
0100
0001
,
1000
0010
0100
0000
,
0010
0001
0100
0000
,
0010
0100
1000
0000
,
1000
0010
0100
0000
,
0001
1000
0010
0000
,
0100
0010
0001
0000
,
1001
1001
1001
0000
,
0110
0011
1001
0000
,
0010
1000
0010
0000
,
0100
0010
0100
0000
,
0001
0100
0001
0000
,
1000
0010
1000
0000
,
0100
0001
1000
0000
,
0010
1000
0100
0000
,
1000
1000
0100
0000
,
2002
3003
0220
0330
,
1000
0100
1000
0100
,
1000
0100
1000
0100
,
1000
0100
1000
0100
,
1000
0100
1000
0100
,
0001
0100
0001
0100
,
0001
0100
0001
0100
,
0001
0100
0001
0100
,
0001
0100
0001
0100
,
0001
0010
0100
0000
,
0001
0010
0100
0000
,
1000
0100
0010
0000
,
1000
0100
0010
0000
,
1000
0001
1000
0000
,
0010
0100
0010
0000
,
0110
0110
0110
0000
,
0011
1100
1001
0000
,
0010
0001
0100
0000
,
0010
1000
0100
0000
,
1000
0001
1000
0000
,
0010
0100
0010
0000
,
2000
0001
3100
0010
,
1000
1000
1001
0000
,
0002
0100
1003
0010
,
2002
3003
0220
0330
,
1000
0100
1000
0100
,
1000
0100
1000
0100
,
1000
0100
1000
0100
,
1000
0100
1000
0100
,
0001
0100
0001
0100
,
0001
0100
0001
0100
,
0001
0100
0001
0100
,
0001
0100
0001
0100
,
1000
1000
0100
0001
,
0010
0010
0100
1000
,
0010
0010
0100
0001
,
1000
1000
0010
0100
,
0001
0001
0100
0010
,
1000
1000
0100
0010
,
0001
0001
0100
0010
,
1000
1000
0100
0001
,
1000
0000
0100
0100
0001
0000
0010
0010
,
0100
0000
1000
1000
0100
0000
0001
0001
,
0100
0000
0010
0010
1000
0000
0100
0100
,
0001
0000
0001
0001
1000
0000
0010
0010
,
0100
0000
1000
1000
1000
0000
0010
0010
,
0010
0000
0100
0100
0100
0000
0001
0001
,
0001
0000
0010
0100
0010
0000
1000
0001
,
1000
0000
0010
0010
0010
0000
0100
1000
,
0002
0100
0103
0000
,
2000
0010
3010
0000
,
0200
0001
0301
0000
,
2000
0001
3001
0000
,
0002
1000
1003
0000
,
0020
0100
0130
0000
,
2000
0010
3010
0000
,
0002
0100
0103
0000
,
0010
0010
0100
1000
,
0010
0010
0100
0001
,
1000
1000
0010
0100
,
0001
0001
0100
0010
,
1000
1000
0010
0100
,
0001
0001
1000
0010
,
0100
0100
1000
0010
,
0100
0100
0001
1000
,
0010
1000
1010
0000
,
0100
0001
0011
0000
,
0010
0100
0110
0000
,
1000
0001
1001
0000
,
0110
0000
0011
0000
0001
1000
0010
0000
,
0100
0010
1000
0000
,
1010
0000
0011
0000
0100
0010
0100
0000
,
1000
0001
2002
3003
,
0010
0010
0100
0000
,
1000
1000
0100
0000
,
0001
0001
0100
0000
,
1000
1000
0010
0000
,
0100
0100
0001
0000
,
1000
1000
0010
0000
,
0100
0100
0001
0000
,
1000
0001
1000
0000
,
0010
0010
0100
1000
,
0010
0010
0100
0001
,
1000
1000
0010
0100
,
0001
0001
1000
0010
,
0100
0100
0001
1000
,
0010
0010
0100
0001
,
1000
1000
0010
0100
,
0001
0001
1000
0000
,
1000
0100
1000
0100
,
1000
0100
1000
0100
,
1000
0100
1000
0100
,
1000
0100
1000
0100
,
0001
0100
0001
0100
,
0001
0100
0001
0100
,
0001
0100
0001
0100
,
0001
0100
0001
0100
,
1001
0000
0000
0000
;

//---------------dance-single - ----------------
#NOTES:
     dance-single:
     :
     Hard:
     8:
     0.477,0.457,0.179,0.083,0.190,738.000,43.000,20.000,0.000,0.000,0.000,0.477,0.457,0.179,0.083,0.190,738.000,43.000,20.000,0.000,0.000,0.000:
0000
0000
0000
0000
,
0000
0000
0000
0000
,
0000
0000
0000
0000
,
0000
0000
0000
0000
,
0000
0000
0000
0000
,
0000
0000
0000
0000
,
0000
0000
0000
0000
,
0000
0000
0000
0000
,
0000
0000
0000
0000
,
1000
0000
0000
0000
0100
0000
0000
0010
0000
0000
0001
0000
0000
0000
0010
0000
,
0100
0000
0000
0000
0010
0000
0000
1000
0000
0000
0100
0000
0010
0000
0001
0000
,
1000
0000
0000
0000
0010
0000
0000
0100
0000
0000
1000
0000
0100
0000
0001
0000
,
1000
0000
0000
0000
0010
0000
0000
0000
0100
0000
0000
0010
0000
0000
1000
0000
,
0001
0000
0000
0000
0010
0000
0000
0100
0000
0000
0010
0000
0000
0000
1000
0000
,
0001
0000
0000
0000
0010
0000
0000
0100
0000
0000
0010
0000
0001
0000
1000
0000
,
0010
0000
0000
0000
0100
0000
0000
0010
0000
0000
1000
0000
0000
0000
0100
0000
,
0001
0000
0010
0000
1000
0100
0010
0001
,
1000
0100
1000
0100
1000
0100
1000
0100
,
0010
0001
0010
0001
0010
0001
0010
0001
,
0100
0010
0100
0010
0100
0010
0100
0010
,
1000
0100
1000
0100
1000
0100
1000
0100
,
0001
0100
0001
0100
0001
0100
0001
0100
,
0001
0010
0001
0010
0001
0010
0001
0010
,
0100
1000
0100
1000
0100
1000
0100
1000
,
0010
0001
0010
0001
0010
0001
0010
0100
,
1000
0100
1000
0100
1000
0100
1000
0100
,
0010
0100
0010
0100
0010
0100
0010
0100
,
0001
0100
0001
0100
0001
0100
0001
0100
,
1000
0100
1000
0100
1000
0100
1000
0100
,
0010
0001
0010
0001
0010
0001
0010
0001
,
0100
0010
0100
0010
0100
0010
0100
0010
,
1000
0100
0001
0010
0100
1000
1010
0000
,
0010
0100
0010
0100
2002
0000
3003
0001
,
1001
1100
0011
0110
,
1000
0000
0001
1000
0000
0010
0000
0000
0100
0000
0000
0000
0020
0000
0000
0000
,
0030
0010
0100
1000
0000
1000
0010
0100
,
0001
0000
0010
1000
0000
0001
0000
0000
0100
0000
0000
0000
0020
0000
0000
0000
,
0030
0100
1100
0000
1010
0000
0011
0000
,
0100
0000
0001
0100
0000
1000
0000
0000
0010
0000
0000
0000
0200
0000
0000
0000
,
0300
0010
0001
1000
0000
0010
0100
1000
,
0001
0000
0100
0010
0000
1000
0000
0000
0010
0000
0000
0000
0000
0000
0000
0000
,
1000
0010
1000
0010
1000
0010
1000
0010
,
0001
0010
0001
0010
0001
0010
0001
0010
,
0100
0010
0100
0010
0100
0010
0100
0010
,
0100
1000
0100
1000
0100
1000
0100
1000
,
0001
0100
0001
0100
0001
0100
0001
0100
,
1000
0100
1000
0100
1000
0100
1000
0100
,
0010
0100
0010
0100
0010
0100
0010
0100
,
0001
0100
0001
0100
0001
0100
0001
0100
,
1000
0010
1000
0010
1000
0010
1000
0010
,
0100
0010
0100
0010
0100
0010
0100
0010
,
0001
0010
0001
0010
0001
0010
0001
0010
,
0100
0010
0100
0010
0100
0010
0100
0010
,
1000
0100
1000
0100
1000
0100
1000
0100
,
0001
0100
0001
0100
0001
0100
0001
0100
,
0010
0100
0010
0100
0010
0100
0010
0100
,
2002
0000
3003
0000
0220
0000
0330
0001
,
1001
1010
0110
0011
,
0010
0000
0100
0010
0000
1000
0000
0000
0001
0000
0000
0000
0020
0000
0000
0000
,
0030
1000
0100
1000
0000
0010
0100
0010
,
1000
0000
0001
1000
0000
0010
0000
0000
0100
0000
0000
0000
0020
0000
0000
0000
,
0030
0100
0101
0000
0011
0000
1010
0000
,
0100
0000
0001
1000
0000
0010
0000
0000
0100
0000
0000
0000
0020
0000
0000
0000
,
0030
0100
0110
0000
1010
0000
0101
0000
,
0010
0000
1000
0001
0000
1000
0000
0000
0010
0000
0000
0000
0000
0000
0000
0000
,
0100
0000
0000
0000
0010
0000
0000
0010
0000
0000
1000
0000
0001
0000
0100
0000
,
0010
0000
0000
0000
0010
0000
0000
1000
0000
0000
0100
0000
1000
0000
0010
0000
,
0100
0000
0000
0000
0010
0000
0000
0010
0000
0000
1000
0000
0001
0000
0100
0000
,
0010
0000
0000
0000
0100
0000
0000
0000
1000
0000
0000
0010
0000
0000
0100
0000
,
0001
0000
0000
0000
0010
0000
0000
0010
0000
0000
1000
0000
0100
0000
1000
0000
,
0010
0000
0000
0000
0100
0000
0000
0100
0000
0000
0001
0000
1000
0000
0010
0000
,
0100
0000
0000
0000
0010
0000
0000
1000
0000
0000
0001
0000
0100
0000
0010
0000
,
1000
0000
0100
0000
0020
0000
0030
1000
,
0001
0000
0000
0001
0000
0000
0001
0000
0010
0000
0000
0010
0000
0000
0010
0000
,
0100
0000
0000
0100
0000
0000
0100
0000
1000
0000
0000
1000
0000
0000
1000
0000
,
0010
0000
0000
0010
0000
0000
0010
0000
0001
0000
0000
0001
0000
0000
0001
0000
,
0100
0000
0000
0100
0000
0000
0100
0000
0010
0000
0000
0010
0000
0000
0010
0000
,
0100
0000
0000
0100
0000
0000
0100
0000
1000
0000
0000
1000
0000
0000
1000
0000
,
0010
0000
0000
0010
0000
0000
0010
0000
0001
0000
0000
0001
0000
0000
0001
0000
,
0100
0000
0000
0100
0000
0000
0100
0000
0010
0000
0000
0010
0000
0000
0010
0000
,
1000
0000
0000
1000
0000
0000
1000
0000
0100
0000
0000
0100
0000
0000
0001
0000
,
1000
0000
0000
1000
0010
0000
0000
1000
0010
0000
0000
0100
0010
0000
0000
0000
,
0100
0000
0001
1000
0000
0100
0010
0000
,
1000
0000
0000
0001
0100
0000
0000
1000
0010
0000
0000
0100
0010
0000
0000
0001
,
0100
0000
0010
1000
0000
0001
0100
0000
,
1000
0000
0000
0010
1000
0000
0000
0100
1000
0000
0000
0010
0100
0000
0000
0001
,
0100
0000
1000
0010
0000
0100
0001
0000
,
0010
0000
0000
1000
0001
0000
0000
0100
0010
0000
0000
1000
0010
0000
0000
0100
,
0001
0010
1000
0001
,
0010
0000
0000
0000
0100
0000
0000
0010
0000
0000
1000
0000
0001
0000
0100
0000
,
0010
0000
0000
0000
0100
0000
0000
0010
0000
0000
1000
0000
0100
0000
0010
0000
,
0001
0000
0000
0000
0010
0000
0000
0100
0000
0000
1000
0000
0010
0000
0100
0000
,
0001
0000
0000
0000
0010
0000
0000
0000
0100
0000
0000
1000
0000
0000
0010
0000
,
0100
0000
0000
0000
0010
0000
0000
1000
0000
0000
0100
0000
0010
0000
0001
0000
,
1000
0000
0000
0000
0100
0000
0000
0001
0000
0000
0100
0000
0010
0000
1000
0000
,
0010
0000
0000
0000
0100
0000
0000
0001
0000
0000
1000
0000
0010
0000
0100
0000
,
0001
0000
0010
0000
0100
0000
0000
0010
,
0001
1000
0000
1010
0000
0100
0000
0001
,
0100
0010
1010
0000
0101
0000
0000
0000
,
0000
0010
1000
0100
1000
0000
0010
0100
,
0001
1000
0000
1001
0000
0000
0000
0010
,
0100
0010
0100
0001
1000
0100
1000
0000
,
0001
0100
1000
0010
0000
0100
0001
0010
,
1000
0100
1000
0010
0100
0001
1000
0000
,
0100
0010
0001
1000
2002
0000
3003
0010
,
1100
0110
0011
0110
,
1000
0000
0100
0010
0000
0100
0000
0000
0001
0000
0000
0000
0020
0000
0000
0000
,
0030
0100
0001
0100
1000
0000
0010
0000
,
1000
0000
0010
1000
0000
0001
0000
0000
0100
0000
0000
0000
0010
0000
0000
0000
,
1010
0011
0101
1010
,
1000
0000
0001
1000
0000
0010
0000
0000
0100
0000
0000
0000
0020
0000
0000
0000
,
0030
0100
0010
0001
1000
0000
0010
0000
,
1000
0000
0100
0001
0000
0010
0000
0000
0100
0000
0000
0000
0000
0000
0000
0000
,
0010
0000
0000
0000
1000
0000
0000
0100
0000
0000
1000
0000
0010
0000
0100
0000
,
0001
0000
0000
0000
0010
0000
0000
0100
0000
0000
1000
0000
0010
0000
0100
0000
,
0001
0000
0000
0000
0010
0000
0000
0100
0000
0000
0010
0000
1000
0000
0100
0000
,
1000
0000
0000
0000
0100
0000
0000
0000
0001
0000
0000
0100
0000
0000
0010
0000
,
1000
0000
0000
0000
0100
0000
0000
0010
0000
0000
0001
0000
0100
0000
0010
0000
,
1000
0000
0000
0000
0100
0000
0000
0010
0000
0000
0100
0000
0001
0000
1000
0000
,
0010
0000
0000
0000
0100
0000
0000
0010
0000
0000
0100
0000
1000
0000
0010
0000
,
0100
0000
0001
0000
2000
0000
3000
0010
,
0101
0011
1001
0101
,
0010
0000
0001
0010
0000
0100
0000
0000
0010
0000
0000
0000
0200
0000
0000
0000
,
0300
0010
0001
1000
0100
0000
0010
0000
,
1000
0000
0001
1000
0000
0010
0000
0000
0100
0000
0000
0000
0010
0000
0000
0000
,
1100
0110
0011
1100
,
0010
0000
1000
0001
0000
0010
0000
0000
0100
0000
0000
0000
0020
0000
0000
0000
,
0030
0100
0010
0001
1000
0000
0010
0000
,
0100
0000
0001
1000
0000
0010
0000
0000
0100
0000
0000
0000
0000
0000
0000
0000
,
1001
0000
0000
0000
;

//---------------dance-single - ----------------
#NOTES:
     dance-single:
     :
     Challenge:
     9:
     0.539,0.538,0.150,0.121,0.300,840.000,36.000,29.000,0.000,0.000,0.000,0.539,0.538,0.150,0.121,0.300,840.000,36.000,29.000,0.000,0.000,0.000: // measure 1
0000
0000
0000
0000
,  // measure 2
0000
0000
0000
0000
,  // measure 3
0000
0000
0000
0000
,  // measure 4
0000
0000
0000
0000
,  // measure 5
0000
0000
0000
0000
,  // measure 6
0000
0000
0000
0000
,  // measure 7
0000
0000
0000
0000
,  // measure 8
0000
0000
0000
0000
,  // measure 9
0000
0000
0000
0000
,  // measure 10
1000
0000
0000
0000
0100
0000
0000
0001
0000
0000
0010
0000
0100
0000
0001
0000
,  // measure 11
1000
0000
0000
0000
0010
0000
0000
1000
0000
0000
0100
0000
0010
0000
0001
0000
,  // measure 12
0100
0000
0000
0000
0010
0000
0000
1000
0000
0000
0100
0000
0010
0000
0001
0000
,  // measure 13
1000
0000
0000
0000
0010
0000
0000
0000
1000
0000
0000
0001
0000
0100
0010
0000
,  // measure 14
1000
0000
0000
0000
0100
0000
0000
0010
0000
0000
1000
0000
0001
0000
0100
0000
,  // measure 15
0010
0000
0000
0000
0100
0000
0000
0010
0000
0000
0100
0000
1000
0000
0010
0000
,  // measure 16
0100
0000
0000
0000
0001
0000
0000
0100
0000
0000
0010
0000
1000
0000
0100
0000
,  // measure 17
0010
0000
0001
0000
1000
0100
0010
0001
,  // measure 18
1000
0100
1000
0100
1000
0100
1000
0100
,  // measure 19
1000
0010
1000
0010
1000
0010
1000
0010
,  // measure 20
0100
0010
0100
0010
0100
0010
0100
0010
,  // measure 21
0001
0010
0001
0010
0001
0010
0001
0010
,  // measure 22
0100
0000
0010
0000
0100
0000
0010
0000
1000
0000
0100
0000
0001
0000
1000
0001
,  // measure 23
1000
0001
1000
0000
0010
0000
0100
0000
1000
0000
0100
0000
0001
0000
0100
0000
,  // measure 24
1000
0100
1000
0100
1000
0100
1000
0100
,  // measure 25
0010
0000
0001
0000
0100
0000
0010
0000
1000
0001
1000
0001
1000
0001
1000
0001
,  // measure 26
1000
0010
1000
0010
1000
0010
1000
0010
,  // measure 27
0001
0010
0001
0010
0001
0010
0001
0010
,  // measure 28
0100
0010
0100
0010
0100
0010
0100
0010
,  // measure 29
1000
0100
1000
0100
1000
0100
1000
0100
,  // measure 30
0010
0001
0010
0001
0010
0001
0010
0001
,  // measure 31
0100
0010
0100
0010
0100
0010
0100
0010
,  // measure 32
1000
0100
0001
0010
0100
1000
0010
0100
,  // measure 33
0001
1000
0001
1000
0001
1000
0001
1000
0002
0000
0000
0000
0003
0000
0100
0000
,  // measure 34
0020
0000
0031
0000
0110
0010
1001
0000
,  // measure 35
1000
0000
0010
1000
0000
0001
0000
0000
0101
0000
0000
0000
0012
0000
0000
0000
,  // measure 36
1003
0100
0010
0001
0100
1000
0010
1000
,  // measure 37
0100
0000
0001
1000
0000
0010
0000
0000
0100
0000
0000
0000
0020
0000
0000
0000
,  // measure 38
0130
0001
0100
1000
1010
0000
0011
0000
,  // measure 39
0001
0000
0100
0010
0000
1000
0000
0000
0100
0000
0000
0000
2000
0000
0000
0000
,  // measure 40
3010
0001
0100
0010
0100
1000
0100
1000
,  // measure 41
0010
0000
0100
0001
0000
1000
0000
0000
0010
0000
0000
0000
1000
0000
0100
0000
,  // measure 42
1000
0010
1000
0010
1000
0010
1000
0010
,  // measure 43
0001
0010
0001
0010
0001
0010
0001
0010
,  // measure 44
0100
0010
0100
0010
0100
0010
0100
0010
,  // measure 45
1000
0010
1000
0010
1000
0010
1000
0010
,  // measure 46
0100
0010
0100
0010
0100
0010
0100
0010
,  // measure 47
0001
0010
0001
0010
0001
0010
0001
0100
,  // measure 48
1000
0100
1000
0100
1000
0100
1000
0100
,  // measure 49
0001
0000
0100
0000
0001
0000
0100
0000
0001
0100
0001
0100
0001
0100
0001
0100
,  // measure 50
0001
0010
0001
0010
0001
0010
0001
0010
,  // measure 51
0100
0010
0100
0010
0100
0010
0100
0010
,  // measure 52
0100
1000
0100
1000
0100
1000
0100
1000
,  // measure 53
0010
1000
0010
1000
0010
1000
0010
1000
,  // measure 54
0001
0100
1000
0010
1000
0010
1010
0000
,  // measure 55
0010
0100
0001
1001
0000
0010
1001
1000
,  // measure 56
0100
1000
0100
1000
0010
1000
0100
0001
,  // measure 57
1000
0001
1000
0001
1000
0001
1000
0001
2000
0000
0000
0000
3000
0000
0100
0000
,  // measure 58
0010
0000
0100
0000
1010
1000
1001
0000
,  // measure 59
0001
0000
1000
0010
0000
0100
0000
0000
1010
0000
0000
0000
0002
0000
0000
0000
,  // measure 60
0103
0010
1000
0100
1000
0010
0100
0001
,  // measure 61
0100
0000
0010
1000
0000
0100
0000
0000
0010
0000
0000
0000
1002
0000
0000
0000
,  // measure 62
0103
1000
0010
1000
1100
0000
0011
0000
,  // measure 63
0010
0000
1000
0100
0000
0010
0000
0000
0100
0000
0000
0000
0002
0000
0000
0000
,  // measure 64
0103
1000
0100
1000
0010
1000
0100
1000
,  // measure 65
0001
0000
1000
0001
0000
0100
0000
0000
0010
0100
0010
0100
0010
0100
0010
0100
,  // measure 66
0010
0000
0000
0000
1000
0000
0000
0100
0000
0000
1000
0000
0010
0000
1000
0000
,  // measure 67
0001
0000
0000
0000
0100
0000
0000
0001
0000
0000
0010
0000
1000
0000
0100
0000
,  // measure 68
1000
0000
0000
0000
0100
0000
0000
0001
0000
0000
0100
0000
0010
0000
1000
0000
,  // measure 69
0001
0000
0000
0000
0100
0000
0000
0000
0010
0000
0000
1000
0000
0100
0001
0000
,  // measure 70
1000
0000
0000
0000
0100
0000
0000
0001
0000
0000
0010
0000
0100
0000
0001
0000
,  // measure 71
1000
0000
0000
0000
0010
0000
0000
1000
0000
0000
0100
0000
1000
0000
0010
0000
,  // measure 72
0100
0000
0000
0000
0001
0000
0000
0010
0000
0000
0100
0000
1000
0000
0010
0000
,  // measure 73
0100
0000
0001
0000
2002
0000
3003
0100
,  // measure 74
0010
0000
0000
0010
0000
0100
0010
0000
0100
0000
0000
0100
0000
0100
1000
0000
,  // measure 75
0100
0000
0000
0001
0000
1000
0001
0000
0010
0000
0000
0100
0000
0010
1000
0000
,  // measure 76
0100
0000
0000
0001
0000
0010
0100
0000
1000
0000
0000
0100
0000
0010
1000
0000
,  // measure 77
0100
0000
0000
0001
0000
0100
0010
0000
0100
0000
0000
1000
0000
0010
0100
0000
,  // measure 78
0001
0000
0000
0001
0000
0100
0010
0000
0100
0000
0000
0010
0000
1000
0001
0000
,  // measure 79
1000
0000
0000
0100
0000
0010
0100
0000
0001
0000
0000
1000
0000
0100
0010
0000
,  // measure 80
0100
0000
0000
0001
0000
0010
0100
0000
1000
0000
0000
0100
0000
0010
0100
0000
,  // measure 81
0001
0000
0000
1000
0000
0010
0100
0000
0001
0000
0000
0010
0000
0100
1000
0000
,  // measure 82
0010
0000
0000
0001
0100
0000
0000
0010
1000
0000
0000
1000
0010
0000
0000
0100
,  // measure 83
0010
0001
0100
0020
0000
0130
1000
0010
,  // measure 84
0100
0000
0000
0001
0100
0000
0000
0010
1000
0000
0000
0100
0010
0000
0000
0001
,  // measure 85
1000
0100
1000
0002
0000
0103
0020
0000
,  // measure 86
0130
0000
0000
0100
1000
0000
0000
0010
0100
0000
0000
0001
0100
0000
0000
0010
,  // measure 87
1000
0100
0010
0002
0000
0103
0020
0000
,  // measure 88
1030
0000
0000
0100
0010
0000
0000
1000
0001
0000
0000
0100
0010
0000
0000
1000
,  // measure 89
0002
2003
3200
0320
,  // measure 90
0031
0000
0000
0000
0100
0000
0000
0010
0000
0000
0100
0000
1000
0000
0010
0000
,  // measure 91
0100
0000
0000
0000
0001
0000
0000
0100
0000
0000
0010
0000
0100
0000
1000
0000
,  // measure 92
0010
0000
0000
0000
0100
0000
0000
0001
0000
0000
0100
0000
0010
0000
1000
0000
,  // measure 93
0001
0000
0000
0000
0010
0000
0000
0000
1000
0000
0000
0001
0000
0100
0010
0000
,  // measure 94
1000
0000
0000
0000
0100
0000
0000
0001
0000
0000
1000
0000
0010
0000
0100
0000
,  // measure 95
0001
0000
0000
0000
0010
0000
0000
0100
0000
0000
1000
0000
0010
0000
0100
0000
,  // measure 96
0001
0000
0000
0000
0010
0000
0000
0100
0000
0000
1000
0000
0010
0000
0100
0000
,  // measure 97
0001
0000
0000
0000
0010
0000
0000
0000
0100
1000
0100
1000
0100
0000
0010
0000
,  // measure 98
0001
0011
0000
0110
0000
1000
0000
1000
,  // measure 99
0100
0010
0001
0000
1000
0000
0000
0000
,  // measure 100
0100
0001
1000
0010
1000
0000
0010
1000
,  // measure 101
0100
0010
0000
0011
0000
0110
1010
0000
,  // measure 102
1000
0100
1000
0010
1000
0001
0100
0000
,  // measure 103
0010
1000
0001
1001
0000
0101
0001
0100
,  // measure 104
0010
1000
0010
1000
0100
0010
0011
0000
,  // measure 105
0010
1000
0010
1000
0010
1000
0010
1000
0020
0000
0000
0000
0030
0000
0100
0000
,  // measure 106
0001
0000
0010
0000
0110
0010
0110
0000
,  // measure 107
1000
0000
0001
1000
0000
0001
0000
0000
0010
0000
0000
0000
0200
0000
0000
0000
,  // measure 108
0301
0010
0001
1000
0000
0010
1000
0100
,  // measure 109
1000
0000
0100
0010
0000
0001
0000
0000
0010
0000
0000
0000
0200
0000
0000
0000
,  // measure 110
0301
0000
1000
0000
1010
0010
1010
0000
,  // measure 111
0100
0000
0001
1000
0000
0010
0000
0000
0100
0000
0000
0000
0020
0000
0000
0000
,  // measure 112
1030
0100
1000
0010
0100
0000
0001
0000
,  // measure 113
1000
0000
0100
0010
0000
0100
0000
0000
1001
0000
0000
0000
0000
0000
0000
0000
,  // measure 114
0010
0000
0000
0000
1000
0000
0000
0100
0000
0000
0010
0000
1000
0000
0001
0000
,  // measure 115
0100
0000
0000
0000
0010
0000
0000
0100
0000
0000
0010
0000
1000
0000
0100
0000
,  // measure 116
0001
0000
0000
0000
0010
0000
0000
0100
0000
0000
0010
0000
1000
0000
0001
0000
,  // measure 117
1000
0000
0000
0000
0100
0000
0000
0000
0010
0000
0000
1000
0000
0001
1000
0000
,  // measure 118
0010
0000
0000
0000
0100
0000
0000
0010
0000
0000
0100
0000
0001
0000
1000
0000
,  // measure 119
0010
0000
0000
0000
0100
0000
0000
0010
0000
0000
0100
0000
0001
0000
1000
0000
,  // measure 120
0010
0000
0000
0000
0100
0000
0000
0010
0000
0000
0100
0000
1000
0000
0001
0000
,  // measure 121
1000
0000
0010
0000
2002
0000
3003
0010
,  // measure 122
0100
0000
1000
0000
1100
0100
0110
0000
,  // measure 123
0001
0000
1000
0001
0000
1000
0000
0000
0010
0000
0000
0000
0201
0000
0000
0000
,  // measure 124
0310
0001
1000
0010
0000
0100
0001
1000
,  // measure 125
0010
0000
0100
1000
0000
0010
0000
0000
0100
0000
0000
0000
0002
0000
0000
0000
,  // measure 126
0013
1000
0001
1000
1001
0000
0011
0000
,  // measure 127
0010
0000
1000
0100
0000
1000
0000
0000
0010
0000
0000
0000
1200
0000
0000
0000
,  // measure 128
0301
0010
1000
0001
0000
0100
0010
1000
,  // measure 129
0001
0000
0100
0010
0000
1000
0000
0000
0001
1000
0001
1000
0001
1000
0001
1000
,  // measure 130
0001
0000
0000
0000
;
