#TITLE:Rock Star;
#SUBTITLE:;
#ARTIST:HRK;
#TITLETRANSLIT:;
#SUBTITLETRANSLIT:;
#ARTISTTRANSLIT:;
#GENRE:;
#CREDIT:;
#BANNER:Rock Star.png;
#BACKGROUND:Rock Star-bg.png;
#LYRICSPATH:;
#CDTITLE:./CDTITLES/Gacha Life.png;
#MUSIC:Rock Star.ogg;
#OFFSET:2.714;
#SAMPLESTART:22.371;
#SAMPLELENGTH:12.000;
#SELECTABLE:YES;
#DISPLAYBPM:130.000;
#BPMS:0.000=130.340,56.000=130.000,120.000=130.340,136.000=130.980,152.000=130.340;
#STOPS:;
#BGCHANGES:;
#KEYSOUNDS:;

//---------------dance-single - ----------------
#NOTES:
     dance-single:
     :
     Easy:
     5:
     0.299,0.327,0.290,0.000,0.000,149.000,24.000,0.000,0.000,0.000,0.000,0.299,0.327,0.290,0.000,0.000,149.000,24.000,0.000,0.000,0.000,0.000:
0000
0000
0000
0000
,
0000
0000
0000
0000
,
0000
0000
0000
0000
,
0000
0000
0000
0010
,
0110
0000
0000
0100
,
1100
0000
0000
0000
,
0010
0001
0100
0100
,
0010
0001
0100
0100
,
0010
0001
0100
0100
,
0010
0001
0100
0100
,
0010
1000
0100
0100
,
0010
1000
0100
0100
,
0000
0000
1001
0000
,
0010
1000
0010
0100
,
0001
0001
0100
0000
,
0010
0000
0010
0000
1000
0000
0001
1000
,
0000
0010
0100
0010
,
0010
0001
0100
1000
,
0010
1000
0001
0000
,
0010
0000
0100
0000
0001
0000
1000
0001
,
0000
0010
0100
0010
,
1000
1000
0100
0001
,
1000
0010
0110
0000
,
0011
0000
1001
0000
0110
0000
1000
0001
,
0000
0010
0100
0010
,
1000
0100
1000
0010
,
1000
0100
0110
0000
,
0001
0000
0100
0000
1000
0000
0010
0100
,
0000
0010
1000
0100
,
1000
0010
0100
0001
,
1001
0001
0100
0001
,
0100
0010
0110
0000
,
1001
0001
0100
0001
,
0100
1000
1100
0011
,
1001
0001
1000
0001
,
1000
0010
0110
0000
,
1000
0100
0001
0010
,
0100
0000
0110
0000
,
0011
0010
0100
0010
,
0100
1000
1010
0110
,
0011
0001
0010
0100
,
1000
0010
0110
1001
,
1010
0010
1000
0010
,
0100
0001
1000
0010
,
0100
0001
1000
0000
,
1001
0000
0000
0000
;

//---------------dance-single - ----------------
#NOTES:
     dance-single:
     :
     Medium:
     6:
     0.344,0.408,0.242,0.097,0.000,171.000,20.000,8.000,0.000,0.000,0.000,0.344,0.408,0.242,0.097,0.000,171.000,20.000,8.000,0.000,0.000,0.000:
0000
0000
0000
0000
,
0000
0000
0000
0000
,
0000
0000
0000
0000
,
0000
0000
0000
0100
,
0110
0000
0000
0001
,
1001
0000
0000
1001
,
0010
0001
0100
0100
,
0010
0001
0100
0100
,
0010
0001
0100
0100
,
0010
0001
0100
0100
,
0010
0001
0100
0100
,
0010
0001
0100
0100
,
1000
0010
1000
0010
1000
0010
1000
0010
,
0001
0100
1000
0010
1000
0000
1100
0000
,
0020
0000
0031
0000
0010
0001
0000
0000
,
0020
0000
0130
0000
1000
0001
0010
1000
,
0000
0100
0010
0100
,
0010
0100
0001
1001
,
0020
0000
1030
0000
0001
1000
0000
0000
,
0200
0000
0310
0000
0001
0100
1000
0010
,
0000
0100
0010
0100
,
0001
0100
0001
0101
,
0020
0000
1030
0000
0001
1000
0000
0000
,
0200
0000
0301
0000
1000
0100
0001
1000
,
0000
0010
1000
0010
,
1000
0010
1000
1001
,
0200
0000
0301
0000
0010
1000
0000
0000
,
0200
0000
0301
0000
1000
0100
0001
1000
,
0000
0010
1000
0010
,
1000
0001
1000
0011
,
0110
0010
0100
0010
,
0100
1000
1001
0000
,
1010
1000
0010
1000
,
0010
0100
0100
1000
,
1001
0001
1000
0010
,
1000
0100
0010
0001
,
0100
1000
0001
1000
,
1010
1001
1100
0000
,
1001
0001
0100
0001
,
1000
0010
1000
1000
,
0110
0010
0001
0010
,
0100
0010
1000
1000
,
0101
0100
0010
0100
,
1000
0100
0010
0010
,
1001
0000
0110
0000
0001
1000
0000
0010
,
0100
0000
0000
0000
;

//---------------dance-single - ----------------
#NOTES:
     dance-single:
     :
     Beginner:
     1:
     0.154,0.136,0.097,0.000,0.000,81.000,8.000,0.000,0.000,0.000,0.000,0.154,0.136,0.097,0.000,0.000,81.000,8.000,0.000,0.000,0.000,0.000:
0000
0000
0000
0000
,
0000
0000
0000
0000
,
0000
0000
0000
0000
,
0000
0000
0000
0010
,
0010
0000
0000
0100
,
0100
0000
0000
0010
,
0010
0000
0010
0000
,
0010
0000
0010
0000
,
0001
0000
0001
0000
,
0001
0000
0001
0000
,
1000
0000
1000
0000
,
1000
0000
1000
0000
,
0100
0000
0100
0000
,
0100
0000
0000
0000
,
0010
0010
0000
0000
,
0001
0001
0000
0000
,
1000
0000
0010
0000
,
0100
0000
0000
0000
,
0001
0001
0000
0000
,
1000
1000
0000
0000
,
0010
0000
0001
0000
,
0100
0000
0010
0000
,
1000
1000
0000
0000
,
0010
0010
0000
0000
,
0100
0000
0010
0000
,
1000
0000
0001
0000
,
0100
0100
0000
0000
,
0010
0010
0000
0000
,
0100
0000
0001
0000
,
1000
0000
0010
0000
,
1001
0000
0010
0000
,
0100
0000
0010
0000
,
1001
0000
1000
0000
,
0010
0000
1000
0000
,
0110
0000
0001
0000
,
1000
0000
0010
0000
,
0100
0000
0100
0000
,
0010
0000
0000
0000
,
1001
0000
0001
0000
,
1000
0000
0010
0000
,
0110
0000
0010
0000
,
0100
0000
0001
0000
,
1001
0000
0010
0000
,
0100
0000
0010
0000
,
0110
0000
0010
0000
,
1001
0000
0000
0000
;

//---------------dance-single - ----------------
#NOTES:
     dance-single:
     :
     Hard:
     8:
     0.446,0.463,0.460,0.024,0.133,218.000,38.000,2.000,0.000,0.000,0.000,0.446,0.463,0.460,0.024,0.133,218.000,38.000,2.000,0.000,0.000,0.000:
0000
0000
0000
0000
,
0000
0000
0000
0000
,
0000
0000
0000
0000
,
0000
0000
0000
0000
0000
0000
0010
0100
,
0020
0000
0031
1000
0000
0000
0100
0010
,
0200
0000
0301
1000
0000
0000
1001
0000
,
0001
0000
0000
0000
0010
0000
0000
0000
0001
0000
0000
0001
0000
0000
0010
0000
,
1000
0000
0000
0000
0100
0000
0000
0000
0010
0000
0000
0010
0000
0000
0100
0000
,
1000
0000
0000
0000
0100
0000
0000
0000
0001
0000
0000
0001
0000
0000
1000
0000
,
0010
0000
0000
0000
0100
0000
0000
0000
0001
0000
0000
0001
0000
0000
0010
0000
,
0100
0000
0000
0000
1000
0000
0000
0000
0100
0000
0000
0100
0000
0000
0010
0000
,
0001
0000
0000
0000
0010
0000
0000
0000
1000
0000
0000
1000
0000
0000
0001
0000
,
0100
0100
0010
0010
1000
1000
0100
0100
,
0001
0010
1000
0001
1000
0100
0010
0011
,
0000
0000
0100
0000
0010
1001
0000
0100
,
0000
0010
0001
0010
0100
1000
0010
0100
,
0000
0011
0100
1000
,
1010
0000
0010
0000
0100
0001
1000
1010
,
0000
0000
0010
0000
1000
1001
0000
0010
,
0000
1000
0010
0100
0001
1000
0010
0110
,
0000
1010
0010
0100
,
0101
0000
0010
0000
0001
0010
1000
0110
,
0000
0000
1000
0000
0001
0101
0000
0010
,
0000
0010
0100
1000
0010
0100
0001
1001
,
0000
1010
1000
0100
,
0110
0000
0001
0000
1000
0010
0001
1001
,
0000
0000
1100
0000
0010
1001
0000
0100
,
0000
0010
0100
1000
0010
0100
0001
1001
,
0000
0110
0001
0100
,
1001
0000
1000
0000
0010
1000
0010
1000
,
0001
0000
0000
0001
0100
0000
0000
0000
1010
0000
0000
0000
0100
0000
0000
0001
,
1000
0000
0000
0010
0000
0000
0100
0000
0000
0000
0010
0001
0010
0000
1000
0000
,
0001
0000
0000
0001
1000
0000
0000
0000
1010
0000
0000
0000
0100
0000
0000
0001
,
1000
0000
0000
0010
0000
0000
0100
0000
0000
0000
0001
0000
0000
0001
1000
0000
,
1001
0000
0000
0000
0010
0000
0000
1000
0010
0000
0000
0000
0101
0000
0000
0000
,
0010
0000
0000
1000
0000
0000
0001
0000
0000
0000
0101
0000
0000
0000
0000
0000
,
0011
0000
0110
0100
0000
0001
1000
1001
,
0000
0000
0000
0000
0100
0000
0000
0100
0010
0000
1000
0000
0001
0000
0100
0000
,
1000
0000
0000
0000
0010
0000
0000
1000
0001
0000
0000
0000
0110
0000
0000
0000
,
0001
0000
0000
0010
0000
0000
0100
0000
0000
0000
0010
0000
0000
0000
1000
0000
,
1010
0000
0000
0000
0100
0000
0000
0010
0100
0000
0000
0000
1001
0000
0000
0000
,
0010
0000
0000
0010
0000
0000
0100
0000
0000
0000
0001
0000
0000
0000
1000
0000
,
1001
0000
0000
0000
0010
0000
0000
1000
0001
0000
0000
0000
1001
0000
0000
0000
,
0100
0110
0000
0010
0000
1000
0000
0000
,
0011
0000
1100
0000
0001
1000
0000
0010
,
1001
0000
0000
0000
;

//---------------dance-single - ----------------
#NOTES:
     dance-single:
     :
     Challenge:
     9:
     0.523,0.626,0.278,0.109,0.302,271.000,23.000,9.000,0.000,0.000,0.000,0.523,0.626,0.278,0.109,0.302,271.000,23.000,9.000,0.000,0.000,0.000: // measure 1
0000
0000
0000
0000
,  // measure 2
0000
0000
0000
0000
,  // measure 3
0000
0000
0000
0000
,  // measure 4
0000
0000
0000
0000
0000
0000
0010
1000
,  // measure 5
0002
0000
0103
0010
0000
0000
1000
0100
,  // measure 6
2000
0000
3010
0100
0000
0000
0010
0000
,  // measure 7
1001
0000
0000
0000
1010
0000
0000
0000
0100
0000
0010
0100
0000
0100
0010
0000
,  // measure 8
1010
0000
0000
0000
0011
0000
0000
0000
0010
0000
1000
0001
0000
0001
1000
0000
,  // measure 9
1100
0000
0000
0000
0110
0000
0000
0000
0001
0000
1000
0010
0000
1000
0100
0000
,  // measure 10
0110
0000
0000
0000
1010
0000
0000
0000
0010
0000
1000
0001
0000
0100
0010
0000
,  // measure 11
1001
0000
0000
0000
0101
0000
0000
0000
0010
0000
1000
0001
0000
0100
0010
0000
,  // measure 12
1010
0000
0000
0000
0011
0000
0000
0000
0100
0000
0010
1000
0000
0100
0010
0000
,  // measure 13
1000
0010
1000
0010
1000
0010
1000
0010
,  // measure 14
0100
0010
0100
0010
0100
0010
0100
0010
0100
0010
0100
0010
0100
0000
0002
0000
,  // measure 15
0000
0000
0013
0000
1000
0010
0100
0002
,  // measure 16
0000
1003
0100
1000
0010
0100
0010
0100
,  // measure 17
0000
0010
1000
0001
0000
0100
1000
0010
,  // measure 18
0000
0100
0001
1000
0000
0010
1000
0002
,  // measure 19
0000
0000
0103
0000
0010
1000
0000
0100
,  // measure 20
0000
0010
1000
0001
0100
0010
1000
0001
,  // measure 21
0000
0100
0010
1000
0000
0010
0100
0001
,  // measure 22
0000
1000
0010
0100
0000
0001
1000
0020
,  // measure 23
0000
0000
0130
0000
0010
1000
0000
0200
,  // measure 24
0000
0301
1000
0010
0100
0001
1000
0010
,  // measure 25
0000
1000
0100
0010
0000
0001
0100
0010
,  // measure 26
0000
1000
0001
0100
0000
1000
0010
0002
,  // measure 27
0000
0000
0103
0000
0010
1000
0000
0200
,  // measure 28
0000
0301
1000
0010
1000
0010
0100
0001
,  // measure 29
0000
1000
0010
0100
0000
0010
0100
1000
,  // measure 30
0000
0100
0010
0001
1000
0010
0100
0001
,  // measure 31
1000
0000
0000
0000
0100
0000
0000
0010
0100
0000
0000
1000
0001
0000
0000
0100
,  // measure 32
0010
0000
0001
0100
0000
0001
0100
0000
0000
0000
0010
0000
0100
0000
1000
0000
,  // measure 33
0010
0000
0000
0100
0010
0000
0000
0001
1000
0000
0000
0010
0100
0000
0000
0001
,  // measure 34
1000
0000
0010
1000
0000
0010
0100
0000
0000
0000
0010
0000
0000
0000
1000
0000
,  // measure 35
1100
0000
0000
0000
0010
0000
0000
0001
0010
0000
0000
0100
1000
0000
0000
0010
,  // measure 36
0100
0000
0010
1000
0000
0001
0100
0000
0000
0000
0010
0000
0000
0000
0000
0000
,  // measure 37
1100
0000
0011
0010
0000
1000
0100
1001
,  // measure 38
0000
0001
0100
1000
0010
0100
0001
1000
,  // measure 39
0010
0000
0000
0100
0010
0000
0000
1000
0001
0000
0000
0100
0010
0000
0000
1000
,  // measure 40
0100
0000
0010
0001
0000
0100
0010
0000
0000
0000
0100
0000
0000
0000
0000
0000
,  // measure 41
0010
0000
0000
1000
0001
0000
0000
0100
0010
0000
0000
1000
0100
0000
0000
0010
,  // measure 42
0001
0000
0100
0010
0000
1000
0001
0000
0000
0000
0100
0000
0000
0000
0000
0000
,  // measure 43
1000
0000
0000
0100
0010
0000
0000
0001
0100
0000
0000
0010
1000
0000
0000
0100
,  // measure 44
0010
1001
0000
0110
0000
0011
0000
0000
,  // measure 45
1010
0000
0110
0000
0100
0011
0000
0100
,  // measure 46
1001
0000
0000
0000
;
