#TITLE:ライアードラゴン;
#SUBTITLE:;
#ARTIST:MP3VA vs. DJ Sammy;
#TITLETRANSLIT:Raiadoragon;
#SUBTITLETRANSLIT:;
#ARTISTTRANSLIT:;
#GENRE:;
#CREDIT:;
#BANNER:Raiadoragon.png;
#BACKGROUND:Raiadoragon-bg.png;
#LYRICSPATH:;
#CDTITLE:.\CDTITLES\MP3VA.PNG;
#MUSIC:Raiadoragon.ogg;
#OFFSET:1.300;
#SAMPLESTART:12.740;
#SAMPLELENGTH:15.000;
#SELECTABLE:YES;
#DISPLAYBPM:85.000:340.000;
#BPMS:0.000=170.000,40.000=340.000,104.000=170.000,140.000=340.000,204.000=170.000,240.000=85.000,276.000=170.000,280.000=340.000,536.000=170.000,564.000=340.000;
#STOPS:;
#BGCHANGES:0.000=Raiadoragon-bg.png=1.000=0=0=1=====,
4.000=Raiadoragon.avi=1.000=0=0=1=====,
592.000=Raiadoragon-bg.png=1.000=0=0=1=====,
99999=-nosongbg-=1.000=0=0=0 // don't automatically add -songbackground-
;
#KEYSOUNDS:;

//---------------dance-single - ----------------
#NOTES:
     dance-single:
     :
     Easy:
     6:
     0.410,0.584,0.343,0.000,0.000,375.000,51.000,0.000,0.000,0.000,0.000,0.410,0.584,0.343,0.000,0.000,375.000,51.000,0.000,0.000,0.000,0.000:
0000
0000
0000
0000
,
0000
0000
0000
0000
,
1000
1000
1000
1000
,
1000
1000
1000
1100
,
0001
0001
0001
0001
,
0001
0001
0001
0011
,
0100
0100
0100
0100
,
0100
0100
0100
0110
,
1000
1000
1000
1000
,
1000
1000
1000
1100
,
0010
0000
0010
0000
,
0010
0000
0010
0000
,
0010
0000
0010
0000
,
0010
0000
0011
0000
,
0100
0000
0100
0000
,
0100
0000
0100
0000
,
0100
0000
0100
0000
,
0100
0000
0110
0000
,
1000
0000
1000
0000
,
1000
0000
1000
0000
,
1000
0000
1000
0000
,
1000
0000
1100
0000
,
0001
0000
0001
0000
,
0001
0000
0001
0000
,
0001
0000
0001
0000
,
0001
0000
0101
0000
,
1010
0000
0011
0000
0000
0100
0010
0000
,
1000
1000
1000
1000
,
1000
0000
1000
0000
1000
0001
0100
0000
,
0001
0001
0001
0001
,
0001
0000
0001
0000
0001
1000
0010
0000
,
0100
0100
0100
0100
,
0100
0000
0100
0000
0100
0001
0010
0000
,
0001
0001
0001
0001
,
0001
0001
1001
0011
,
1000
0000
0100
0000
,
0010
0000
0001
0000
,
1000
0000
0100
0000
,
1000
0000
1001
0000
,
0010
0000
0100
0000
,
0001
0000
0100
0000
,
0010
0000
1000
0000
,
0010
0000
0110
0000
,
0001
0000
1000
0000
,
0001
0000
0100
0000
,
0010
0000
1000
0000
,
0100
0000
0011
0000
,
0010
0000
1000
0000
,
0100
0000
1000
0000
,
0010
0000
0100
0000
,
0001
0000
1000
0000
,
1000
0100
0010
0010
,
0010
0001
0100
0100
,
0100
1000
0010
0010
,
0010
0100
1001
0110
,
1000
0100
0010
0010
,
0010
0001
0100
0100
,
0100
0010
1000
1000
,
1000
0010
0100
0001
,
1001
0000
0000
0000
,
1000
1100
0001
0011
,
1000
1001
0100
0110
,
1000
1100
0001
0011
,
1000
1001
0100
0110
,
1000
1100
0010
0011
,
0100
0110
1000
1010
,
0100
0110
0001
0011
,
0100
0110
1000
1100
,
0001
0011
0100
0110
,
1000
1000
1000
1000
,
0001
0000
0010
0000
,
0001
0000
0010
0000
,
0100
0000
1000
0000
,
0010
0010
0010
0000
,
0100
0000
0001
0000
,
1000
0000
0010
0000
,
1000
0000
0100
0000
,
0010
0000
1001
0000
,
0100
0000
0010
0000
,
0100
0000
1000
0000
,
1000
0000
0100
0000
,
0001
0000
0010
0000
,
0100
0000
0010
0000
,
1000
0000
0100
0000
,
0010
0000
0001
0000
,
1000
0000
0000
0000
,
0100
0000
0001
0000
,
1000
0000
0010
0000
,
0100
0000
0001
0000
,
0100
0100
0100
0000
,
0010
0000
1000
0000
,
0101
0000
1010
0000
,
0010
0000
0100
0000
,
0010
0000
1001
0000
,
0010
0000
0100
0000
,
0010
0000
1000
0000
,
0100
0000
0010
0000
,
0001
0000
1000
0000
,
1010
0000
0100
0000
,
0001
0000
1000
0000
,
0011
0000
0100
0000
,
0000
1000
0001
0000
,
0010
0000
0100
0000
,
0100
0000
0100
0000
,
0010
0000
1000
0000
,
1000
0000
1000
0000
,
0100
0000
0001
0000
,
0001
0000
0001
0000
,
0010
0000
0100
0000
,
0100
0000
0100
0000
,
1000
0000
0010
0000
,
0010
0000
0010
0000
,
0100
0000
0001
0000
,
0001
0000
0001
0000
,
0100
0000
0010
0000
,
0010
0000
0010
0000
,
1000
0000
0100
0000
,
0100
0000
0001
1000
,
0010
0000
0010
0000
,
0010
0000
0100
0000
,
0001
0000
1000
0000
,
1000
0000
0010
0000
,
0100
0000
0001
0000
,
0001
0000
1000
0000
,
0010
0000
0100
0000
,
0010
0000
0010
0000
,
0100
0000
1000
0000
,
0010
0000
0010
0000
,
0100
0000
0001
0000
,
1000
0000
1000
0000
,
0010
0000
0100
0000
,
0001
0000
0001
0000
,
1000
0000
0010
0000
,
1000
0000
1000
0000
,
0100
0100
0100
1001
,
0010
0010
0010
1001
,
0100
0100
0100
1001
,
0010
0010
0010
0110
,
1000
1000
1000
1001
,
0010
0010
0010
0110
,
1000
1000
1000
1001
,
0010
0000
0010
0000
,
1000
0000
0001
0000
,
0110
0000
1001
0000
,
0001
1000
0010
0000
;

//---------------dance-single - ----------------
#NOTES:
     dance-single:
     :
     Beginner:
     3:
     0.213,0.340,0.135,0.000,0.000,202.000,20.000,0.000,0.000,0.000,0.000,0.213,0.340,0.135,0.000,0.000,202.000,20.000,0.000,0.000,0.000,0.000:
0000
0000
0000
0000
,
0000
0000
0000
0000
,
1000
0000
1000
0000
,
0100
0000
0100
0000
,
1000
0000
1000
0000
,
0010
0000
0010
0000
,
0100
0000
0100
0000
,
0001
0000
0001
0000
,
0010
0000
0010
0000
,
0100
0000
0100
0000
,
1000
0000
0000
0000
,
1000
0000
0000
0000
,
0100
0000
0000
0000
,
0100
0000
0000
0000
,
0010
0000
0000
0000
,
0010
0000
0000
0000
,
0001
0000
0000
0000
,
0001
0000
0000
0000
,
0010
0000
0000
0000
,
0010
0000
0000
0000
,
0100
0000
0000
0000
,
0100
0000
0000
0000
,
1000
0000
0000
0000
,
1000
0000
0000
0000
,
0010
0000
0000
0000
,
0000
0000
0000
0000
,
0010
0010
0000
0100
,
0010
0000
0010
0000
,
0100
0000
0100
0000
,
1000
0000
1000
0000
,
0010
0000
0000
0000
,
0010
0000
0010
0000
,
0100
0000
0100
0000
,
0001
0000
0001
0000
,
1001
0000
0000
0100
,
0100
0000
0000
0000
,
0010
0000
0000
0000
,
0001
0000
0000
0000
,
0000
0000
1000
0000
,
0100
0000
0000
0000
,
0010
0000
0000
0000
,
0100
0000
0000
0000
,
0000
0000
0001
0000
,
1000
0000
0000
0000
,
0100
0000
0000
0000
,
0010
0000
0000
0000
,
0000
0000
0100
0000
,
0110
0000
0000
0000
,
0001
0000
0000
0000
,
1000
0000
0000
0000
,
0000
0000
0010
0000
,
1001
0000
0001
0000
,
0100
0000
1000
0000
,
0010
0000
0110
0000
,
1000
0000
0000
0000
,
1001
0000
0100
0000
,
0110
0000
0010
0000
,
1001
0000
0110
0000
,
1001
1001
1001
0000
,
0010
0000
0000
0000
,
0100
0100
0100
0000
,
0010
0010
0010
0000
,
0001
0001
0001
0000
,
1000
1000
1000
0000
,
0010
0010
0001
0000
,
0001
0001
0100
0000
,
0100
0100
1000
0000
,
1000
1000
0010
0000
,
0010
0000
0000
0000
,
0100
0000
0000
0000
,
0010
0000
0000
0000
,
0010
0000
0000
0000
,
0100
0000
0000
0000
,
0100
0000
0000
0000
,
1000
0000
0000
0000
,
1000
0000
0000
0000
,
0010
0000
1000
0000
,
0001
0000
0000
0000
,
0100
0000
0000
0000
,
0100
0000
0000
0000
,
0010
0000
0000
0000
,
0010
0000
0000
0000
,
0100
0000
0000
0000
,
0100
0000
0000
0000
,
1000
0000
0001
0000
,
0010
0000
0000
0000
,
1100
0000
0000
0000
,
0010
0000
0000
0000
,
0110
0000
0000
0000
,
0010
0000
0000
0000
,
0011
0000
0000
0000
,
0100
0000
0000
0000
,
1000
0000
0001
0000
,
1000
0000
0000
0000
,
0010
0000
0000
0000
,
0110
0000
0000
0000
,
1000
0000
0000
0000
,
1010
0000
0000
0000
,
0100
0000
0000
0000
,
0110
0000
0000
0000
,
0001
0000
0000
0000
,
0000
0010
0010
0000
,
0100
0000
0000
0000
,
1000
0000
0000
0000
,
0100
0000
0000
0000
,
0001
0000
0000
0000
,
0100
0000
0000
0000
,
1000
0000
0000
0000
,
0100
0000
0100
0000
,
0001
0000
0001
0000
,
0010
0000
0000
0000
,
0100
0000
0000
0000
,
1000
0000
0000
0000
,
0100
0000
0000
0000
,
0001
0000
0000
0000
,
0100
0000
0000
0000
,
0010
0000
0010
0000
,
1000
0000
1000
0000
,
0001
0000
0000
0000
,
0001
0000
0000
0000
,
0100
0000
0000
0000
,
0100
0000
0000
0000
,
0010
0000
0000
0000
,
0010
0000
0000
0000
,
1000
0000
0100
0000
,
0010
0000
0000
0000
,
0001
0000
0000
0000
,
0001
0000
0000
0000
,
0100
0000
0000
0000
,
0100
0000
0000
0000
,
0010
0000
0000
0000
,
0010
0000
0000
0000
,
1000
0000
0100
0000
,
0001
0000
0000
0000
,
0010
0000
0010
0000
,
0010
0000
0010
0000
,
0100
0000
0100
0000
,
0100
0000
0100
0000
,
0010
0000
1001
0000
,
0100
0000
1001
0000
,
0010
0000
0110
0000
,
1000
0000
0000
0000
,
0001
0000
0000
0000
,
0010
0000
0010
0000
,
0000
0100
0100
0000
;

//---------------dance-single - ----------------
#NOTES:
     dance-single:
     :
     Medium:
     7:
     0.577,0.827,0.276,0.054,0.077,551.000,41.000,8.000,0.000,0.000,0.000,0.577,0.827,0.276,0.054,0.077,551.000,41.000,8.000,0.000,0.000,0.000: // measure 1
0000
0000
0000
0000
,  // measure 2
0000
0000
0000
0000
,  // measure 3
1000
1000
1000
1000
,  // measure 4
1000
1000
1000
1001
,  // measure 5
0001
0001
0001
0001
,  // measure 6
0001
0001
0001
0011
,  // measure 7
0010
0010
0010
0010
,  // measure 8
0010
0010
0010
0110
,  // measure 9
0100
0100
0100
0100
,  // measure 10
0100
0100
0100
1001
,  // measure 11
0010
0000
0010
0000
,  // measure 12
0010
0000
0010
0000
,  // measure 13
0010
0000
0010
0000
,  // measure 14
0010
0000
0110
0000
,  // measure 15
1000
0000
1000
0000
,  // measure 16
1000
0000
1000
0000
,  // measure 17
1000
0000
1000
0000
,  // measure 18
1000
0000
1100
0000
,  // measure 19
0001
0000
0001
0000
,  // measure 20
0001
0000
0001
0000
,  // measure 21
0001
0000
0001
0000
,  // measure 22
0001
0000
0011
0000
,  // measure 23
0100
0000
0100
0000
,  // measure 24
0100
0000
0100
0000
,  // measure 25
0100
0000
0100
0000
,  // measure 26
0100
0000
1001
0000
,  // measure 27
0010
0000
0000
0000
1001
0000
0000
0000
0001
1000
0001
0000
0100
0000
0010
0000
,  // measure 28
1000
0000
0000
0000
1000
0000
0000
0000
1000
0000
0000
0100
0000
0000
0001
0000
,  // measure 29
1000
0000
0100
0000
1000
0001
0010
0000
,  // measure 30
0100
0000
0000
0000
0010
0000
0000
0000
0001
0000
0000
0001
0000
0000
0010
0000
,  // measure 31
0100
1000
1000
0010
0100
0001
1000
0010
,  // measure 32
0100
0000
0000
0000
0010
0000
0000
0000
1000
0000
0000
0100
0000
0000
0010
0000
,  // measure 33
0001
0000
0010
0000
1000
0001
1000
0000
,  // measure 34
0100
0000
0000
0000
0010
0000
0000
0000
0001
0000
0000
1000
0000
0000
0001
0000
,  // measure 35
1000
0000
1001
0000
0010
0100
1000
0000
,  // measure 36
0001
0000
1000
0000
,  // measure 37
0100
0000
1000
0000
,  // measure 38
1000
0000
0100
0000
,  // measure 39
0010
1000
0001
0000
,  // measure 40
0100
0000
0010
0000
,  // measure 41
1000
0000
0100
0000
,  // measure 42
0010
0000
0100
0000
,  // measure 43
0100
0100
0001
0000
,  // measure 44
0010
0000
1000
0000
,  // measure 45
0001
0000
0100
0000
,  // measure 46
0010
0000
1000
0000
,  // measure 47
0001
0100
0010
0000
,  // measure 48
0100
0000
1000
0000
,  // measure 49
0010
0000
0100
0000
,  // measure 50
0001
0000
1000
0000
,  // measure 51
0010
1000
0001
0100
,  // measure 52
1100
0000
0000
0000
1100
0000
0000
0000
1000
0000
0000
0100
0000
0000
0001
0000
,  // measure 53
0101
0000
0000
0000
0101
0000
0000
0000
0100
0000
0000
0100
0000
0000
0010
0000
,  // measure 54
1000
0000
0000
0100
0000
0000
0010
0000
0001
0000
0000
0001
0000
0000
0100
0000
,  // measure 55
0010
0000
0001
0100
0010
1000
0100
0010
,  // measure 56
1010
0000
0000
0000
1100
0000
0000
0000
0001
0000
0000
0100
0000
0000
0010
0000
,  // measure 57
1000
0000
0100
0000
0001
0010
0100
0010
,  // measure 58
1000
0000
0100
0000
1000
0100
0010
0100
,  // measure 59
0001
0010
0102
2003
,  // measure 60
3010
0000
0000
0000
,  // measure 61
0001
0000
0000
0001
1000
0000
0100
0000
0011
0000
0010
0000
1000
0000
0000
0000
,  // measure 62
0110
0000
0000
1000
0001
0000
0100
0000
0010
0000
1000
0000
1001
0000
0000
0000
,  // measure 63
0100
0000
0000
0010
0100
0000
0001
0000
1000
0000
0010
0000
0011
0000
0000
0000
,  // measure 64
0101
0000
0000
0100
0010
0000
1000
0000
0001
0000
0100
0000
1001
0000
0000
0000
,  // measure 65
0010
0000
0000
1000
0010
0000
0100
0000
0001
0000
0010
0000
1100
0000
0000
0000
,  // measure 66
0011
0000
0000
0100
0010
0000
1000
0000
0010
0000
0100
0000
1001
0000
0000
0000
,  // measure 67
0100
0000
0000
0001
1000
0000
0010
0000
0100
0000
0010
0000
1001
0000
0000
0000
,  // measure 68
0100
0000
0000
0100
0010
0000
1000
0000
0001
0000
0100
0000
0010
0000
0000
0000
,  // measure 69
1002
0000
0023
0000
1030
0100
0010
0001
,  // measure 70
2000
3200
0320
0032
,  // measure 71
1003
0000
0100
0001
,  // measure 72
1000
0000
0100
0010
,  // measure 73
0001
0010
0001
1000
,  // measure 74
0001
0010
1000
0100
,  // measure 75
0010
0100
0010
1000
,  // measure 76
0001
0100
0010
0100
,  // measure 77
1000
0001
0100
0010
,  // measure 78
1000
0100
0010
0001
,  // measure 79
1000
0000
0100
0010
,  // measure 80
0110
0000
0001
1000
,  // measure 81
1001
0000
0100
0010
,  // measure 82
1000
0100
1000
0010
,  // measure 83
0100
0010
0100
0010
,  // measure 84
0001
0010
0001
0100
,  // measure 85
0010
0010
1000
1000
,  // measure 86
0001
0000
0100
0010
0100
0000
1000
0000
,  // measure 87
0001
0000
0010
1000
,  // measure 88
0001
0000
1000
0100
,  // measure 89
1000
0010
0100
0001
,  // measure 90
1000
0000
0100
0001
,  // measure 91
0010
0100
1000
0100
,  // measure 92
0001
0010
0001
0100
,  // measure 93
0010
1000
0100
0010
,  // measure 94
0100
0001
1000
0010
,  // measure 95
0110
0000
0010
1000
,  // measure 96
0100
0000
1000
0010
,  // measure 97
0100
0010
0001
1000
,  // measure 98
0100
0010
0001
0100
,  // measure 99
0010
0100
1000
0010
,  // measure 100
0101
0000
0010
1000
0001
0000
0100
0000
,  // measure 101
0010
0100
0001
1000
,  // measure 102
1001
0010
0100
0010
,  // measure 103
1001
0000
0001
0100
,  // measure 104
1000
0000
0010
0000
,  // measure 105
1000
0000
0100
0001
,  // measure 106
1000
0000
0010
0000
,  // measure 107
1100
0000
0011
0010
,  // measure 108
0100
1000
0010
0100
,  // measure 109
0001
0010
0100
1000
,  // measure 110
0001
0000
0010
0001
,  // measure 111
1000
0000
0100
0001
,  // measure 112
1000
0100
1000
0010
,  // measure 113
0100
0001
0100
0010
,  // measure 114
1000
0100
0010
1000
,  // measure 115
0001
0010
0001
0010
,  // measure 116
0100
0010
1000
0100
,  // measure 117
0110
0000
0000
0010
,  // measure 118
0100
1000
0100
0001
,  // measure 119
0100
0000
0010
1000
,  // measure 120
0100
0010
1000
0010
,  // measure 121
0100
0010
0001
0010
,  // measure 122
0001
0100
0010
1000
,  // measure 123
0100
1000
0010
1000
,  // measure 124
0100
0001
0010
0100
,  // measure 125
0001
1000
0010
0100
,  // measure 126
1000
0000
1000
0100
,  // measure 127
0101
0000
0010
0100
,  // measure 128
1000
0100
1000
0100
,  // measure 129
1000
0100
1000
0010
,  // measure 130
1000
0010
1000
0010
,  // measure 131
0100
0001
0100
0010
,  // measure 132
0100
1000
0100
0001
,  // measure 133
1000
0100
0001
0010
,  // measure 134
0100
0001
0001
0100
,  // measure 135
0010
0000
0001
0000
1000
0000
0100
0000
1000
0000
0000
0100
0000
0000
0001
0000
,  // measure 136
1000
0000
0100
0000
0010
0000
0100
0000
0001
0000
0000
0100
0000
0000
0010
0000
,  // measure 137
1000
1000
0100
0001
,  // measure 138
0100
0100
0010
1000
,  // measure 139
0001
0000
0010
0000
0100
0000
1000
0000
0010
0000
0000
0010
0000
0000
0100
0000
,  // measure 140
0001
0000
0010
0000
1000
0000
0100
0000
0001
0000
0000
1000
0000
0000
0100
0000
,  // measure 141
0010
0000
0001
0000
0100
0000
0010
0000
0100
0000
0000
0010
0000
0000
1000
0000
,  // measure 142
0010
0001
0010
0100
,  // measure 143
1000
0100
0001
0010
,  // measure 144
1001
0000
0110
0000
,  // measure 145
0000
0100
1001
0000
;

//---------------dance-single - ----------------
#NOTES:
     dance-single:
     :
     Hard:
     10:
     0.877,1.000,0.478,0.074,0.404,830.000,71.000,11.000,0.000,0.000,0.000,0.877,1.000,0.478,0.074,0.404,830.000,71.000,11.000,0.000,0.000,0.000:
0000
0000
0000
0000
,
0000
0000
0000
0000
,
1100
0000
0000
0000
0101
0000
0000
0000
0001
0000
0000
0010
0000
0000
0001
0000
,
1000
0000
0100
0000
0010
0000
0100
0000
0001
0000
0100
0010
0100
0000
1000
0000
,
1001
0000
0000
0000
0011
0000
0000
0000
0100
0000
0000
0010
0000
0000
0100
0000
,
1000
0000
0100
0000
1000
0000
0010
0000
0100
0000
0010
0100
0010
0000
1000
0000
,
0011
0000
0000
0000
0101
0000
0000
0000
0010
0000
0000
1000
0000
0000
0001
0000
,
0100
0000
0010
0000
1000
0000
1000
0000
0100
0000
0001
0100
0001
0000
1000
0000
,
0011
0000
0000
0000
0101
0000
0000
0000
1000
0000
0000
0100
0000
0000
0010
0000
,
0100
0000
0001
0000
1000
0000
0010
0000
0100
0000
0010
0100
0010
0000
1000
0000
,
1001
0000
0110
0000
,
1000
0000
0000
0100
0000
0000
0010
0000
,
0001
1000
0100
1000
,
0010
0000
1000
0001
1000
0000
0010
0000
,
1100
0000
0110
0000
,
0001
0000
0000
0100
0000
0000
0010
0000
,
1000
0100
0010
0001
,
1000
0001
0100
0010
,
1100
0000
0110
0000
,
0001
0000
0000
0010
0000
0000
0100
0000
,
1000
0100
0010
0100
,
0001
0000
1000
0001
1000
0000
0010
0000
,
1100
0000
0011
0000
,
0010
0000
0000
0100
0000
0000
1000
0000
,
0100
0001
0010
0100
,
1000
0100
1000
0000
0100
0010
0100
0000
,
1001
0000
0000
0000
0011
0000
0000
0000
0100
0010
0100
0000
0010
0000
0100
0000
,
2001
0000
0000
0000
3010
0000
0000
0000
0100
0000
0000
0001
0000
0000
1000
0000
,
0012
0000
0103
0000
0010
1000
1001
0000
,
1020
0000
0000
0000
0031
0000
0000
0000
0100
0000
0000
0010
0000
0000
1000
0000
,
0001
0010
0100
1000
0001
1000
0010
0000
,
1000
0000
0100
0010
0100
0000
0001
1000
0100
0000
0010
0100
0000
0010
0001
0000
,
0010
0000
0100
0010
0100
0000
1000
0100
1000
0000
1100
0000
1100
0000
0000
0000
,
0010
0100
0010
0000
0100
0010
0001
0000
0100
0000
0000
0010
0000
0000
0100
0000
,
1000
0000
0100
0000
0001
0000
0010
0000
0100
0010
0100
0010
0100
0010
0100
0010
,
0100
0000
0010
0001
0010
0001
0010
0001
,
0010
0000
0100
0010
0100
0000
1000
0100
,
0010
0000
1000
0001
1000
0001
1000
0001
,
1000
0000
0001
0100
0001
0100
0001
0000
,
0010
0000
1000
0100
1000
0100
1000
0100
,
1000
0000
0010
0100
0010
0000
1000
0001
,
1000
0000
0010
0100
0010
0100
0010
0100
,
0010
0001
0010
0001
0010
0001
0010
0001
,
0100
0000
0100
0010
0100
0000
1000
0100
,
1000
0000
0100
0010
0100
0000
0010
0001
,
0010
0000
0100
0010
0100
0010
0100
0010
,
0100
0000
0001
1000
0001
1000
0001
1000
,
0001
0000
0010
1000
0010
1000
0010
1000
,
0010
0000
0100
0001
0100
0001
0100
0001
,
0100
0110
0001
1001
,
0010
0110
0001
1001
,
0110
0000
0010
0001
0010
0001
0010
0001
0010
0000
0010
0100
0000
1000
0100
0000
,
0010
0000
0010
0100
0010
0100
0010
0100
0010
0000
1000
0100
0000
0010
0100
0000
,
0001
0000
1000
0100
0000
0010
0100
0000
0001
0000
0100
0010
0000
1000
0001
0000
,
0100
0000
0100
0000
0010
0000
1000
0000
0001
1000
0001
1000
0001
1000
0001
1000
,
0001
0000
0100
0000
0010
0000
1000
0000
0100
0000
0000
0010
0000
0000
0100
0000
,
1001
0001
0100
0010
1000
0001
0100
0010
,
0110
0000
0000
0000
1001
0000
0100
0000
0010
0000
1000
0001
0000
0001
1000
0000
,
0010
0100
0010
0100
0010
0100
0010
0100
1000
0001
1000
0001
1000
0001
1000
0001
,
1000
0000
0000
0000
,
1000
0000
0100
0000
0010
0000
0100
0000
0010
0000
0001
0000
0010
0000
0001
0000
0010
0000
0100
0000
0010
0000
0100
0000
1000
0000
0010
0100
0010
0000
0000
0000
,
0100
0000
0010
0000
0100
0000
0010
0000
0100
0000
0001
0000
0100
0000
0001
0000
0100
0000
0010
0000
0100
0000
0010
0000
1000
0000
0100
0010
0100
0000
0000
0000
,
0001
0000
0010
0000
0110
0000
0000
0000
1000
0000
0010
0000
0110
0000
0000
0000
0001
0000
1000
0000
0100
0000
1000
0000
0010
0000
0100
0010
0100
0000
0000
0000
,
0010
0000
0001
0000
0011
0000
0000
0000
0100
0000
1000
0000
1100
0000
0000
0000
0010
0000
0100
0000
0010
0000
1000
0000
0100
0000
0001
1000
0001
0000
0000
0000
,
0100
0000
0010
0000
1001
0000
0000
0000
0100
0000
1000
0000
0011
0000
0000
0000
0100
0000
0010
0000
1000
0000
0100
0000
0010
0000
0001
0010
0001
0000
0000
0000
,
0100
0000
0010
0000
0110
0000
0000
0000
1000
0000
0100
0000
0011
0000
0000
0000
0010
0000
0100
0000
1000
0000
0010
0000
0100
0000
0001
1000
0001
0000
0000
0000
,
0100
0000
0010
0000
0100
0000
0010
0000
0100
0000
0010
0000
0100
0000
0010
0000
1000
0000
0100
0000
1000
0000
0100
0000
0001
0000
0100
0001
1000
0000
0000
0000
,
0100
0000
0010
0000
0100
0000
0010
0000
0001
0000
0010
0000
0001
0000
0010
0000
1000
0000
0100
0000
0010
0000
0100
0000
1000
0000
0100
0010
0100
0000
0000
0000
,
1001
0000
0000
0000
0011
0000
0000
0000
1000
0100
1000
1000
0010
0100
0001
0010
,
1000
0100
1000
0010
1000
0100
0010
0100
,
0001
0000
0011
0001
,
0101
0000
1010
0010
,
1000
0100
0010
0100
,
0010
0001
0010
0100
,
0010
0000
1000
0001
1000
0000
0010
1000
,
0010
0000
0100
0010
0001
0010
1000
0000
,
1000
0000
0100
1000
0100
0000
0010
0001
,
0010
0001
0010
0001
0010
0001
0010
0001
,
1000
0010
1100
0100
,
0011
0100
0100
0010
,
1000
0001
1001
1001
,
0010
0100
1010
1010
,
0100
0010
0001
0010
,
1100
0000
0110
0000
,
0200
0320
0032
0203
,
0320
2030
3200
0320
,
0030
0000
0011
0010
,
1100
0000
0100
0010
,
1000
0100
0010
0001
,
1000
0100
1000
0010
,
1000
0000
0100
1000
0100
0000
0010
0000
,
0110
0000
0011
0000
,
1001
0000
0010
1000
0010
1000
0100
0000
,
0010
0100
1001
0000
,
0110
0000
1000
0100
,
1000
0010
1000
0100
,
0001
0010
0100
0001
,
1000
0010
1000
0001
,
1001
0100
0010
0100
,
0011
0000
1100
0000
,
0010
0100
0010
0100
0010
0100
0010
0100
,
0001
1000
0001
1000
0001
1000
0001
1000
,
0001
0100
0100
0100
,
0010
1000
1000
1000
,
0100
0010
0010
0010
,
0100
0001
1001
0110
,
1000
0000
0100
0100
,
0010
0001
0001
0001
,
0100
0010
0010
0010
,
1100
0000
0001
1000
,
1100
0000
0010
0100
,
1000
0100
0001
0010
,
0001
0000
1000
0010
0100
0000
0010
0000
,
0100
0001
0010
0001
,
1000
1000
0100
0100
,
0010
0010
0001
0001
,
1000
0010
1000
0001
,
1000
0000
0100
0010
,
0001
0000
1000
0010
,
0100
0010
1000
0001
,
1000
0010
0100
0010
,
1000
0000
0100
0001
,
0010
0001
0100
0001
,
0100
0001
0100
0001
,
0100
0010
0001
1000
,
0010
0100
0001
0001
,
0010
0000
0010
1000
,
0001
0100
0010
1000
,
0001
1000
0100
1000
,
0010
0000
0100
0001
,
1000
0010
0010
0100
,
0001
0001
1000
0010
,
0100
0001
0001
1000
,
0100
0100
0010
0100
,
1000
0000
0100
0000
0010
0000
0100
0000
0001
0000
0000
0100
0000
0000
0010
0000
,
1000
0000
0010
0000
1000
0000
0010
0000
1000
0000
0000
0100
0000
0000
0001
0000
,
1000
0000
0010
0000
1000
0000
0001
0000
1000
0000
0100
0001
0000
0000
0001
0000
,
0010
0000
0100
0000
1000
0000
0001
0000
1000
0000
0001
1000
0000
0000
0100
0000
,
0010
0000
0001
0000
0100
0000
0010
0000
1000
0000
0000
0100
0000
0000
0001
0000
,
1000
0000
0010
0000
1000
0000
0001
0000
0100
0000
0000
0100
0000
0000
0010
0000
,
1000
0000
0001
0000
0100
0000
0010
0000
1000
0000
0001
1000
0000
0000
0001
0000
,
0100
0100
0010
0010
,
1000
0000
0001
1000
0000
0001
1000
0000
,
1010
0000
0011
0000
,
0000
0011
1100
0000
;
