#TITLE:Queen of Love (Remix);
#SUBTITLE:;
#ARTIST:Wildside;
#TITLETRANSLIT:;
#SUBTITLETRANSLIT:;
#ARTISTTRANSLIT:;
#GENRE:;
#CREDIT:;
#BANNER:Queen of Love (Remix).png;
#BACKGROUND:Queen of Love (Remix)-bg.png;
#LYRICSPATH:;
#CDTITLE:.\CDTITLES\DDRMAX6.PNG;
#MUSIC:Queen of Love (Remix).ogg;
#OFFSET:-0.020;
#SAMPLESTART:41.140;
#SAMPLELENGTH:15.000;
#SELECTABLE:YES;
#DISPLAYBPM:140.000;
#BPMS:0.000=140.000;
#STOPS:;
#BGCHANGES:;
#KEYSOUNDS:;

//---------------dance-single - ----------------
#NOTES:
     dance-single:
     :
     Easy:
     2:
     0.122,0.170,0.018,0.000,0.000,93.000,2.000,0.000,0.000,0.000,0.000,0.122,0.170,0.018,0.000,0.000,93.000,2.000,0.000,0.000,0.000,0.000:
0000
0000
0000
0000
,
0000
0000
0000
0000
,
0000
0000
0000
0000
,
0000
0000
0000
0000
,
0000
0000
0000
0000
,
0000
0000
0000
0000
,
0010
0010
0010
0000
,
0000
0000
0000
0000
,
0100
0000
0100
0000
,
0010
0000
0010
0000
,
0100
0000
0100
0000
,
0010
0000
0010
0000
,
0100
0000
0100
0000
,
0010
0000
0010
0000
,
0001
0000
0001
0000
,
0010
0000
0010
0000
,
0100
0000
0000
0000
,
0100
0000
0000
0000
,
1000
0000
0000
0000
,
1000
0000
0000
0000
,
0010
0000
0000
0000
,
0010
0000
0000
0000
,
0001
0000
0001
0000
,
0010
0000
0010
0000
,
0100
0000
0000
0000
,
1000
0000
0000
0000
,
0010
0000
0000
0000
,
0100
0000
0000
0000
,
0001
0000
0000
0000
,
0010
0000
0000
0000
,
0100
0000
0100
0000
,
0010
0000
0000
0000
,
0100
0000
0010
0000
,
0100
0000
0100
0000
,
0001
0000
0100
0000
,
0001
0000
0010
0000
,
0100
0000
0100
0000
,
1000
0000
0010
0000
,
0100
0000
0100
0000
,
0010
0000
1000
0000
,
0001
0001
0010
0000
,
0100
0100
0100
0000
,
1000
0000
1000
0000
,
0010
0000
0100
0000
,
1000
1000
1000
0000
,
0010
0010
0010
0000
,
0100
0000
0010
0000
,
1000
0000
0001
0000
,
0010
0000
0000
0000
,
0000
0000
0000
0000
,
1001
0000
0000
0000
,
0000
0000
0000
0000
,
0110
0000
0000
0000
,
0010
0010
0010
0000
,
0100
0000
0000
0000
,
0001
0001
0001
0000
,
1000
0000
0000
0000
,
0100
0000
0000
0000
,
0010
0000
0000
0000
,
0001
0000
0000
0000
,
1000
0000
0000
0000
,
0010
0000
0000
0000
,
0100
0000
0100
0000
,
0100
0000
0000
0000
;

//---------------dance-single - ----------------
#NOTES:
     dance-single:
     :
     Medium:
     4:
     0.201,0.226,0.197,0.000,0.000,135.000,22.000,0.000,0.000,0.000,0.000,0.201,0.226,0.197,0.000,0.000,135.000,22.000,0.000,0.000,0.000,0.000:
0000
0000
0000
0000
,
0000
0000
0000
0000
,
0000
0000
0000
0000
,
0000
0000
0000
0000
,
0000
0000
0000
0000
,
0000
0000
0000
0000
,
0100
0100
0100
0000
,
0000
0000
0000
0000
,
0010
0000
0010
0000
,
0100
0000
0100
0000
,
0001
0000
0001
0000
,
0100
0000
0100
0000
,
1000
0000
1000
0000
,
0010
0000
0010
0000
,
0100
0000
0100
0000
,
0010
0000
0010
0000
,
1000
0001
1001
0000
,
0010
0000
0110
0000
,
0100
0010
0110
0000
,
0001
0000
1000
0000
,
0001
1000
1001
0000
,
0010
0000
0100
0000
,
0110
0000
1001
0000
,
0010
0100
0010
0000
,
1000
0001
1001
0000
,
0010
0000
0100
0000
,
0010
0100
0110
0000
,
0010
0000
1000
0000
,
0001
0010
0011
0000
,
0010
0000
0100
0000
,
1000
0000
1001
0000
,
0010
0100
0010
0100
,
0010
0000
0110
0000
,
1000
0000
0001
1000
,
1001
0000
0010
0000
,
0110
0000
1000
0010
,
0011
0000
1100
0000
,
0110
0000
0010
1000
,
1001
0000
0110
0000
,
1001
0000
0001
1000
,
0001
0000
0100
0000
,
0100
0000
0100
0000
,
0010
0000
1000
0000
,
1000
0000
1000
0000
,
0100
0000
0010
0000
,
0010
0000
0010
0000
,
1000
0000
0001
0000
,
0001
0000
0001
0000
,
0100
0001
1000
0000
,
0010
1000
0010
0000
,
0100
0010
0100
0000
,
0001
1000
0001
1000
,
0010
0000
0000
0010
,
1000
0100
0010
0000
,
0001
0000
0000
1000
,
0010
0100
0010
1000
,
0001
0000
0010
0000
,
0100
0000
0100
0000
,
0010
0000
1000
0000
,
0001
0000
0001
0000
,
1000
0000
0110
0000
,
0001
0000
1001
0000
,
0010
0000
0110
0000
,
1000
0000
0000
0000
;

//---------------dance-single - ----------------
#NOTES:
     dance-single:
     :
     Hard:
     7:
     0.428,0.452,0.215,0.000,0.040,310.000,24.000,0.000,0.000,0.000,0.000,0.428,0.452,0.215,0.000,0.040,310.000,24.000,0.000,0.000,0.000,0.000:
0000
0000
0000
0000
,
0000
0000
0000
0000
,
0000
0000
0000
0000
,
0000
0000
0000
0000
,
0000
0000
0000
0000
,
0000
0000
0000
0000
0000
0000
0000
0010
,
0100
0010
0100
0010
0100
0000
0000
0000
,
0001
0001
0001
0001
,
0100
0010
0100
0000
0010
1000
0010
0000
,
0100
0010
0100
0000
0001
0100
0001
0000
,
0010
0100
0010
0000
1000
0010
1000
0000
,
0010
0100
0010
0000
0001
0010
0001
0000
,
0100
0100
0100
0000
0010
0100
0010
0000
,
1000
1000
1000
0000
0010
0100
0010
0000
,
0001
0001
0001
0000
0010
0100
0010
0000
,
0100
1000
0001
0000
0010
0100
0010
0000
,
1001
0000
1001
0000
0001
0010
0100
0010
,
1000
0000
0000
0001
0000
0000
0100
0000
0000
0000
0000
0000
0000
0000
0000
0000
,
0011
0000
0011
0000
0010
1000
0100
0010
,
0100
0000
0000
0010
0000
0000
0001
0000
0000
0000
0000
0000
0000
0000
0000
0000
,
1001
0000
1001
0000
0100
0010
0001
1000
,
0010
0100
0010
0100
1000
0001
0100
0010
,
1000
0000
0000
0100
0000
0000
0010
0000
0000
0000
0000
0000
0000
0000
0000
0000
,
1001
0010
0110
0010
,
1100
0000
0110
0000
0010
0100
0010
0100
,
1000
0000
0000
0100
0000
0000
0010
0000
0000
0000
0000
0000
0000
0000
0000
0000
,
0011
0000
0011
0000
0010
0100
1000
0100
,
1000
0000
0000
0010
0000
0000
0100
0000
0000
0000
0000
0000
0000
0000
0000
0000
,
1001
1001
0010
0110
,
0010
0000
1000
0000
0100
0010
0100
0010
,
1000
0000
0000
0001
0000
0000
0100
0000
0000
0000
0000
0000
0000
0000
0000
0000
,
1010
0000
0100
0000
0110
0000
0001
0100
,
1000
0000
0010
0100
1000
0000
0010
0100
,
0001
0000
1000
0010
0100
0001
0010
0100
,
1000
0000
0010
0100
0010
0000
1000
0001
,
1000
0000
0100
0010
0100
0010
0100
0001
,
1000
0000
0010
0010
0011
0000
0100
0100
,
1100
0000
0010
1000
0010
1000
0001
1000
,
0010
0000
0100
0001
1001
0000
0010
0100
,
1001
0000
0010
0100
1000
0010
0100
0001
,
1000
0100
0010
0000
0010
0100
0010
0000
,
0001
0010
0100
0000
0100
0010
0100
0000
,
0100
0001
1000
0000
0010
0100
0001
0000
,
0010
0100
0010
0000
0010
0001
0010
0000
,
0010
0100
1000
0000
0010
0100
0010
0000
,
0001
1000
0010
0000
0100
0010
0001
0000
,
0010
0100
0010
0000
1000
0100
1000
0000
,
0100
0010
0100
0000
0010
0001
0100
0010
,
1000
0000
1000
0000
1000
0010
0001
0000
,
0100
0000
0100
0000
0100
0010
1000
0000
,
0010
0000
0010
0000
0010
0100
1000
0000
,
0010
0001
0010
0001
0010
0001
0100
0000
,
0010
0000
1010
0000
0000
0000
0000
0100
,
0010
0100
0010
0100
0010
0000
0010
0000
,
0100
0000
0011
0000
0000
0000
0000
1000
,
0010
0100
0010
1000
0100
0000
0010
0000
,
1000
0000
0100
0000
0010
0100
0010
0100
,
1000
0000
0000
0100
0000
0000
0010
0000
0000
0000
0000
0000
0000
0000
0000
0000
,
0001
0000
0010
0000
0100
1000
0010
0100
,
1000
0000
0000
0100
0000
0000
0010
0000
0000
0000
0000
0000
0000
0000
0000
0000
,
0001
0000
1000
0000
0010
0100
1000
0010
,
0100
0001
0010
0100
1000
0010
0100
0010
,
1000
0000
0000
0100
0000
0000
0010
0000
0000
0000
0000
0000
0000
0000
0000
0000
,
1001
0000
0000
0000
;

//---------------dance-single - ----------------
#NOTES:
     dance-single:
     :
     Beginner:
     1:
     0.069,0.113,0.000,0.000,0.000,54.000,0.000,0.000,0.000,0.000,0.000,0.069,0.113,0.000,0.000,0.000,54.000,0.000,0.000,0.000,0.000,0.000: // measure 1
0000
0000
0000
0000
,  // measure 2
0000
0000
0000
0000
,  // measure 3
0000
0000
0000
0000
,  // measure 4
0000
0000
0000
0000
,  // measure 5
0000
0000
0000
0000
,  // measure 6
0000
0000
0000
0000
,  // measure 7
0100
0000
0000
0000
,  // measure 8
0000
0000
0000
0000
,  // measure 9
0010
0000
0010
0000
,  // measure 10
0001
0000
0001
0000
,  // measure 11
0100
0000
0100
0000
,  // measure 12
0010
0000
0010
0000
,  // measure 13
1000
0000
1000
0000
,  // measure 14
0100
0000
0100
0000
,  // measure 15
0010
0000
0010
0000
,  // measure 16
0100
0000
0100
0000
,  // measure 17
0001
0000
0000
0000
,  // measure 18
0000
0000
0000
0000
,  // measure 19
1000
0000
0000
0000
,  // measure 20
0000
0000
0000
0000
,  // measure 21
0010
0000
0000
0000
,  // measure 22
0000
0000
0000
0000
,  // measure 23
0100
0000
0000
0000
,  // measure 24
0010
0000
0000
0000
,  // measure 25
0001
0000
0000
0000
,  // measure 26
0000
0000
0000
0000
,  // measure 27
1000
0000
0000
0000
,  // measure 28
0000
0000
0000
0000
,  // measure 29
0010
0000
0000
0000
,  // measure 30
0000
0000
0000
0000
,  // measure 31
0100
0000
0100
0000
,  // measure 32
0010
0000
0010
0000
,  // measure 33
0100
0000
0000
0000
,  // measure 34
0000
0000
0000
0000
,  // measure 35
0100
0000
0000
0000
,  // measure 36
0000
0000
0000
0000
,  // measure 37
0010
0000
0000
0000
,  // measure 38
0000
0000
0000
0000
,  // measure 39
0001
0000
0000
0000
,  // measure 40
0000
0000
0000
0000
,  // measure 41
0010
0000
0000
0000
,  // measure 42
0100
0000
0000
0000
,  // measure 43
1000
0000
0000
0000
,  // measure 44
0010
0000
0000
0000
,  // measure 45
0100
0000
0000
0000
,  // measure 46
0000
0000
0000
0000
,  // measure 47
0010
0000
0000
0000
,  // measure 48
0000
0000
0000
0000
,  // measure 49
0001
0000
0000
0000
,  // measure 50
1000
0000
0000
0000
,  // measure 51
0001
0000
0000
0000
,  // measure 52
1000
0000
0000
0000
,  // measure 53
0001
0000
0000
0000
,  // measure 54
1000
0000
1000
0000
,  // measure 55
0100
0000
0000
0000
,  // measure 56
0001
0000
0001
0000
,  // measure 57
0010
0000
0000
0000
,  // measure 58
0000
0000
0000
0000
,  // measure 59
0100
0000
0000
0000
,  // measure 60
0000
0000
0000
0000
,  // measure 61
1000
0000
0000
0000
,  // measure 62
0000
0000
0000
0000
,  // measure 63
0010
0000
0000
0000
,  // measure 64
0100
0000
0000
0000
;
