#TITLE:Posse (I Need You On The Floor);
#SUBTITLE:;
#ARTIST:Scooter;
#TITLETRANSLIT:;
#SUBTITLETRANSLIT:;
#ARTISTTRANSLIT:;
#GENRE:;
#CREDIT:;
#BANNER:Posse (I Need You On The Floor).png;
#BACKGROUND:Posse (I Need You On The Floor)-bg.png;
#LYRICSPATH:;
#CDTITLE:./CDTITLES/25 Years Young.PNG;
#MUSIC:Posse (I Need You On The Floor).ogg;
#OFFSET:-0.022;
#SAMPLESTART:58.041;
#SAMPLELENGTH:12.000;
#SELECTABLE:YES;
#DISPLAYBPM:139.000;
#BPMS:0.000=139.530;
#STOPS:;
#BGCHANGES:;
#KEYSOUNDS:;

//---------------dance-single - ----------------
#NOTES:
     dance-single:
     :
     Easy:
     4:
     0.289,0.252,0.039,0.000,0.000,206.000,4.000,0.000,0.000,0.000,0.000,0.289,0.252,0.039,0.000,0.000,206.000,4.000,0.000,0.000,0.000,0.000:
0000
0000
0000
0000
,
0000
0000
0000
0000
,
0010
0010
0010
0010
,
0010
0010
0010
0010
,
0100
0100
0100
0100
,
0100
0100
0100
0100
,
1000
1000
1000
1000
,
1000
1000
1000
1000
,
0100
0100
0100
0100
,
0100
0100
0100
0110
,
0010
0001
0001
0000
,
0010
0100
0100
0000
,
1000
0100
0100
0000
,
0010
0001
0001
0000
,
0100
0010
0010
0001
,
0010
0100
0100
1000
,
0100
0010
0010
0001
,
0010
0100
0100
1000
,
0010
0100
0100
0001
,
1000
0010
0010
0100
,
0001
1000
1000
0010
,
0100
0001
0001
1010
,
0100
0010
0010
0001
,
1000
0010
0010
0100
,
0001
0010
0010
1000
,
0100
1000
1000
0010
,
0100
0001
0001
0100
,
0010
1000
1000
0010
,
0100
0001
0001
0100
,
0010
1000
1001
0000
,
0010
1000
0001
0000
,
0001
1000
0010
1000
,
0001
1000
0010
0000
,
1000
0010
1000
0001
,
1000
0010
1000
0000
,
1000
0010
1000
0001
,
1000
0010
1000
0000
,
0001
1000
0010
1000
,
0001
1000
0100
0000
,
0100
1000
0001
0100
,
0001
1000
0010
0000
,
0100
0001
1000
0001
,
0010
0001
1000
0000
,
0010
1000
0001
1000
,
0001
1000
0010
0000
,
1000
0100
0001
1000
,
0010
1000
0100
0000
,
1000
0100
1000
0010
,
1000
0100
0001
0000
,
0001
0100
0001
0100
,
1000
0010
1000
0000
,
1000
0100
1000
0010
,
0100
0001
1000
0000
,
0010
1000
0001
1000
,
0100
0010
0001
0000
,
0001
0010
0001
0100
,
0001
1000
0010
0000
,
1000
0100
1000
0001
,
1001
0000
0000
0000
;

//---------------dance-single - ----------------
#NOTES:
     dance-single:
     :
     Hard:
     8:
     0.602,0.559,0.414,0.019,0.472,392.000,43.000,2.000,0.000,0.000,0.000,0.602,0.559,0.414,0.019,0.472,392.000,43.000,2.000,0.000,0.000,0.000:
0000
0000
0000
0000
,
0000
0000
0000
0000
,
0010
0000
1000
0000
0000
1000
0000
0000
0100
0000
0000
0100
0000
0000
0010
0000
,
0001
0000
1000
0000
0000
1000
0000
0000
0010
0000
0000
0010
0000
0000
0100
0000
,
0001
0000
0010
0000
0000
0010
0000
0000
0100
0000
0000
0100
0000
0000
1000
0000
,
0010
0000
0100
0000
0000
0100
0000
0000
0001
0000
0000
0001
0000
0000
0010
0000
,
0100
0000
0001
0000
0000
0001
0000
0000
1000
0000
0000
1000
0000
0000
0010
0000
,
0100
0000
0001
0000
0000
0001
0000
0000
1000
0000
0000
1000
0000
0000
0010
0000
,
0100
0000
0001
0000
0000
0001
0000
0000
0010
0000
0000
0010
0000
0000
0100
0000
,
1000
0000
0010
0000
0000
0010
0000
0000
0100
0000
0000
0100
0000
0000
0001
0000
,
1000
0000
0100
0000
0000
0100
0000
0000
0001
0000
0000
0001
0000
0000
0010
0000
,
0001
0000
1000
0000
0000
1000
0000
0000
0100
0000
0000
0100
0000
0000
0010
0000
,
0001
0000
0100
0000
0000
0100
0000
0000
0010
0000
0000
0010
0000
0000
0100
0000
,
1000
0000
0001
0000
0000
0001
0000
0000
0100
0000
0000
0100
0000
0000
0010
0000
,
1000
0000
0001
0000
0000
0001
0000
0000
0100
0000
0000
0100
0000
0000
0010
0000
,
1000
0000
0001
0000
0000
0001
0000
0000
0100
0000
0000
0100
0000
0000
0010
0000
,
1000
0000
0001
0000
0000
0001
0000
0000
0100
0000
0000
0100
0000
0000
0010
0000
,
1000
0000
0001
0000
0000
0001
0000
0000
0100
0000
0000
0100
0000
0000
0010
0000
,
1000
0000
0100
0000
0000
0100
0000
0000
0010
0000
0000
0010
0000
0000
1000
0000
,
0001
0000
0010
0000
0000
0010
0000
0000
0100
0000
0000
0100
0000
0000
1000
0000
,
0010
0000
0100
0000
0000
0100
0000
0000
0001
0000
0000
0001
0000
0000
0010
0000
,
0100
0000
0001
0000
0000
0001
0000
0000
1000
0000
0000
0000
1001
0000
0000
0000
,
0010
0000
0110
0000
0000
0010
0000
0000
0100
0000
0000
0100
0000
0000
0001
0000
,
1000
0000
1001
0000
0000
0001
0000
0000
0100
0000
0000
0100
0000
0000
0010
0000
,
1000
0000
1010
0000
0000
0010
0000
0000
0100
0000
0000
0100
0000
0000
0001
0000
,
0010
0000
0011
0000
0000
0010
0000
0000
0100
0000
0000
0100
0000
0000
1000
0000
,
0010
0000
0110
0000
0000
0100
0000
0000
0010
0000
0000
0010
0000
0000
1000
0000
,
0001
0000
1001
0000
0000
1000
0000
0000
0100
0000
0000
0100
0000
0000
0010
0000
,
0100
0000
1100
0000
0000
0100
0000
0000
0010
0000
0000
0010
0000
0000
0001
0000
,
0100
0000
0101
0000
0000
0001
0000
0000
2002
0000
0000
0000
3003
0000
0000
0000
,
0010
0000
0001
0000
0100
0000
1000
0010
0000
0000
0100
0000
0000
0010
0100
0000
,
0001
0000
1000
0000
0010
0000
0100
0001
0000
0000
0010
0000
0100
0000
1000
0000
,
0010
0000
0100
0000
0001
0000
1000
0010
0000
0000
0100
0000
0000
0001
1000
0000
,
0010
0000
0100
0000
0001
0000
1000
0010
0000
0100
0001
0000
1000
0000
0010
0000
,
0101
0000
1001
0000
1000
0000
0010
0100
0000
0000
0001
0000
0000
0010
0100
0000
,
1000
0000
0010
0000
0100
0000
0001
1000
0000
0000
0010
0000
0100
0000
0001
0000
,
1001
0000
0011
0000
0100
0000
0001
1000
0000
0000
0010
0000
0000
0100
0001
0000
,
1000
0000
0010
0000
0100
0000
0001
1000
0000
0010
0100
0000
0001
0000
1000
0000
,
1010
0000
0110
0000
0100
0000
0001
0100
0000
0000
0010
0000
0000
0100
1000
0000
,
0010
0000
0100
0000
0001
0000
1000
0010
0000
0000
0100
0000
0001
0000
0010
0000
,
1100
0000
1010
0000
0010
0000
0100
0001
0000
0000
0010
0000
0000
0100
1000
0000
,
0100
0000
0010
0000
1000
0000
0001
0100
0000
0000
1000
0000
0010
0000
0100
0000
,
0011
0000
0101
0000
0100
0000
1000
0001
0000
0000
0100
0000
0000
0001
0100
0000
,
0010
0000
1000
0000
0100
0000
1000
0010
0000
0000
0100
0000
0001
0000
1000
0000
,
1010
0000
1001
0000
0001
0000
1000
0010
0000
0000
0100
0000
0000
0001
0100
0000
,
0010
0000
1000
0000
0100
0000
1000
0010
0000
0000
0100
0000
0001
0000
1000
0000
,
0011
0000
0101
0000
0001
0000
1000
0001
0000
0000
0010
0000
0000
0010
0100
0000
,
0101
0000
1001
0000
0100
0000
1000
0010
0000
0000
0100
0000
0001
0000
0010
0000
,
1001
0000
1010
0000
0100
0000
1000
0001
0000
0000
0010
0000
0000
0100
0010
0000
,
1001
0000
1100
0000
1000
0000
0010
1000
0000
0000
0001
0000
0100
0000
0010
0000
,
1010
0000
1100
0000
1000
0000
0010
0100
0000
0000
0010
0000
0000
0010
0001
0000
,
0011
0000
0101
0000
1000
0000
0010
1000
0000
0000
0001
0000
0100
0000
1000
0000
,
1010
0000
0110
0000
0001
0000
1000
0010
0000
0000
0100
0000
0000
0001
0100
0000
,
0011
0000
0101
0000
1000
0000
0001
0100
0000
0000
1000
0000
0010
0000
0100
0000
,
0001
0000
0010
0000
0100
0000
1000
0010
0000
0000
0100
0000
0000
0010
0100
0000
,
0001
0000
1000
0000
0010
0000
0100
0001
0000
0000
1000
0000
0010
0000
0100
0000
,
0101
0000
1001
0000
0010
0000
0100
0001
0000
0000
0010
0000
0000
0100
0010
0000
,
1010
0000
1100
0000
1000
0000
0010
0100
0000
0000
0001
0000
1000
0000
0010
0000
,
1001
0000
0000
0000
;

//---------------dance-single - ----------------
#NOTES:
     dance-single:
     :
     Challenge:
     9:
     0.764,0.615,0.260,0.019,0.853,526.000,27.000,2.000,0.000,0.000,0.000,0.764,0.615,0.260,0.019,0.853,526.000,27.000,2.000,0.000,0.000,0.000:
0000
0000
0000
0000
,
0000
0000
0000
0000
,
0100
0000
0001
0000
1000
0010
0000
1000
0010
0000
1000
0010
0000
1000
0010
0000
,
0100
0000
0001
0000
0010
0100
0000
0010
0100
0000
0010
0100
0000
0010
0100
0000
,
1000
0000
0001
0000
0100
0010
0000
0100
0010
0000
0100
0010
0000
0100
0010
0000
,
1000
0000
0001
0000
0100
0001
0000
0100
0001
0000
0100
0001
0000
0100
0001
0000
,
0010
0000
1000
0000
0001
1000
0000
0001
1000
0000
0001
1000
0000
0001
1000
0000
,
0010
0000
0100
0000
0001
0100
0000
0001
0100
0000
0001
0100
0000
0001
0100
0000
,
1000
0000
0010
0000
0100
0010
0000
0100
0010
0000
0100
0010
0000
0100
0010
0000
,
0001
0000
0010
0000
1000
0001
0000
1000
0001
0000
1000
0001
0000
1000
0001
0000
,
1000
0000
0010
0000
0100
0010
0000
0100
0010
0000
0100
0010
0000
0100
0010
0000
,
0001
0000
1000
0000
0010
1000
0000
0010
1000
0000
0010
1000
0000
0010
1000
0000
,
0001
0000
0100
0000
0010
0100
0000
0010
0100
0000
0010
0100
0000
0010
0100
0000
,
1000
0000
0001
0000
0100
0001
0000
0100
0001
0000
0100
0001
0000
0100
0001
0000
,
1000
0000
0010
0000
0100
0001
0000
0001
0100
0000
0100
0001
0000
0001
0100
0000
,
0010
0000
1000
0000
1000
0010
0000
0010
1000
0000
1000
0010
0000
0010
0100
0000
,
0100
0000
0001
0000
0001
0010
0000
0010
0001
0000
0001
0010
0000
0010
0100
0000
,
0100
0000
1000
0000
1000
0010
0000
0010
1000
0000
1000
0100
0000
0100
0010
0000
,
0001
0000
0010
0000
0100
0010
0000
0010
0100
0000
0100
1000
0000
1000
0010
0000
,
0100
0000
0001
0000
0100
0001
0000
0001
0100
0000
0100
0010
0000
0010
1000
0000
,
0100
0000
0010
0000
0001
0010
0000
0010
0001
0000
0001
0010
0000
0010
0100
0000
,
1000
0000
0100
0000
0010
0100
0000
0100
0010
0000
0001
0000
1001
0000
0000
0000
,
0010
0000
0001
0000
0100
0010
0000
0010
0100
0000
0100
1000
0000
1000
0010
0000
,
0010
0000
0001
0000
0001
0010
0000
0010
0100
0000
0100
1000
0000
1000
0100
0000
,
0100
0000
0010
0000
0010
0001
0000
0001
0010
0000
0010
0100
0000
0100
1000
0000
,
1000
0000
0100
0000
0100
0010
0000
0010
0001
0000
0001
0010
0000
0010
0100
0000
,
0100
0000
1000
0000
1000
0001
0000
0001
1000
0000
1000
0001
0000
0001
1000
0000
,
1000
0000
0010
0000
0010
0100
0000
0100
0010
0000
0010
0001
0000
0001
0010
0000
,
0100
0000
1000
0000
1000
0100
0000
0100
1000
0000
1000
0010
0000
0010
0100
0000
,
0001
0000
1000
0000
0010
0100
0000
0000
2002
0000
0000
0000
3003
0000
0000
0000
,
1100
0000
1100
0000
0100
0000
0100
0010
0000
0010
0100
0000
0000
0100
0010
0000
,
0011
0000
0011
0000
0010
0000
0100
1000
0000
1000
0100
0000
0010
0000
1000
0000
,
1001
0000
1001
0000
0001
0000
0100
0010
0000
0010
1000
0000
0000
0010
0100
0000
,
0011
0000
0011
0000
0010
0000
0100
1000
0000
1000
0100
0000
0010
0000
1000
0000
,
1001
0000
1001
0000
0001
0000
1000
0010
0000
0010
1000
0000
0000
0100
0010
0000
,
0110
0000
0110
0000
0100
0000
0001
1000
0000
1000
0001
0000
0100
0000
1000
0000
,
1010
0000
1010
0000
0010
0000
1000
0100
0000
0100
0010
0000
0000
0001
0010
0000
,
0110
0000
0110
0000
0100
0000
1000
0001
0000
0001
1000
0000
0010
0000
0100
0000
,
0001
0000
0010
0000
0100
0000
1000
0010
0000
0010
1000
0000
0000
0001
0100
0000
,
1000
0000
0100
0000
0001
0000
1000
0001
0000
0001
1000
0000
0010
0000
1000
0000
,
0100
0000
0010
0000
0001
0000
1000
0010
0000
0010
1000
0000
0000
0100
0010
0000
,
0100
0000
0001
0000
1000
0000
0010
0100
0000
0001
1000
0000
0010
0000
0100
0000
,
1000
0000
1000
0000
0100
0000
0010
0001
0000
0100
0001
0000
0000
0001
1000
0000
,
0010
0000
1000
0000
0100
0000
1000
0010
0000
1000
0001
0000
0100
0000
0010
0000
,
1000
0000
0100
0000
0001
0000
0100
0010
0000
1000
0001
0000
0000
0100
0010
0000
,
1000
0000
0100
0000
0010
0000
0001
0100
0000
0010
1000
0000
0001
0000
0100
0000
,
1100
0000
1100
0000
0100
0000
0001
0100
0000
0100
0001
0000
0000
1000
0001
0000
,
0100
0000
0010
0000
1000
0000
0001
1000
0000
0010
1000
0000
0100
0000
0001
0000
,
1001
0000
1001
0000
0001
0000
0100
0010
0000
1000
0001
0000
0000
0100
0010
0000
,
1000
0000
0100
0000
0001
0000
1000
0001
0000
1000
0010
0000
1000
0000
0100
0000
,
0110
0000
0110
0000
1000
0000
0001
1000
0000
0010
1000
0000
0000
0100
0010
0000
,
0011
0000
0011
0000
0010
0000
0100
0010
0000
1000
0001
0000
0100
0000
0010
0000
,
1000
0000
1000
0000
0100
0000
0001
0100
0000
1000
0010
0000
0000
1000
0010
0000
,
0100
0000
0001
0000
1000
0000
0010
0100
0000
0001
1000
0000
0010
0000
0100
0000
,
1000
0000
1000
0000
0100
0000
0100
0010
0000
0001
1000
0000
0000
0010
0100
0000
,
1000
0000
0001
0000
1000
0000
0010
0100
0000
0001
1000
0000
0010
0000
0100
0000
,
0001
0000
0001
0000
1000
0000
0010
0100
0000
0100
0010
0000
0000
1000
0001
0000
,
0100
0000
0010
0000
1000
0000
0001
0100
0000
1000
0010
0000
0100
0000
0001
0000
,
1001
0000
0000
0000
;

//---------------dance-single - ----------------
#NOTES:
     dance-single:
     :
     Medium:
     7:
     0.438,0.391,0.617,0.039,0.000,250.000,64.000,4.000,0.000,0.000,0.000,0.438,0.391,0.617,0.039,0.000,250.000,64.000,4.000,0.000,0.000,0.000:
0000
0000
0000
0000
,
0000
0000
0000
0000
,
0010
0010
0010
0010
,
0010
0010
0010
0010
,
0100
0100
0100
0100
,
0100
0100
0100
0100
,
0001
0001
0001
0001
,
0001
0001
0001
0001
,
1000
1000
1000
1000
,
1000
1000
1000
1001
,
0010
1000
1000
0100
,
0001
0010
0010
0100
,
1000
0010
0010
0100
,
0001
1000
1000
0010
,
0100
1100
0001
0011
,
1000
1100
0001
0011
,
1000
1010
0001
0011
,
1000
1100
0001
0011
,
0100
1100
0001
0011
,
1000
1100
0010
0011
,
1000
1100
0010
0011
,
1000
1100
0001
0011
,
1000
1010
0001
0011
,
1000
1010
0001
0011
,
1000
1010
0001
0011
,
1000
1010
0001
0011
,
0100
1100
0001
0101
,
1000
1010
0001
0101
,
0010
1010
0100
0110
,
0001
0011
2002
3003
,
0010
0010
0010
0000
0100
0000
0100
0000
,
1000
1000
1000
0000
0011
0000
0110
0000
,
1000
1000
1000
0000
0001
0000
0001
0000
,
0010
0010
0010
0000
0011
0000
0110
0000
,
1000
1000
0010
0000
0100
0000
0100
0000
,
0001
0001
0010
0000
0100
0000
0100
0000
,
1000
1000
0010
0000
0100
0000
0100
0000
,
0001
0001
0100
0000
1000
0000
1000
0000
,
0010
1000
0010
0000
1100
0000
1100
0000
,
0010
0001
0010
0000
0110
0000
0110
0000
,
1000
0001
1000
0000
1001
0000
1001
0000
,
0010
0100
0010
0000
0110
0000
0110
0000
,
1000
0100
0001
0000
0001
0000
0001
0000
,
0001
0010
0100
0000
0100
0000
0100
0000
,
0100
1000
0010
0000
0010
0000
0010
0000
,
0010
0100
0001
0000
0001
0000
0001
0000
,
1000
0100
1000
0000
1100
0000
0110
0000
,
0001
0010
0001
0000
0011
0000
0110
0000
,
1000
0010
1000
0000
0110
0000
0011
0000
,
0010
0100
0010
0000
1001
0000
0110
0000
,
1000
1000
0100
0000
0001
0000
0001
0000
,
0001
0001
0100
0000
0100
0000
0100
0000
,
0100
0100
0010
0000
0110
0000
0110
0000
,
0010
0010
1000
0000
1001
0000
1001
0000
,
0002
0103
1100
1100
,
0200
0310
0110
0110
,
1000
0001
1000
0000
0110
0000
1001
0000
,
1000
0100
0001
0000
0010
0000
0001
0000
,
1001
0000
0000
0000
;

//---------------dance-single - ----------------
#NOTES:
     dance-single:
     :
     Beginner:
     1:
     0.156,0.112,0.010,0.000,0.000,112.000,1.000,0.000,0.000,0.000,0.000,0.156,0.112,0.010,0.000,0.000,112.000,1.000,0.000,0.000,0.000,0.000: // measure 1
0000
0000
0000
0000
,  // measure 2
0000
0000
0000
0000
,  // measure 3
0010
0000
0010
0000
,  // measure 4
0010
0000
0010
0000
,  // measure 5
0010
0000
0010
0000
,  // measure 6
0010
0000
0010
0000
,  // measure 7
1000
0000
1000
0000
,  // measure 8
1000
0000
1000
0000
,  // measure 9
1000
0000
1000
0000
,  // measure 10
1000
0000
1000
0000
,  // measure 11
0001
0000
0001
0000
,  // measure 12
0100
0000
0100
0000
,  // measure 13
1000
0000
1000
0000
,  // measure 14
0010
0000
0010
0000
,  // measure 15
0100
0000
0100
0000
,  // measure 16
0010
0000
0010
0000
,  // measure 17
1000
0000
1000
0000
,  // measure 18
0001
0000
0001
0000
,  // measure 19
0100
0000
0010
0000
,  // measure 20
0100
0000
0010
0000
,  // measure 21
0100
0000
0010
0000
,  // measure 22
0100
0000
0010
0000
,  // measure 23
1000
0000
1000
0000
,  // measure 24
0001
0000
0001
0000
,  // measure 25
0010
0000
0010
0000
,  // measure 26
0100
0000
0100
0000
,  // measure 27
1000
0000
1000
0000
,  // measure 28
0010
0000
0010
0000
,  // measure 29
0100
0000
0010
0000
,  // measure 30
1000
0000
0000
0000
,  // measure 31
0100
0100
0000
0000
,  // measure 32
0010
0010
0000
0000
,  // measure 33
0001
0001
0000
0000
,  // measure 34
1000
1000
0000
0000
,  // measure 35
0010
0010
0000
0000
,  // measure 36
0100
0100
0000
0000
,  // measure 37
0001
0001
0000
0000
,  // measure 38
1000
1000
0000
0000
,  // measure 39
0010
0010
0000
0000
,  // measure 40
0100
0100
0000
0000
,  // measure 41
0010
0010
0000
0000
,  // measure 42
1000
1000
0000
0000
,  // measure 43
0001
0001
0000
0000
,  // measure 44
0100
0100
0000
0000
,  // measure 45
0010
0010
0000
0000
,  // measure 46
0100
0100
0000
0000
,  // measure 47
0010
0010
0000
0000
,  // measure 48
1000
1000
0000
0000
,  // measure 49
0001
0001
0000
0000
,  // measure 50
0100
0100
0000
0000
,  // measure 51
0010
0010
0000
0000
,  // measure 52
1000
1000
0000
0000
,  // measure 53
0001
0001
0000
0000
,  // measure 54
0100
0100
0000
0000
,  // measure 55
0010
0010
0000
0000
,  // measure 56
1000
1000
0000
0000
,  // measure 57
0001
0001
0000
0000
,  // measure 58
1000
1000
0000
0000
,  // measure 59
1001
0000
0000
0000
;
