#TITLE:Pick Me Fever;
#SUBTITLE:;
#ARTIST:Phase Invaders;
#TITLETRANSLIT:;
#SUBTITLETRANSLIT:;
#ARTISTTRANSLIT:;
#GENRE:;
#CREDIT:;
#BANNER:Pick Me Fever.png;
#BACKGROUND:Pick Me Fever-bg.png;
#LYRICSPATH:;
#CDTITLE:.\CDTITLES\DDRMAX6.PNG;
#MUSIC:Pick Me Fever.ogg;
#OFFSET:2.720;
#SAMPLESTART:73.600;
#SAMPLELENGTH:15.000;
#SELECTABLE:YES;
#DISPLAYBPM:132.000;
#BPMS:0.000=132.000;
#STOPS:;
#BGCHANGES:0.000=Pick Me Fever-bg.png=1.000=0=0=1=====,
4.000=Pick Me Fever.avi=1.000=0=0=1=====,
242.000=Pick Me Fever-bg.png=1.000=0=0=1=====,
99999=-nosongbg-=1.000=0=0=0 // don't automatically add -songbackground-
;
#KEYSOUNDS:;

//---------------dance-single - ----------------
#NOTES:
     dance-single:
     :
     Easy:
     2:
     0.126,0.164,0.201,0.000,0.000,75.000,22.000,0.000,0.000,0.000,0.000,0.126,0.164,0.201,0.000,0.000,75.000,22.000,0.000,0.000,0.000,0.000: // measure 1
0000
0000
0000
0000
,  // measure 2
0000
0000
0000
0000
,  // measure 3
0000
0000
0000
0000
,  // measure 4
0000
0000
0000
0000
,  // measure 5
0000
0000
0000
0000
,  // measure 6
0000
0000
0000
0000
,  // measure 7
0000
0000
0000
0000
,  // measure 8
0000
0000
0000
0000
,  // measure 9
0000
0000
0000
0000
,  // measure 10
0000
0000
0000
0000
,  // measure 11
0010
0000
0110
0000
,  // measure 12
0001
0000
1001
0000
,  // measure 13
0010
0000
0110
0000
,  // measure 14
1000
0000
0000
0000
,  // measure 15
0001
0000
1001
0000
,  // measure 16
0010
0000
0110
0000
,  // measure 17
0001
0000
1001
0000
,  // measure 18
0110
0000
0000
0000
,  // measure 19
1000
0000
1000
0000
,  // measure 20
0100
0000
0100
0000
,  // measure 21
0010
0000
0000
0000
,  // measure 22
0010
0000
0010
0000
,  // measure 23
0001
0000
0001
0000
,  // measure 24
0100
0000
0100
0000
,  // measure 25
0010
0000
0000
0000
,  // measure 26
0010
0000
0010
0000
,  // measure 27
0100
0000
0000
0000
,  // measure 28
0000
0000
0000
0000
,  // measure 29
0100
0000
0000
0000
,  // measure 30
0000
0000
0000
0000
,  // measure 31
0110
0000
0000
0000
,  // measure 32
0000
0000
0000
0000
,  // measure 33
1001
0000
0000
0000
,  // measure 34
0000
0000
0000
0000
,  // measure 35
0010
0000
1001
0000
,  // measure 36
0100
0000
0110
0000
,  // measure 37
1001
0000
0000
0000
,  // measure 38
0010
0000
0000
0000
,  // measure 39
0100
0000
0110
0000
,  // measure 40
0001
0000
1001
0000
,  // measure 41
0110
0000
0000
0000
,  // measure 42
1001
0000
0000
0000
,  // measure 43
1000
0000
0100
0000
,  // measure 44
0010
0000
0001
0000
,  // measure 45
1000
0000
0100
0000
,  // measure 46
0010
0000
0000
0000
,  // measure 47
0001
0000
0010
0000
,  // measure 48
0100
0000
1000
0000
,  // measure 49
0001
0000
0010
0000
,  // measure 50
0100
0000
0000
0000
,  // measure 51
1000
0000
0110
0000
,  // measure 52
0001
0000
0110
0000
,  // measure 53
1000
0000
1001
0000
,  // measure 54
0110
0000
0000
0000
,  // measure 55
0001
0000
0100
0000
,  // measure 56
0010
0000
0100
0000
,  // measure 57
1000
0000
0010
0000
,  // measure 58
0100
0000
0000
0000
,  // measure 59
1001
0000
0000
0000
,  // measure 60
0100
0000
0000
0000
,  // measure 61
0110
0000
0000
0000
;

//---------------dance-single - ----------------
#NOTES:
     dance-single:
     :
     Medium:
     4:
     0.248,0.301,0.255,0.000,0.000,162.000,28.000,0.000,0.000,0.000,0.000,0.248,0.301,0.255,0.000,0.000,162.000,28.000,0.000,0.000,0.000,0.000:
0000
0000
0000
0000
,
0000
0000
0000
0000
,
0000
0000
0000
0000
,
0000
0000
0000
0000
,
0000
0000
0000
0000
,
0000
0000
0000
0000
,
0000
0000
0000
0000
,
0000
0000
0000
0000
,
0000
0000
0000
0000
,
0000
0000
0000
0000
,
1000
1000
0010
0000
,
0001
0001
0100
0000
,
0010
0010
0100
0000
,
1000
0100
1000
0010
,
1000
1000
0100
0000
,
0010
0010
0001
0000
,
0100
0100
0010
0000
,
0100
0110
0000
0000
,
0010
0000
0100
0010
,
0001
1001
0010
0100
,
0010
0011
0000
0100
,
1000
0100
1000
0010
,
0100
0000
0010
0100
,
1000
0001
1000
1000
,
0100
0110
0010
0001
,
0100
0010
1001
1001
,
0100
0000
0000
0000
,
0010
1000
0001
1000
,
0100
0000
0000
0000
,
0010
0001
0010
0100
,
1000
0000
0000
0000
,
0100
0010
0100
0001
,
1000
0100
0010
0100
,
0001
1000
1010
0000
,
0011
0010
0100
1000
,
0100
0010
0001
1000
,
1001
0010
1000
0100
,
0110
0000
1001
0000
,
0110
0100
1000
0100
,
0001
0010
0100
1000
,
1001
0010
0110
0000
,
1000
1000
0100
0100
,
0001
0010
0110
0000
,
1000
0001
0110
0000
,
1000
0001
1001
0000
,
0110
0100
0010
0100
,
1000
0001
1001
0000
,
0001
1000
1001
0000
,
0010
0100
0110
0000
,
1000
0100
1000
0100
,
0001
0100
0110
0000
,
1000
0001
1001
0000
,
0010
0100
0110
0000
,
1000
0010
1000
0100
,
0010
0001
1001
0000
,
0010
0100
0110
0000
,
0001
1000
1001
0000
,
0010
0100
0010
0100
,
1000
0100
0000
0000
,
0010
0100
0000
0010
,
0110
0000
0000
0000
;

//---------------dance-single - ----------------
#NOTES:
     dance-single:
     :
     Hard:
     6:
     0.307,0.356,0.228,0.055,0.082,205.000,25.000,6.000,0.000,0.000,0.000,0.307,0.356,0.228,0.055,0.082,205.000,25.000,6.000,0.000,0.000,0.000:
0000
0000
0000
0000
,
0000
0000
0000
0000
,
0000
0000
0000
0000
,
0000
0000
0000
0000
,
0000
0000
0000
0000
,
0000
0000
0000
0000
,
0000
0000
0000
0000
,
0000
0000
0000
0000
,
0000
0000
0000
0000
,
0000
0000
0000
0000
,
1000
0000
0000
1000
0000
0000
1000
0000
0010
0000
0000
0000
0000
0000
0000
0000
,
0001
0000
0000
0001
0000
0000
0001
0000
0010
0000
0000
0000
0000
0000
0000
0000
,
0100
0000
0000
0100
0000
0000
0100
0000
0010
0000
0000
0000
0000
0000
0000
0000
,
1001
0010
1100
0110
,
0010
0000
0000
0010
0000
0000
0010
0000
0100
0000
0000
0000
0000
0000
0000
0000
,
1000
0000
0000
1000
0000
0000
1000
0000
0010
0000
0000
0000
0000
0000
0000
0000
,
0100
0000
0000
0100
0000
0000
0100
0000
0001
0000
0000
0000
0000
0000
0000
0000
,
1010
1100
0000
0000
,
0011
0010
0100
0010
,
1000
0100
0010
0000
0100
0000
0001
0000
,
0110
1000
0000
1100
,
0010
0100
0010
0100
,
1001
0001
0100
0010
,
0110
0110
1010
1010
,
0010
0100
0001
0010
,
0100
0010
0010
0000
0001
1000
0010
0000
,
2000
3100
0020
0031
,
1000
0000
0100
0000
1000
0010
0100
0000
,
0002
0103
0020
0130
,
1000
0000
0010
0000
0100
1000
0001
0000
,
0020
0031
0200
0310
,
1000
0000
0100
0000
1000
0001
0000
0100
,
0000
0110
0000
0000
1001
0000
0110
0000
,
0001
1100
0011
0100
,
0010
0100
0100
0100
,
0010
0000
1000
0000
0100
0010
0100
0000
,
0001
0010
1100
0100
,
0110
0010
0011
0010
,
0100
0100
0100
0100
,
0010
0000
1000
0000
0100
0010
0100
0000
,
0011
0010
0110
1000
,
0010
0100
0010
0100
,
0010
0000
0000
0010
0000
0000
0100
0000
1000
0000
0000
0000
0000
0000
0000
0000
,
0100
0000
0000
0100
0000
0000
0100
0000
0001
0000
0000
0000
0000
0000
0000
0000
,
0010
0000
0000
0010
0000
0000
0010
0000
0100
0000
0000
0000
0000
0000
0000
0000
,
1000
0100
0010
0001
,
0100
0000
0000
0100
0000
0000
0100
0000
0010
0000
0000
0000
0000
0000
0000
0000
,
0010
0000
0000
0010
0000
0000
0010
0000
1000
0000
0000
0000
0000
0000
0000
0000
,
1000
0000
0000
1000
0000
0000
1000
0000
0010
0000
0000
0000
0000
0000
0000
0000
,
0100
0010
0100
0010
,
0100
0000
0000
0100
0000
0000
0001
0000
0010
0000
0000
0000
0000
0000
0000
0000
,
0100
0000
0000
0100
0000
0000
1000
0000
0010
0000
0000
0000
0000
0000
0000
0000
,
0100
0000
0000
0100
0000
0000
0001
0000
1000
0000
0000
0000
0000
0000
0000
0000
,
0010
1000
0100
0010
,
0001
0000
0000
0001
0000
0000
0100
0000
0010
0000
0000
0000
0000
0000
0000
0000
,
0010
0000
0000
0010
0000
0000
1000
0000
0100
0000
0000
0000
0000
0000
0000
0000
,
0010
0000
0000
0010
0000
0000
0100
0000
0010
0000
0000
0000
0000
0000
0000
0000
,
1000
0100
0010
1000
,
0001
1001
0100
0010
,
0100
0000
0010
0000
0000
0110
0000
1000
,
0001
0000
0000
0000
;

//---------------dance-single - ----------------
#NOTES:
     dance-single:
     :
     Challenge:
     7:
     0.360,0.438,0.219,0.164,0.087,234.000,24.000,18.000,0.000,0.000,0.000,0.360,0.438,0.219,0.164,0.087,234.000,24.000,18.000,0.000,0.000,0.000:
0000
0000
0000
0000
,
0000
0000
0000
0000
,
0000
0000
0000
0000
,
0000
0000
0000
0000
,
0000
0000
0000
0000
,
0000
0000
0000
0000
,
0000
0000
0000
0000
,
0000
0000
0000
0000
,
0000
0000
0000
0000
,
0000
0000
0000
0000
,
1000
0000
0000
0100
0000
0000
0010
0000
0100
0000
0000
0000
0000
0000
0000
0000
,
0001
0000
0000
0010
0000
0000
0100
0000
1000
0000
0000
0000
0000
0000
0000
0000
,
0100
0000
0000
0010
0000
0000
1000
0000
0100
0000
0000
0000
0000
0000
0000
0000
,
0110
0011
1100
0110
,
0010
0000
0000
1000
0000
0000
0100
0000
0010
0000
0000
0000
0000
0000
0000
0000
,
0010
0000
0000
0100
0000
0000
1000
0000
0001
0000
0000
0000
0000
0000
0000
0000
,
0010
0000
0000
0100
0000
0000
1000
0000
0001
0000
0000
0000
0000
0000
0000
0000
,
1000
0010
0100
0001
0000
0000
0000
0000
,
0011
0000
0011
0000
0010
0100
1000
0010
,
0100
0010
0001
0000
0010
0100
1000
0010
,
0100
0000
0000
0010
0000
0000
0000
0000
0000
0000
0000
0000
0010
0000
0100
0000
,
0001
1000
0010
0100
0010
1000
0001
0100
,
1001
1001
0010
0001
,
0100
0000
0010
1000
0001
0100
0010
1000
,
0101
0000
0110
0000
1100
0000
0100
0010
,
0001
0010
0110
0000
1000
0001
1000
0100
,
0020
0032
0203
0320
,
1030
0001
0100
1000
0010
0100
0010
1000
,
0002
0203
0320
2030
,
3100
0010
0100
1000
0100
0010
0100
0001
,
2000
3200
0320
0032
,
1003
0100
0010
0100
1000
0100
0000
0010
,
0000
0001
0000
0000
0010
0100
1000
0000
,
0100
0000
0010
1000
0001
0100
0000
1000
,
0010
0100
0100
0100
,
0010
0000
0100
0001
1000
0010
1000
0000
,
0200
0301
2000
3020
,
0230
0301
1001
0000
,
0010
0010
0010
0010
,
0100
0000
0001
0100
1000
0010
0100
0000
,
0002
2003
3010
0100
,
0011
1010
0110
0011
,
1000
0000
0000
1000
0000
0000
1000
0000
0010
0000
0000
0000
0000
0000
0000
0000
,
0001
0000
0000
0001
0000
0000
0001
0000
0100
0000
0000
0000
0000
0000
0000
0000
,
0100
0000
0000
0100
0000
0000
0010
0000
0100
0000
0000
0000
0000
0000
0000
0000
,
0001
0010
0100
1000
,
0010
0000
0000
0010
0000
0000
0010
0000
0100
0000
0000
0000
0000
0000
0000
0000
,
0010
0000
0000
0010
0000
0000
0010
0000
0100
0000
0000
0000
0000
0000
0000
0000
,
0010
0000
0000
0010
0000
0000
0100
0000
1000
0000
0000
0000
0000
0000
0000
0000
,
1000
0100
0010
0100
0110
0000
1001
0000
,
0010
0000
0000
0100
0000
0000
0010
0000
0100
0000
0000
0000
0000
0000
0000
0000
,
1000
0000
0000
0001
0000
0000
0100
0000
0010
0000
0000
0000
0000
0000
0000
0000
,
0100
0000
0000
0010
0000
0000
0100
0000
0010
0000
0000
0000
0000
0000
0000
0000
,
0100
0010
0001
1000
,
0010
0000
0000
0100
0000
0000
1000
0000
0001
0000
0000
0000
0000
0000
0000
0000
,
0010
0000
0000
0100
0000
0000
1000
0000
0001
0000
0000
0000
0000
0000
0000
0000
,
0010
0000
0000
0100
0000
0000
0010
0000
1000
0000
0000
0000
0000
0000
0000
0000
,
0110
0010
1001
0110
,
1000
0010
0001
0100
,
0010
0000
0100
0000
0000
0110
0000
0000
,
1001
0000
0000
0000
;

//---------------dance-single - ----------------
#NOTES:
     dance-single:
     :
     Beginner:
     1:
     0.099,0.109,0.000,0.000,0.000,76.000,0.000,0.000,0.000,0.000,0.000,0.099,0.109,0.000,0.000,0.000,76.000,0.000,0.000,0.000,0.000,0.000:
0000
0000
0000
0000
,
0000
0000
0000
0000
,
0000
0000
0000
0000
,
0000
0000
0000
0000
,
0000
0000
0000
0000
,
0000
0000
0000
0000
,
0000
0000
0000
0000
,
0000
0000
0000
0000
,
0000
0000
0000
0000
,
0000
0000
0000
0000
,
0010
0000
0010
0000
,
0100
0000
0100
0000
,
0010
0000
0010
0000
,
0100
0000
0000
0000
,
0001
0000
0001
0000
,
1000
0000
1000
0000
,
0010
0000
0010
0000
,
0100
0000
0000
0000
,
0010
0000
1000
0000
,
0100
0000
0000
0000
,
0010
0000
0000
0000
,
0100
0000
0100
0000
,
0001
0000
0010
0000
,
0100
0000
1000
0000
,
0010
0000
0000
0000
,
0100
0000
0000
0000
,
0001
0000
0000
0000
,
0000
0000
0000
0000
,
1000
0000
0000
0000
,
0000
0000
0000
0000
,
0010
0000
0000
0000
,
0000
0000
0000
0000
,
0100
0000
0000
0000
,
0000
0000
0000
0000
,
0010
0000
0010
0000
,
0100
0000
0100
0000
,
1000
0000
0010
0000
,
0100
0000
0010
0000
,
0001
0000
0001
0000
,
0100
0000
0100
0000
,
0010
0000
0100
0000
,
1000
0000
0000
0000
,
0010
0000
0010
0000
,
0001
0000
0001
0000
,
0100
0000
0100
0000
,
0010
0000
0000
0000
,
0100
0000
0100
0000
,
0010
0000
0010
0000
,
0100
0000
0100
0000
,
0001
0000
0000
0000
,
0010
0000
0010
0000
,
0100
0000
0100
0000
,
0001
0000
0001
0000
,
1000
0000
0000
0000
,
0010
0000
0010
0000
,
0100
0000
0100
0000
,
0001
0000
0001
0000
,
1000
0000
0000
0000
,
0010
0000
0000
0000
,
0100
0000
0000
0000
,
0010
0000
0000
0000
;
