#TITLE:Passionate Embrace;
#SUBTITLE:;
#ARTIST:Seversky;
#TITLETRANSLIT:;
#SUBTITLETRANSLIT:;
#ARTISTTRANSLIT:;
#GENRE:;
#CREDIT:;
#BANNER:Passionate Embrace.png;
#BACKGROUND:Passionate Embrace-bg.png;
#LYRICSPATH:;
#CDTITLE:.\CDTITLES\DDRMAX6.PNG;
#MUSIC:Passionate Embrace.ogg;
#OFFSET:-0.040;
#SAMPLESTART:60.720;
#SAMPLELENGTH:15.000;
#SELECTABLE:YES;
#DISPLAYBPM:85.000:170.000;
#BPMS:0.000=85.000,44.000=170.000,184.000=85.000,192.000=170.000;
#STOPS:;
#BGCHANGES:;
#KEYSOUNDS:;

//---------------dance-single - ----------------
#NOTES:
     dance-single:
     :
     Hard:
     8:
     0.522,0.471,0.429,0.062,0.020,405.000,55.000,8.000,0.000,0.000,0.000,0.522,0.471,0.429,0.062,0.020,405.000,55.000,8.000,0.000,0.000,0.000:
0000
0000
0000
0000
,
0000
0000
0000
0000
,
1000
0000
0000
0010
0010
0100
0100
0001
,
1000
0000
0000
0010
0010
0100
0001
1000
,
0020
0000
0000
0130
0200
0000
0320
0000
,
0130
0000
0001
1000
0001
0000
0100
0000
0020
0000
0000
0000
0000
0000
0130
1000
,
0200
0000
0320
0032
,
0103
0100
1000
1000
0010
0010
0100
0100
,
0002
0000
0000
0000
1003
1000
0010
0010
,
0100
0000
0000
0010
1000
0001
0100
0010
,
0110
0000
0000
0010
0001
1000
0010
0100
,
1001
0000
0000
0010
,
0100
1000
0010
0100
,
1001
0000
0000
0010
,
0100
1000
0010
0100
,
0001
0010
0010
0000
0100
1000
1000
0000
,
0010
0000
1000
0000
0010
0000
0100
0000
0001
0000
1000
0100
1000
0000
0010
0000
,
0100
0100
0001
0000
1000
1000
0010
0000
,
0100
0000
0001
0000
1000
0000
0010
0000
0100
0000
0001
1000
0001
0000
0100
0000
,
0010
0010
0001
0000
0001
0100
0010
0000
,
1000
0000
0100
0000
1000
0000
0010
0000
0100
0000
0001
0010
0001
0000
0010
0000
,
0100
1000
0010
0000
0100
0000
1000
0000
,
1010
0000
0011
0000
0101
0000
0010
0001
,
0011
0000
0010
0100
0000
1000
0010
0100
,
0110
0000
0001
1001
0000
1000
0010
0100
,
0011
0000
0001
0010
0100
0000
1000
0000
,
1010
0000
0100
0110
0000
0001
1000
0010
,
1001
0000
0100
0011
0000
0010
0100
1000
,
1010
0000
0100
0110
0000
0001
1000
0010
,
0110
0000
0001
1000
1010
0000
0101
0000
,
1001
0000
0000
0000
,
0000
0000
0000
0000
0010
1000
0010
1000
,
0100
0010
0011
0000
0010
0100
0010
1010
,
0000
0000
0100
0000
0010
0000
1000
0001
,
1000
0001
0100
0000
0010
1000
0010
0011
,
0000
0000
0100
0000
0010
0100
0010
0100
,
1000
0100
1000
0000
0100
0010
0001
0011
,
0000
0010
0100
1000
0010
0100
0010
0100
,
1000
0001
0100
0000
0010
1000
0001
1001
,
0000
0000
0010
0000
0100
0000
0010
1000
,
0010
0100
0011
0000
0010
0100
1000
1010
,
0000
0000
0100
0000
0001
0100
0010
1000
,
0100
0010
0011
0000
0010
0100
1000
1010
,
0000
0100
0010
0100
0001
0100
0010
0100
,
1000
0100
0010
0000
0100
0001
1000
1001
,
0000
0000
0000
0000
,
0010
0000
0000
0100
1000
0010
0100
0010
,
0100
0000
0000
0001
0010
0100
1000
0010
,
0100
0000
1000
0100
0010
0000
0100
0000
,
0001
0010
0100
1000
,
0010
0000
0100
0001
1000
0000
0100
0000
,
0010
1000
0100
0010
,
0101
0000
0001
0100
1000
0000
0010
0000
,
1100
0110
0011
0101
,
1001
0000
0010
1000
0001
0000
0100
0000
,
0011
1100
0011
1100
,
0011
0000
0100
1000
0100
0000
0010
0000
,
0110
1010
0011
0110
,
1000
0000
0100
0010
0001
0000
1000
0000
,
0100
0000
0010
0001
0100
0010
1000
0100
,
0010
0000
0000
0010
1001
0000
0010
0000
,
1100
0000
0000
0010
0110
0000
1000
0100
,
0001
0010
0100
0000
0100
1000
0010
0110
,
0000
0000
0001
0000
1000
0000
0010
0100
,
0010
1000
0001
0000
0100
0010
1000
1001
,
0000
0000
0100
0000
0010
1000
0100
1000
,
0010
0100
0001
0000
0010
0100
1000
0010
,
0000
0100
0001
0010
0100
0001
1000
0100
,
1000
0010
0100
0000
0010
1000
0001
0100
,
0000
0000
0010
0000
0010
0000
0100
1000
,
0001
1000
0001
0000
0010
0100
1000
1001
,
0000
0000
0100
0000
0010
0100
0001
0010
,
0100
1000
0001
0000
0010
0100
1000
1001
,
0000
0010
0100
0010
1000
0010
1000
0010
,
0100
0001
0101
0000
0010
0100
1000
1001
,
0000
0000
1001
0000
;

//---------------dance-single - ----------------
#NOTES:
     dance-single:
     :
     Easy:
     5:
     0.269,0.324,0.164,0.000,0.004,220.000,21.000,0.000,0.000,0.000,0.000,0.269,0.324,0.164,0.000,0.004,220.000,21.000,0.000,0.000,0.000,0.000:
0000
0000
0000
0000
,
0000
0000
0000
0000
,
1000
0000
0000
0100
0010
0000
0001
0000
,
0011
0000
0000
0010
0100
0000
0010
0000
,
0110
0000
0010
1000
,
1000
0000
0010
0100
0010
0000
0100
0000
0001
0000
0000
0000
0000
0000
0100
0000
,
0010
0000
0000
0010
,
0001
0010
0100
1000
,
0100
0000
0001
0000
,
0010
0000
0000
0010
0100
0000
0001
0000
,
1001
0000
0000
0100
0100
0000
0010
0000
,
1000
0000
0000
0100
,
1000
0000
0001
0000
,
0100
0000
0000
0010
,
0100
0000
1000
0000
,
0100
0100
0010
0010
,
0100
0000
0100
0000
1000
0000
0001
0100
,
0001
0001
0100
0100
,
0001
0000
0001
0000
0010
0000
0100
0001
,
0010
0010
1000
1000
,
0010
0000
0010
0000
1000
0000
0100
1000
,
0010
0010
1000
1000
,
0001
0010
0100
0000
,
1010
0000
0000
0001
,
0011
0000
0000
0010
,
0110
0000
1000
0010
,
0001
0000
0000
0001
,
0011
0000
0000
0100
,
1100
0000
0000
0010
,
0110
0000
1000
0010
,
0100
0000
0000
0000
,
0000
0000
0000
0000
,
0100
0100
0010
0010
,
0100
0000
0000
0010
,
0100
0100
0001
0001
,
0100
0000
0000
0100
,
0010
0010
0001
0001
,
0010
0000
0010
0000
1000
0000
0100
0010
,
1000
0100
0001
0010
,
1000
0000
0000
1000
,
0100
0100
0010
0010
,
0100
0000
0000
0100
,
1000
1000
0001
0001
,
0100
0100
0010
0100
,
1000
0000
0100
0000
0010
0000
0000
0100
,
0000
0000
0000
0000
,
0010
0000
0000
0100
0010
0000
0100
0000
,
0110
0000
0000
0001
1000
0000
0001
0000
,
1001
0000
0000
0010
,
0100
0000
0010
0000
,
0110
0000
0000
1000
,
0001
0000
1000
0000
,
1001
0000
0000
0100
,
0010
0000
0100
0000
,
0110
0000
0000
0001
,
1000
0000
0001
0000
,
1001
0000
0000
0010
,
0100
0000
0010
0000
,
0110
0000
0000
1000
,
0001
0000
1000
0000
,
1001
0000
0101
0000
,
0011
0000
1100
0000
,
1000
0010
0100
0001
,
1000
0000
0000
0010
,
0100
1000
0001
1000
,
0001
0000
0000
0100
,
0010
0100
1000
0100
,
0001
0000
0010
0000
0100
0000
0010
0001
,
0100
0010
0001
1000
,
0001
0000
0000
0010
,
0100
1000
0010
0100
,
1000
0000
0000
0010
,
0100
1000
0010
0100
,
0001
1000
0010
1000
,
0100
0000
0010
0000
1000
0000
0000
0001
,
0000
0000
1001
0000
;

//---------------dance-single - ----------------
#NOTES:
     dance-single:
     :
     Medium:
     7:
     0.337,0.383,0.226,0.000,0.004,273.000,29.000,0.000,0.000,0.000,0.000,0.337,0.383,0.226,0.000,0.004,273.000,29.000,0.000,0.000,0.000,0.000:
0000
0000
0000
0000
,
0000
0000
0000
0000
,
1000
0000
0000
0010
0100
0010
1000
0001
,
1001
0000
0000
0010
0100
0010
1000
0001
,
0011
0000
0000
0010
1000
0000
0010
0000
,
1000
0000
0001
0010
0001
0000
0100
0000
0010
0000
0000
0000
0000
0000
1000
0000
,
0100
0000
0000
0100
,
1000
0100
0010
0100
0001
0010
1000
0100
,
0001
0000
1000
0000
,
0001
0000
0000
0010
0001
0010
0001
0010
,
0110
0000
0000
0100
1000
0100
0010
0100
,
0110
0000
0000
0010
,
0100
1000
0010
0001
,
0101
0000
0000
0001
,
0010
1000
0010
0100
,
0001
1000
0010
0000
0100
0010
0100
0000
,
0001
0001
0100
0000
0010
0000
0010
0000
,
0010
1000
0010
0000
1000
0100
1000
0000
,
0010
0100
0010
0000
0001
0000
0001
0000
,
0010
0100
0010
0000
0100
0010
0100
0000
,
0001
0100
0001
0000
0100
0000
0100
0000
,
0010
0100
1000
0100
,
0001
0000
0100
0000
0010
0000
0100
0010
,
0110
0000
0000
0000
0000
0000
0001
1000
,
1001
0000
0000
0000
0000
0010
0100
0010
,
0110
0000
1010
0110
,
0011
0000
0000
0000
0000
0000
0010
0001
,
0011
0000
0000
0000
0000
0000
1000
0010
,
1010
0000
0000
0000
0000
0010
0100
0010
,
0110
0000
0011
1100
,
0110
0000
0000
0000
,
0000
0000
1000
0010
,
0001
0000
0100
0000
0001
0000
1000
0001
,
0000
0000
0000
0010
,
1000
0000
0001
0000
0100
0000
0010
0100
,
0000
0000
0000
1000
,
0010
0000
0100
0000
0010
0000
0001
0100
,
0000
0000
0010
0000
0100
0000
1000
0010
,
1000
0000
0100
0000
0010
0000
0001
1000
,
0000
0000
0000
0100
,
1000
0000
0010
0000
0100
0000
0001
1000
,
0000
0000
0000
1000
,
0010
0000
0100
0000
0001
0000
1000
0001
,
0000
0010
0100
0100
,
1000
0000
0100
0000
0010
0100
0010
0100
,
0000
0000
0000
0000
,
1000
0000
0000
0100
0010
0100
0010
0100
,
0110
0000
0000
0001
1000
0001
1000
0001
,
1001
0000
0000
0010
,
0001
0100
0010
1000
,
1010
0000
0000
0100
,
0001
0100
0010
0100
,
0101
0000
0000
0001
,
0010
1000
0010
0100
,
0110
0000
0000
1000
,
0010
0100
0010
1000
,
1001
0000
0000
0010
,
0100
0010
1000
0010
,
1001
0000
0000
0001
,
0010
0001
0100
0010
,
0110
0000
0011
0000
,
1100
0000
0110
0000
,
0010
0000
1000
0000
0010
0000
1000
0001
,
0000
0000
0000
0010
,
1000
0000
0001
0000
0100
0000
0010
1000
,
0000
0000
0000
0001
,
0100
0000
0010
0000
1000
0000
0001
0100
,
0000
0000
0010
0000
1000
0000
0001
0010
,
0100
0000
0001
0000
1000
0000
0001
0100
,
0000
0000
0000
0010
,
0100
0000
1000
0000
0010
0000
0100
0001
,
0000
0000
0000
1000
,
0010
0000
0100
0000
0001
0000
1000
0001
,
0000
0010
0100
1000
,
0100
0000
0010
0000
1000
0000
0001
1000
,
0000
0000
1001
0000
;

//---------------dance-single - ----------------
#NOTES:
     dance-single:
     :
     Beginner:
     2:
     0.167,0.177,0.101,0.000,0.000,137.000,13.000,0.000,0.000,0.000,0.000,0.167,0.177,0.101,0.000,0.000,137.000,13.000,0.000,0.000,0.000,0.000: // measure 1
0000
0000
0000
0000
,  // measure 2
0000
0000
0000
0000
,  // measure 3
1000
0000
0010
0000
,  // measure 4
0001
0000
0010
0000
,  // measure 5
0100
0000
1000
0000
,  // measure 6
0010
0000
0100
0000
,  // measure 7
0010
0000
0000
0000
,  // measure 8
0001
0000
0010
0000
,  // measure 9
0100
0000
0000
0000
,  // measure 10
0010
0000
0100
0100
,  // measure 11
0100
0000
0010
0010
,  // measure 12
0010
0000
0000
0000
,  // measure 13
0001
0000
0001
0000
,  // measure 14
0001
0000
0000
0000
,  // measure 15
1000
0000
1000
0000
,  // measure 16
0010
0000
0110
0000
,  // measure 17
0010
0000
0110
0000
,  // measure 18
0001
0000
1001
0000
,  // measure 19
0001
0000
1001
0000
,  // measure 20
0010
0000
0100
0000
,  // measure 21
0010
0000
0100
0000
,  // measure 22
1000
0000
0010
0000
,  // measure 23
0100
0000
0000
0001
,  // measure 24
0001
0000
0000
1000
,  // measure 25
1000
0000
0000
0010
,  // measure 26
0010
0000
0100
0100
,  // measure 27
0100
0000
0000
0010
,  // measure 28
0010
0000
0000
0001
,  // measure 29
0001
0000
0000
0100
,  // measure 30
0100
0000
0010
0010
,  // measure 31
0010
0000
0000
0000
,  // measure 32
0000
0000
0000
0000
,  // measure 33
0100
0000
0010
0000
,  // measure 34
0110
0000
0000
0001
,  // measure 35
0001
0000
1000
0000
,  // measure 36
1001
0000
0000
0010
,  // measure 37
0010
0000
0100
0000
,  // measure 38
0010
0000
0100
0000
,  // measure 39
0010
0000
1000
0000
,  // measure 40
0001
0000
0000
1000
,  // measure 41
1000
0000
0001
0000
,  // measure 42
1001
0000
0000
0010
,  // measure 43
0010
0000
0100
0000
,  // measure 44
0010
0000
0100
0000
,  // measure 45
1000
0000
0010
0000
,  // measure 46
0100
0000
0000
0000
,  // measure 47
0010
0000
0001
0000
,  // measure 48
0100
0000
1000
0000
,  // measure 49
0010
0000
0000
0000
,  // measure 50
0100
0000
0010
0000
,  // measure 51
0100
0000
0000
0000
,  // measure 52
0001
0000
1000
0000
,  // measure 53
0001
0000
0000
0000
,  // measure 54
0010
0000
0100
0000
,  // measure 55
0110
0000
0000
0000
,  // measure 56
1000
0000
0001
0000
,  // measure 57
1001
0000
0000
0000
,  // measure 58
0010
0000
0100
0000
,  // measure 59
0110
0000
0000
0000
,  // measure 60
1000
0000
0001
0000
,  // measure 61
1001
0000
0110
0000
,  // measure 62
0010
0000
0100
0000
,  // measure 63
0010
0000
0001
0000
,  // measure 64
0100
0000
0000
0000
,  // measure 65
0010
0000
1000
0000
,  // measure 66
0100
0000
0000
0010
,  // measure 67
0010
0000
0100
0000
,  // measure 68
0001
0000
0100
0000
,  // measure 69
0010
0000
0100
0000
,  // measure 70
1000
0000
0000
0010
,  // measure 71
0010
0000
0100
0000
,  // measure 72
0001
0000
0000
0010
,  // measure 73
0010
0000
0100
0000
,  // measure 74
1000
0000
0010
0000
,  // measure 75
0100
0000
0001
0000
,  // measure 76
0100
0000
1001
0000
;
