#TITLE:PONPONPON (DJ Twintale's Hardcore Bootleg Mix);
#SUBTITLE:;
#ARTIST:きゃりーぱみゅぱみゅ;
#TITLETRANSLIT:;
#SUBTITLETRANSLIT:;
#ARTISTTRANSLIT:Kyary Pamyu Pamyu;
#GENRE:;
#CREDIT:;
#BANNER:PONPONPON (DJ Twintale's Hardcore Bootleg Mix).png;
#BACKGROUND:PONPONPON (DJ Twintale's Hardcore Bootleg Mix)-bg.png;
#LYRICSPATH:;
#CDTITLE:.\CDTITLES\DDRMAX6.PNG;
#MUSIC:PONPONPON (Twintale's Hardcore Bootleg Mix).ogg;
#OFFSET:0.000;
#SAMPLESTART:67.760;
#SAMPLELENGTH:15.000;
#SELECTABLE:YES;
#DISPLAYBPM:170.000;
#BPMS:0.000=170.000;
#STOPS:;
#BGCHANGES:;
#KEYSOUNDS:;

//---------------dance-single - ----------------
#NOTES:
     dance-single:
     :
     Hard:
     8:
     0.472,0.474,0.195,0.161,0.000,348.000,23.000,19.000,0.000,0.000,0.000,0.472,0.474,0.195,0.161,0.000,348.000,23.000,19.000,0.000,0.000,0.000:
0000
0000
0000
0000
,
0000
0000
0000
0000
,
0000
0000
0000
0000
,
0000
0000
0000
0000
,
0000
0000
0000
0000
,
0000
0000
0000
0000
,
0000
0000
0000
0000
,
0000
0000
0000
0000
0010
0100
0010
0000
,
1000
0100
0000
0010
0000
0001
0000
0100
,
0010
0100
0000
0010
0000
0100
0000
1000
,
0010
1000
0000
0100
0000
0010
0000
0001
,
0010
0001
0000
0100
0000
0010
0000
0100
,
0010
0100
0000
1000
0000
0010
0000
0100
,
0010
0100
0000
0010
0000
0001
0000
0100
,
0010
0100
0000
0010
0000
1000
0000
0000
,
0010
0100
2000
0000
0000
3100
0010
0001
,
1000
0000
0010
0000
0100
0001
1000
0000
,
0010
1000
0010
1000
0010
1000
0010
0000
,
0100
0000
0001
0000
0100
0010
0100
0000
,
1000
0010
1000
0010
0100
0010
0100
0000
,
0001
0000
0100
0000
0010
1000
0010
0000
,
0100
0010
0100
0010
0100
0010
0100
0000
,
0001
0000
1000
0000
0010
0001
0010
0000
,
0001
1000
1001
0000
0010
0100
0101
0000
,
0020
0000
0000
0000
,
2030
0000
0000
0000
,
3020
0000
0000
0000
,
0032
0000
0000
0000
,
0203
0000
0000
0000
,
0320
0000
0000
0000
,
2030
0000
0000
0000
,
3020
0000
0000
0000
,
0130
0000
1000
0000
0001
1001
0000
0010
,
0000
0000
0000
0100
0010
0000
1000
0000
,
0100
0000
0010
0000
0001
0011
0000
0100
,
0000
0000
0000
0010
0100
0000
0010
0000
,
1000
0000
0100
0000
0001
0101
0000
0010
,
0000
0000
0000
0010
0100
0000
0010
0000
,
1000
0000
0100
0000
0010
1000
0000
0100
,
0000
0001
0000
0010
0110
0000
1001
0000
,
0010
0000
1000
0000
0001
0100
0000
0010
,
0000
0000
0000
0001
1001
0000
0110
0000
,
1000
0000
0010
0000
1000
1010
0000
0110
,
0000
0000
0000
0001
0100
0000
0010
0000
,
1000
0000
0010
0000
0100
0101
0000
0010
,
0000
0000
0000
0001
1000
0000
0010
0000
,
0100
0000
1000
0000
0010
1010
0000
0100
,
0000
0010
0100
0010
0100
0010
0100
0010
,
0001
0000
0010
0000
1000
0010
1000
0000
,
0100
0010
0100
0010
0100
0010
0100
0000
,
0001
0000
1000
0000
0010
0100
0010
0000
,
0001
0010
0001
0010
0001
0010
0001
0000
,
0100
0000
0010
0000
1000
0010
1000
0000
,
0100
0010
0100
0010
0100
0010
0100
0000
,
0001
0000
0010
0000
1000
0100
1000
0000
,
0010
0100
0010
0100
0010
0100
0010
0000
,
1000
0000
0100
0000
0001
1000
0001
0000
,
0010
0100
0010
0100
0010
0100
0010
0000
,
1000
0000
0100
0000
0010
0001
0010
0000
,
0100
1000
0100
1000
0100
1000
0100
0000
,
0010
0000
0100
0000
0010
0100
0010
0000
,
0001
0010
0001
0010
0001
0010
0001
0000
,
0100
0000
0010
0000
1000
0010
1000
0000
,
0100
0010
0100
0010
0100
0010
0100
0000
,
0000
0010
0100
0010
0220
0000
0330
0000
,
0000
0001
1000
0001
2002
0000
3003
0000
,
0000
0010
0100
0010
0100
0000
1000
0000
,
0100
0010
0100
0010
0022
0000
0033
0000
,
0000
0010
1000
0010
2020
0000
3030
0000
,
0000
0010
0100
0010
0220
0000
0330
0000
,
0000
1000
0010
0100
0101
0000
1010
0000
,
0110
0000
0000
0010
0100
0010
0110
0000
,
1000
0000
0100
0000
0010
0001
0010
0000
,
0100
0010
0100
0010
0100
0010
0100
0000
,
1000
0000
0100
0000
0010
0001
0010
0000
,
0100
1000
0100
1000
0100
1000
0100
0000
,
0001
0000
0100
0000
0010
0100
0010
0000
,
1000
0010
1000
0010
1000
0010
1000
0000
,
0100
0000
0010
0000
0001
0010
0001
0000
,
0100
0010
0100
0010
0100
0010
0100
0000
,
1001
0000
0000
0000
;

//---------------dance-single - ----------------
#NOTES:
     dance-single:
     :
     Easy:
     5:
     0.312,0.407,0.144,0.178,0.000,220.000,17.000,21.000,0.000,0.000,0.000,0.312,0.407,0.144,0.178,0.000,220.000,17.000,21.000,0.000,0.000,0.000:
0000
0000
0000
0000
,
0000
0000
0000
0000
,
0000
0000
0000
0000
,
0000
0000
0000
0000
,
0000
0000
0000
0000
,
0000
0000
0000
0000
,
0000
0000
0000
0000
,
0000
0000
0010
0000
,
0100
0100
0010
0001
,
1000
0001
0010
0001
,
1000
1000
0010
0001
,
0100
0001
0010
0001
,
0100
0100
0010
1000
,
0001
1000
0010
1000
,
0100
0100
0010
0001
,
0020
0230
0302
2003
,
3010
0010
0001
0100
,
1000
0100
0001
1000
,
0001
0001
0010
0100
,
0010
1000
0100
0010
,
1000
1000
0001
0010
,
0100
0001
0100
0010
,
0100
0100
0100
0100
,
0011
1100
0110
0011
,
0200
0000
0000
0000
,
0320
0000
0000
0000
,
0032
0000
0000
0000
,
2003
0000
0000
0000
,
3020
0000
0000
0000
,
0230
0000
0000
0000
,
0320
0000
0000
0000
,
0032
0000
0000
0000
,
1003
0100
0010
0001
,
1000
0000
0010
0001
,
1000
0100
0010
0001
,
1000
0000
0010
0001
,
1000
0100
0010
0001
,
1000
0000
0010
0001
,
1000
0100
0010
0001
,
1000
0000
0010
0001
,
0010
0100
1000
0100
,
0110
0000
0010
0100
,
1000
0100
0010
0100
,
0110
0000
0001
1000
,
0010
1000
0100
0001
,
1001
0000
0010
1000
,
0100
0010
1001
0000
,
0110
0110
0011
0011
,
1000
1000
0100
0001
,
0100
0001
0100
0010
,
0001
0001
0100
1000
,
0100
1000
0100
1000
,
0010
0010
0100
0100
,
0001
0100
0001
0100
,
0010
0010
0100
0010
,
0200
0000
0000
0300
,
0010
0010
0001
1000
,
0010
1000
0100
1000
,
0010
0000
0000
0000
,
0000
0000
0000
0000
,
0001
0001
0100
0010
,
0100
1000
0100
0010
,
1000
1000
0100
0010
,
0001
0000
0000
0000
,
0000
0010
0220
0330
,
0000
1000
2020
3030
,
0000
0010
0011
0000
,
0000
0000
0000
0000
,
0000
0100
2200
3300
,
0000
0010
0220
0330
,
0000
0000
0000
0000
,
0000
0000
0000
0000
,
1000
1000
0010
0001
,
0010
0100
1000
0010
,
0100
0100
0001
0010
,
0100
0010
1000
0100
,
0001
0001
0100
0010
,
1000
0100
0010
0001
,
1000
1000
0100
0010
,
1000
0000
0000
0000
,
0001
0000
0000
0000
;

//---------------dance-single - ----------------
#NOTES:
     dance-single:
     :
     Medium:
     7:
     0.376,0.440,0.364,0.152,0.000,250.000,43.000,18.000,0.000,0.000,0.000,0.376,0.440,0.364,0.152,0.000,250.000,43.000,18.000,0.000,0.000,0.000: // measure 1
0000
0000
0000
0000
,  // measure 2
0000
0000
0000
0000
,  // measure 3
0000
0000
0000
0000
,  // measure 4
0000
0000
0000
0000
,  // measure 5
0000
0000
0000
0000
,  // measure 6
0000
0000
0000
0000
,  // measure 7
0000
0000
0000
0000
,  // measure 8
0000
0000
0000
0000
0010
0010
0010
0000
,  // measure 9
0100
0010
0001
0010
,  // measure 10
0100
0010
0001
0010
,  // measure 11
0100
0010
0001
0010
,  // measure 12
0100
0010
0001
0011
,  // measure 13
1000
1000
0010
0100
,  // measure 14
1000
0100
0010
0100
,  // measure 15
0010
0010
0001
0100
,  // measure 16
2000
0001
3020
0100
,  // measure 17
1030
1000
0100
0010
,  // measure 18
0100
1000
0100
0010
,  // measure 19
0001
0001
0100
0010
,  // measure 20
0001
0010
0100
0010
,  // measure 21
0001
0001
0100
0010
,  // measure 22
0100
1000
0100
0010
,  // measure 23
0100
0100
0010
0100
,  // measure 24
1001
0000
0000
0000
,  // measure 25
0020
0000
0000
0000
,  // measure 26
0230
0000
0000
0000
,  // measure 27
0302
0000
0000
0000
,  // measure 28
0023
0000
0000
0000
,  // measure 29
0230
0000
0000
0000
,  // measure 30
2300
0000
0000
0000
,  // measure 31
3020
0000
0000
0000
,  // measure 32
0230
0000
0000
0000
,  // measure 33
0310
0010
0010
0001
,  // measure 34
0100
1000
0100
1000
,  // measure 35
0100
0100
0100
0010
,  // measure 36
1000
0010
1000
0010
,  // measure 37
0100
0100
0100
0001
,  // measure 38
0100
0001
0100
0001
,  // measure 39
1000
1000
1000
0010
,  // measure 40
0100
0010
0100
0010
,  // measure 41
0011
0010
0001
0010
,  // measure 42
0001
0010
0001
0010
,  // measure 43
1010
0010
1000
0010
,  // measure 44
1000
0010
1000
0010
,  // measure 45
0110
0010
0100
0010
,  // measure 46
0100
0010
0100
0010
,  // measure 47
1001
0001
1000
0001
,  // measure 48
1100
0000
0011
0000
0010
0100
0010
0100
,  // measure 49
0110
0110
0001
0001
,  // measure 50
0100
1000
0100
0001
,  // measure 51
1010
1010
0010
0100
,  // measure 52
0010
0010
0001
1000
,  // measure 53
1010
1010
0010
0100
,  // measure 54
0001
1000
0100
1000
,  // measure 55
0011
0011
0010
0010
,  // measure 56
0100
1000
0100
0010
,  // measure 57
0011
0011
0100
0100
,  // measure 58
1000
1000
0010
0010
,  // measure 59
1100
1100
0010
0010
,  // measure 60
0001
0000
0000
0000
,  // measure 61
1001
1001
0010
0010
,  // measure 62
0100
0100
0010
0010
,  // measure 63
1010
1010
0010
0010
,  // measure 64
0100
0000
0001
0000
1000
0001
1000
0000
,  // measure 65
0000
1000
2020
3030
,  // measure 66
0000
0001
0022
0033
,  // measure 67
0000
0100
0110
0110
,  // measure 68
1001
0110
0011
0000
,  // measure 69
0000
0010
2020
3030
,  // measure 70
0000
0010
0220
0330
,  // measure 71
0000
1000
0010
0100
,  // measure 72
0011
0000
0010
0100
,  // measure 73
1100
1100
0100
0100
,  // measure 74
0010
0001
1000
0100
,  // measure 75
0011
0011
0010
0010
,  // measure 76
0100
1000
0100
0010
,  // measure 77
1001
1001
0001
0001
,  // measure 78
0100
0010
0100
1000
,  // measure 79
1100
1100
0010
0010
,  // measure 80
0100
0000
0000
0000
,  // measure 81
1001
0000
0000
0000
;

//---------------dance-single - ----------------
#NOTES:
     dance-single:
     :
     Beginner:
     1:
     0.068,0.068,0.000,0.000,0.000,56.000,0.000,0.000,0.000,0.000,0.000,0.068,0.068,0.000,0.000,0.000,56.000,0.000,0.000,0.000,0.000,0.000:
0000
0000
0000
0000
,
0000
0000
0000
0000
,
0000
0000
0000
0000
,
0000
0000
0000
0000
,
0000
0000
0000
0000
,
0000
0000
0000
0000
,
0000
0000
0000
0000
,
0000
0000
0000
0000
,
0010
0000
0000
0000
,
0000
0000
0000
0000
,
0010
0000
0000
0000
,
0000
0000
0000
0000
,
0100
0000
0000
0000
,
0000
0000
0000
0000
,
0100
0000
0000
0000
,
0000
0000
0000
0000
,
1000
0000
0000
0000
,
0000
0000
0000
0000
,
0001
0000
0000
0000
,
0000
0000
0000
0000
,
0001
0000
0000
0000
,
0000
0000
0000
0000
,
1000
0000
0000
0000
,
0000
0000
0000
0000
,
0100
0000
0000
0000
,
0010
0000
0000
0000
,
0001
0000
0000
0000
,
1000
0000
0000
0000
,
0010
0000
0000
0000
,
0100
0000
0000
0000
,
0010
0000
0000
0000
,
0100
0000
0000
0000
,
0001
0000
0000
0000
,
0000
0000
0000
0000
,
1000
0000
0000
0000
,
0000
0000
0000
0000
,
0010
0000
0000
0000
,
0000
0000
0000
0000
,
0100
0000
0000
0000
,
0000
0000
0000
0000
,
0001
0000
0000
0000
,
0000
0000
0000
0000
,
0010
0000
0000
0000
,
0000
0000
0000
0000
,
1000
0000
0000
0000
,
0000
0000
0000
0000
,
0100
0000
0000
0000
,
0000
0000
0000
0000
,
0010
0010
0000
0000
,
0000
0000
0000
0000
,
0100
0100
0000
0000
,
0000
0000
0000
0000
,
0001
0001
0000
0000
,
0000
0000
0000
0000
,
1000
1000
0000
0000
,
0000
0000
0000
0000
,
0010
0010
0000
0000
,
0000
0000
0000
0000
,
0100
0100
0000
0000
,
0000
0000
0000
0000
,
0001
0001
0000
0000
,
0000
0000
0000
0000
,
1000
1000
0000
0000
,
0000
0000
0000
0000
,
0000
0000
0010
0000
,
0000
0000
0100
0000
,
0000
0000
1000
0000
,
0000
0000
0001
0000
,
0000
0000
0010
0000
,
0000
0000
0100
0000
,
0000
0000
0010
0000
,
0000
0000
0000
0000
,
0100
0100
0000
0000
,
0000
0000
0000
0000
,
0010
0010
0000
0000
,
0000
0000
0000
0000
,
0001
0001
0000
0000
,
0000
0000
0000
0000
,
1000
1000
0000
0000
,
0000
0000
0000
0000
,
0010
0000
0000
0000
;
