#TITLE:PO PI PO;
#SUBTITLE:;
#ARTIST:Lazmaze-P feat. Hatsune Miku;
#TITLETRANSLIT:;
#SUBTITLETRANSLIT:;
#ARTISTTRANSLIT:;
#GENRE:;
#CREDIT:;
#BANNER:PO PI PO.png;
#BACKGROUND:PO PI PO-bg.png;
#LYRICSPATH:;
#CDTITLE:./CDTITLES/The Witch's Bakery Lunne Bonus.PNG;
#MUSIC:PO PI PO.ogg;
#OFFSET:-0.026;
#SAMPLESTART:70.376;
#SAMPLELENGTH:15.000;
#SELECTABLE:YES;
#DISPLAYBPM:150.000;
#BPMS:0.000=150.000;
#STOPS:;
#BGCHANGES:0.000=PO PI PO.avi=1.000=0=0=1=====,
244.000=PO PI PO-bg.png=1.000=0=0=1=====,
99999=-nosongbg-=1.000=0=0=0 // don't automatically add -songbackground-
;
#KEYSOUNDS:;

//---------------dance-single - ----------------
#NOTES:
     dance-single:
     :
     Easy:
     2:
     0.167,0.214,0.061,0.000,0.000,109.000,6.000,0.000,0.000,0.000,0.000,0.167,0.214,0.061,0.000,0.000,109.000,6.000,0.000,0.000,0.000,0.000:
0000
0000
0000
0000
,
0000
0000
0000
0000
,
0000
0000
0000
0000
,
0000
0000
0000
0000
,
1000
1000
0000
0000
,
0001
0001
0000
0000
,
0010
0010
0000
0000
,
0100
0100
0000
0000
,
0010
0010
0000
0000
,
0001
0001
0000
0000
,
1000
1000
0000
0000
,
0010
0010
0000
0000
,
0001
0000
0001
0000
,
0100
0000
0100
0000
,
0010
0000
0010
0000
,
1000
0000
1000
0000
,
0100
0000
0100
0000
,
0010
0000
0010
0000
,
0001
0000
0001
0000
,
1000
0000
1000
0000
,
0100
0100
0100
0000
,
0000
0000
0000
0000
,
0010
0010
0010
0000
,
0000
0000
0000
0000
,
0001
1000
0001
0000
,
0000
0000
0000
0000
,
0010
0100
0010
0000
,
0000
0000
0000
0000
,
1000
1000
0000
0000
,
0001
0100
0000
0000
,
0010
0010
0000
0000
,
0100
0010
0000
0000
,
0001
0001
0000
0000
,
1000
0010
0000
0000
,
0100
0100
0000
0000
,
0001
0100
0000
0000
,
0010
0010
0010
0000
,
0000
0000
0000
0000
,
0100
0100
0100
0000
,
0000
0000
0000
0000
,
0010
0010
0010
0000
,
0000
0000
0000
0000
,
0100
0100
0100
0000
,
0010
0000
0000
0000
,
0001
0001
0000
0000
,
1000
0010
0000
0000
,
1001
0000
0110
0000
,
1000
0001
1000
0000
,
0010
0010
0000
0000
,
0100
0100
0000
0000
,
1001
0000
0110
0000
,
0001
1000
0001
0000
,
1000
1000
0000
0000
,
0001
0001
0000
0000
,
0110
0000
1001
0000
,
0010
0010
0100
0000
,
1000
1000
0000
0000
,
0001
1000
0000
0000
,
0010
0000
0010
0000
,
0100
0000
0100
0000
,
0010
0000
0000
0000
;

//---------------dance-single - ----------------
#NOTES:
     dance-single:
     :
     Beginner:
     1:
     0.058,0.061,0.000,0.000,0.000,40.000,0.000,0.000,0.000,0.000,0.000,0.058,0.061,0.000,0.000,0.000,40.000,0.000,0.000,0.000,0.000,0.000:
0000
0000
0000
0000
,
0000
0000
0000
0000
,
0000
0000
0000
0000
,
0000
0000
0000
0000
,
1000
0000
0000
0000
,
1000
0000
0000
0000
,
1000
0000
0000
0000
,
1000
0000
0000
0000
,
0001
0000
0000
0000
,
0001
0000
0000
0000
,
0001
0000
0000
0000
,
0001
0000
0000
0000
,
0001
0000
0000
0000
,
0000
0000
0000
0000
,
0000
0000
0000
0000
,
0000
0000
0000
0000
,
1000
0000
0000
0000
,
0000
0000
0000
0000
,
0001
0000
0000
0000
,
0000
0000
0000
0000
,
1000
0000
0000
0000
,
1000
0000
0000
0000
,
0001
0000
0000
0000
,
0001
0000
0000
0000
,
1000
0000
0000
0000
,
1000
0000
0000
0000
,
0001
0000
0000
0000
,
0001
0000
0000
0000
,
1000
0000
0000
0000
,
0000
0000
0000
0000
,
0001
0000
0000
0000
,
0000
0000
0000
0000
,
1000
0000
0000
0000
,
0000
0000
0000
0000
,
0001
0000
0000
0000
,
0000
0000
0000
0000
,
1000
0000
0000
0000
,
1000
0000
0000
0000
,
0001
0000
0000
0000
,
0001
0000
0000
0000
,
1000
0000
0000
0000
,
1000
0000
0000
0000
,
0001
0000
0000
0000
,
0001
0000
0000
0000
,
1000
0000
0000
0000
,
0000
0000
0000
0000
,
1000
0000
0000
0000
,
0000
0000
0000
0000
,
0001
0000
0000
0000
,
0000
0000
0000
0000
,
0001
0000
0000
0000
,
0000
0000
0000
0000
,
1000
0000
0000
0000
,
0000
0000
0000
0000
,
0001
0000
0000
0000
,
0000
0000
0000
0000
,
1000
0000
0000
0000
,
0000
0000
0000
0000
,
0001
0000
0000
0000
,
0000
0000
0000
0000
,
1000
0000
0000
0000
;

//---------------dance-single - ----------------
#NOTES:
     dance-single:
     :
     Medium:
     5:
     0.352,0.428,0.092,0.153,0.000,218.000,9.000,15.000,0.000,0.000,0.000,0.352,0.428,0.092,0.153,0.000,218.000,9.000,15.000,0.000,0.000,0.000:
0000
0000
0000
0000
,
0000
0000
0000
0000
,
0000
0000
0000
0000
,
0000
0000
0000
0000
,
1000
1000
0100
0100
,
0010
0010
0001
0001
,
0100
0100
0010
0010
,
1000
1000
0100
0100
,
0001
0001
0010
0010
,
0100
0100
1000
1000
,
0010
0010
0100
0100
,
0001
0001
1000
0000
,
0001
1000
0001
0000
,
1000
0001
1000
0000
,
0001
1000
0001
0000
,
1000
0001
1000
0000
,
0010
0100
0010
0000
,
0100
0010
0100
0000
,
0010
0100
0010
0000
,
0100
0010
0100
0000
,
1000
1000
0100
0001
,
1000
0000
0010
1000
0001
0000
0000
0000
,
0010
0010
0001
0100
,
1000
0000
0010
1000
0001
0000
0000
0000
,
0010
0010
1000
1000
,
0100
0000
0001
1000
0001
0000
0000
0000
,
0010
0010
0100
0010
,
2002
0000
3003
0000
,
0010
0010
0100
0100
,
1000
1000
0010
0010
,
0100
0100
0001
0001
,
0010
0010
0100
0100
,
1000
1000
0010
0010
,
0100
0100
0001
0001
,
1000
1000
0010
0010
,
0100
0100
0001
0001
,
1000
1000
0100
0001
,
0010
0000
0100
0010
0100
0000
0000
0000
,
1000
1000
0001
0100
,
0010
0000
1000
0001
1000
0000
0000
0000
,
0010
0010
0100
1000
,
0100
0000
0001
0010
0001
0000
0000
0000
,
0020
0130
2000
3001
,
2002
0000
3003
0000
,
0010
0000
0010
0000
1000
0010
1000
0000
,
0100
0000
0100
0000
0001
0100
0001
0000
,
2000
0100
3100
0100
,
0011
1100
0001
0001
,
0010
0000
0010
0000
0001
0100
0001
0000
,
1000
0000
1000
0000
0010
0100
0010
0000
,
2000
0100
3100
0001
,
0011
1100
0010
0010
,
0100
0000
0100
0000
1000
0010
1000
0000
,
0001
0000
0001
0000
0100
0010
0100
0000
,
2000
0001
3001
0010
,
0110
1001
1000
1000
,
0001
0000
0001
0000
0100
0010
0100
0000
,
1000
0000
1000
0000
0010
0100
0010
0000
,
2000
3200
0320
0032
,
0203
0310
2000
3001
,
1001
0000
0000
0000
;

//---------------dance-single - ----------------
#NOTES:
     dance-single:
     :
     Hard:
     7:
     0.499,0.459,0.632,0.041,0.005,277.000,62.000,4.000,0.000,0.000,0.000,0.499,0.459,0.632,0.041,0.005,277.000,62.000,4.000,0.000,0.000,0.000:
0000
0000
0000
0000
,
0000
0000
0000
0000
,
0000
0000
0000
0000
,
0000
0000
0000
0000
,
1100
0000
1100
0000
0010
0100
0010
0000
,
0011
0000
0011
0000
0010
0100
0010
0000
,
0110
0000
0110
0000
1000
0001
1000
0000
,
0110
0000
0110
0000
0001
0100
0001
0000
,
0011
0000
0011
0000
0010
0100
0010
0000
,
1010
0000
1010
0000
0010
1000
0010
0000
,
0110
0000
0110
0000
0001
0010
0001
0000
,
0011
0000
1100
0000
0010
0100
0000
0000
,
1000
1100
1000
1000
,
1000
1100
1000
1000
,
1000
1100
1000
1000
,
1000
1100
1000
1000
,
1000
1001
1000
1000
,
1000
1001
1000
1000
,
1000
1001
1000
1000
,
1000
1001
1000
1000
,
0100
1000
0100
1000
0001
0100
1000
0100
,
0001
0100
0010
0100
1000
0000
0000
0000
,
0010
1000
0010
1000
0100
0001
0100
0010
,
0100
1000
0100
0001
0010
0000
0000
0000
,
0010
1000
0010
1000
0010
0100
0010
0100
,
0001
0100
0010
0100
1000
0000
0000
0000
,
0010
0100
0010
0100
0001
0100
0010
1000
,
2002
0000
3003
0000
,
0001
0011
0001
0001
,
0001
0011
0001
0001
,
0001
0011
0001
0001
,
0001
0011
0001
0001
,
0001
1001
0001
0001
,
0001
1001
0001
0001
,
0001
1001
0001
0001
,
0001
1001
0001
0001
,
0100
1000
0100
1000
0100
0001
0100
0010
,
0100
1000
0100
0001
0010
0000
0000
0000
,
0010
1000
0010
1000
0010
0100
0001
0100
,
0010
0100
1000
0100
0001
0000
0000
0000
,
0010
1000
0010
0100
0001
0100
0010
0100
,
1000
0010
0100
0010
0001
0100
1000
0000
,
1000
0100
0010
0001
1000
0010
0100
0001
,
2002
0000
0000
0000
3003
0000
0000
0000
0010
0000
0000
0010
0000
0000
0100
0000
,
0110
0000
0110
0000
1000
0010
1000
0000
,
0011
0000
0011
0000
0010
0100
0010
0000
,
1000
0100
0001
0010
,
1001
0110
1000
1000
,
0011
0000
1100
0000
0010
1000
0010
0000
,
0110
0000
0011
0000
0010
0100
0010
0000
,
1000
0100
0001
0100
,
1001
0011
0010
0010
,
1100
0000
1100
0000
0010
0001
0010
0000
,
0011
0000
0011
0000
0100
0010
0100
0000
,
1000
0100
0010
0001
,
0011
0110
1000
1000
,
0110
0000
1001
0000
0010
1000
0001
0000
,
0110
0000
0011
0000
0001
0010
0100
0000
,
1000
1100
0001
0011
,
0010
0110
1001
0011
,
1001
0000
0000
0000
;

//---------------dance-single - ----------------
#NOTES:
     dance-single:
     :
     Challenge:
     9:
     0.670,0.611,0.000,0.846,0.255,377.000,0.000,83.000,0.000,0.000,0.000,0.670,0.611,0.000,0.846,0.255,377.000,0.000,83.000,0.000,0.000,0.000: // measure 1
0000
0000
0000
0000
,  // measure 2
0000
0000
0000
0000
,  // measure 3
0000
0000
0000
0000
,  // measure 4
0000
0000
0000
0000
,  // measure 5
1000
0000
0100
0010
0000
0001
0100
0000
0010
0000
1000
0000
0200
0000
0000
0000
,  // measure 6
0310
0000
1000
0001
0000
0100
0010
0000
1000
0000
0100
0000
0020
0000
0000
0000
,  // measure 7
0031
0000
0100
0010
0000
1000
0010
0000
0100
0000
0001
0000
0200
0000
0000
0000
,  // measure 8
0310
0000
1000
0100
0000
0010
0100
0000
0010
0000
1000
0000
0002
0000
0000
0000
,  // measure 9
0013
0000
1000
0100
0000
1000
0001
0000
0010
0000
0100
0000
2000
0000
0000
0000
,  // measure 10
3010
0000
0100
0001
0000
0100
0010
0000
0100
0000
1000
0000
0020
0000
0000
0000
,  // measure 11
0130
0000
0001
1000
0000
0010
0100
0000
1000
0000
0010
0000
0200
0000
0000
0000
,  // measure 12
0301
0000
0100
0010
0000
1000
0001
0000
0100
0000
0010
0000
0000
0000
0000
0000
,  // measure 13
2000
3200
0320
0032
,  // measure 14
2003
3200
0320
0032
,  // measure 15
2003
3200
0320
0032
,  // measure 16
2003
3200
0320
0032
,  // measure 17
0023
0230
2300
3002
,  // measure 18
0023
0230
2300
3002
,  // measure 19
0023
0230
2300
3002
,  // measure 20
0023
0230
2300
3020
,  // measure 21
0130
0001
0100
1000
0100
0001
0100
1000
,  // measure 22
0100
0001
0100
1000
0100
0001
0010
0000
,  // measure 23
0010
0001
0010
1000
0010
0001
0010
1000
,  // measure 24
0010
0000
0001
0000
0010
0000
1000
0000
0010
0000
0001
0000
0100
0001
0100
0001
,  // measure 25
0010
1000
0010
0001
0010
1000
0010
0001
,  // measure 26
0010
1000
0010
0001
0010
1000
0010
0000
,  // measure 27
0100
0001
0100
1000
0100
0001
0100
1000
,  // measure 28
0100
0000
0001
0000
0100
0000
1000
0000
0100
0010
0100
0010
0100
0010
0100
0010
,  // measure 29
0200
0302
0203
0320
,  // measure 30
2030
3200
0302
0203
,  // measure 31
0320
2030
3200
0320
,  // measure 32
0032
0203
0320
2030
,  // measure 33
3200
0302
0203
0320
,  // measure 34
2030
3200
0302
0023
,  // measure 35
0230
2300
3020
0230
,  // measure 36
0302
2003
3020
0230
,  // measure 37
0301
0010
0100
0010
0001
0010
0100
0010
,  // measure 38
0001
0010
0100
0010
0001
1000
0010
0000
,  // measure 39
0010
0100
1000
0100
0010
0100
1000
0100
,  // measure 40
0010
0100
1000
0100
0010
0100
1000
0000
,  // measure 41
0001
0010
0100
0010
0001
0010
0100
0010
,  // measure 42
0001
0010
0100
0010
0001
0010
0100
0000
,  // measure 43
1000
0100
0010
0001
1000
0100
0010
0001
,  // measure 44
0200
0000
0000
0000
0000
0000
0000
0000
0310
0000
0000
0010
0000
0000
0100
0000
,  // measure 45
1000
0000
0100
0010
0000
0001
1000
0000
0010
0000
0100
0000
0002
0000
0000
0000
,  // measure 46
0103
0000
0010
1000
0000
0010
0100
0000
0001
0000
0100
0000
0020
0000
0000
0000
,  // measure 47
0130
0000
1000
0000
0100
0001
0010
1000
,  // measure 48
0001
0000
0010
0100
0000
1000
0010
0000
0100
0000
0001
0000
1000
0001
1000
0000
,  // measure 49
0010
0000
0100
0010
0000
1000
0001
0000
0100
0000
0010
0000
2000
0000
0000
0000
,  // measure 50
3100
0000
0001
0100
0000
0010
1000
0000
0100
0000
0010
0000
0002
0000
0000
0000
,  // measure 51
1003
0000
0100
0000
0010
1000
0100
1000
,  // measure 52
0001
0000
0100
0010
0000
1000
0001
0000
0100
0000
0010
0000
1000
0001
1000
0000
,  // measure 53
0010
0000
1000
0100
0000
0010
0001
0000
0100
0000
0010
0000
2000
0000
0000
0000
,  // measure 54
3100
0000
0010
0100
0000
0001
1000
0000
0010
0000
0100
0000
0002
0000
0000
0000
,  // measure 55
0103
0000
0010
0000
1000
0001
0100
1000
,  // measure 56
0010
0000
1000
0001
0000
0100
0010
0000
1000
0000
0001
0000
0100
0010
0100
0000
,  // measure 57
1000
0000
0010
0100
0000
0001
0100
0000
0010
0000
1000
0000
0002
0000
0000
0000
,  // measure 58
1003
0000
0100
0010
0000
0001
1000
0000
0010
0000
1000
0000
0001
0000
0000
0000
,  // measure 59
0020
0230
2300
3020
,  // measure 60
0130
0000
0001
1000
0000
0000
0010
0000
0100
0000
1000
0010
0000
0000
0100
0000
,  // measure 61
0010
0000
0000
0000
;
