#TITLE:Owner of a Lonely Heart;
#SUBTITLE:;
#ARTIST:BUS-STOP;
#TITLETRANSLIT:;
#SUBTITLETRANSLIT:;
#ARTISTTRANSLIT:;
#GENRE:;
#CREDIT:;
#BANNER:Owner of a Lonely Heart.png;
#BACKGROUND:Owner of a Lonely Heart-bg.png;
#LYRICSPATH:;
#CDTITLE:.\CDTITLES\DDRMAX6.PNG;
#MUSIC:Owner of a Lonely Heart.ogg;
#OFFSET:-0.020;
#SAMPLESTART:73.020;
#SAMPLELENGTH:15.000;
#SELECTABLE:YES;
#DISPLAYBPM:136.000;
#BPMS:0.000=138.000;
#STOPS:;
#BGCHANGES:;
#KEYSOUNDS:;

//---------------dance-single - ----------------
#NOTES:
     dance-single:
     :
     Easy:
     4:
     0.188,0.253,0.223,0.039,0.000,109.000,23.000,4.000,0.000,0.000,0.000,0.188,0.253,0.223,0.039,0.000,109.000,23.000,4.000,0.000,0.000,0.000:
0000
0000
0000
0000
,
0000
0000
0000
0000
,
0000
0000
0000
0000
,
0000
0000
0000
0000
,
0000
0000
0000
0000
,
0000
0000
0000
0000
,
0000
0000
0000
0000
,
0000
0000
0000
0000
,
0110
0000
0000
0000
,
0000
0220
0000
0330
,
0010
0010
0000
0000
,
0000
0100
0010
0100
,
0000
0001
1000
0010
,
1000
0001
0000
0000
,
0010
0010
0000
0000
,
0000
0100
0010
0100
,
0000
0001
1000
0001
,
1000
0010
0000
0000
,
1001
1001
0000
0000
,
0000
0010
0100
0010
,
0000
1000
0010
1000
,
0100
0001
0000
0000
,
0110
0000
1001
1001
,
0000
0010
1000
0001
,
0000
0010
0100
0000
,
0110
0000
0000
0000
,
1100
0000
0000
0000
,
0011
0000
0000
0000
,
0010
0000
0010
0000
,
0010
0000
0100
0000
,
1000
0000
1000
0000
,
1000
0010
0100
0010
,
0011
0000
0000
0000
,
1100
0000
0000
0000
,
0100
0000
0110
0000
,
0001
0000
1001
0000
,
0010
0000
0110
0000
,
1000
0000
1001
0000
,
0010
0000
0110
0000
,
0001
0000
1001
0000
,
0010
0000
0110
0000
,
0001
0000
1001
0000
,
0010
1000
0001
0000
,
0100
0000
0010
0000
,
1000
0100
1000
0000
,
0010
0100
0010
0010
,
0001
0100
0001
0000
,
0010
0000
0100
0000
,
1000
0010
1000
0000
,
2002
0000
0000
3003
,
0100
0000
0010
0000
,
0100
0000
0100
0000
,
0001
0000
0100
0000
,
0001
0000
0001
0000
,
1000
0000
0100
0000
,
1000
0000
1000
0000
,
0010
0000
0100
0000
,
0010
0000
0110
0000
,
1001
0000
0000
0000
;

//---------------dance-single - ----------------
#NOTES:
     dance-single:
     :
     Hard:
     8:
     0.519,0.562,0.416,0.136,0.213,318.000,43.000,14.000,0.000,0.000,0.000,0.519,0.562,0.416,0.136,0.213,318.000,43.000,14.000,0.000,0.000,0.000:
0000
0000
0000
0000
,
0000
0000
0000
0000
,
0000
0000
0000
0000
,
0000
0000
0000
0000
,
0000
0000
0000
0000
,
0000
0000
0000
0000
,
0000
0000
0000
0000
,
0000
0000
0000
0000
,
1001
1000
0000
0010
0000
0100
0000
0001
,
0000
0100
0000
0220
0000
0000
0330
0000
,
1000
0001
1001
0000
0010
0001
0011
0000
,
0000
0100
0010
0100
0010
0001
1001
0000
,
0000
0010
1000
0100
1000
0010
0100
0101
,
0000
2020
0000
0000
3030
0000
0000
0000
,
0100
0001
1001
0000
0010
0100
0110
0000
,
0000
1000
0010
0100
0001
1000
1010
0000
,
0000
0100
0010
0001
1000
0100
0001
0011
,
0000
0220
0000
0000
0330
0000
0000
0000
,
0010
0100
0110
0000
0001
1000
1001
0000
,
0000
0010
1000
0100
1000
0010
1010
0000
,
0000
0100
0001
0100
1000
0010
0100
0001
,
1000
0001
2002
0000
0000
0000
3003
0000
,
0110
0000
0000
0000
0010
0100
0110
0000
,
0000
1000
0010
0100
0001
1000
1010
0000
,
0000
0100
0001
0022
0000
0000
0033
0100
,
0220
0000
0330
0000
,
1000
0100
1000
0100
1000
0100
1000
0100
,
1000
0001
1000
0001
1000
0000
0000
0000
,
0010
0011
0000
0100
0110
0000
1000
1001
,
0000
0000
0100
0010
0100
0000
1000
0000
0001
0000
0100
0000
0010
0000
1000
0000
,
0100
1100
0000
0010
0011
0000
0100
0010
,
0110
0011
0110
1010
,
1000
0000
0100
0010
0000
0010
0100
0000
0001
0000
0100
0001
0000
0001
0100
0000
,
0010
0000
0100
0010
0000
0010
0100
0000
1000
0000
0100
0010
0100
0010
0000
0000
,
0100
0110
0000
0001
0011
0000
1000
1100
,
0000
0010
0100
1000
0010
0100
0001
0010
,
1000
1010
0000
0100
0110
0000
0001
0011
,
0000
0010
0100
1000
0010
0100
0001
0100
,
1000
1000
0010
0010
0100
0100
0001
0000
,
0010
0100
0000
0100
0010
1000
0001
1000
,
0010
0001
0010
0001
0010
0000
0100
1000
0100
0000
0010
0100
0000
0000
0000
0000
,
0010
0110
0000
1000
0000
1001
0001
0000
,
0100
0010
0100
0010
0100
0000
1000
0001
,
0000
0010
0000
0010
0100
1000
0100
0010
,
0001
0010
0100
0001
1000
0000
0010
1000
,
0000
1000
1010
0000
0100
0010
0100
0010
,
0100
0001
0010
0100
1000
0000
1000
1001
,
0000
0010
0100
0010
0001
0010
0001
0010
,
0100
0010
1000
0100
0010
0011
0000
0220
,
0000
0000
0330
1000
0001
0100
1000
0010
,
0000
0000
0010
0001
0010
0001
0010
0001
0010
0000
0100
1000
0000
0000
0000
0000
,
0000
0000
0100
0010
0100
0000
0010
0000
1000
0001
0000
0100
0000
0000
0000
0000
,
0000
0000
0100
0010
0100
0000
0010
1000
0010
1000
0000
0100
0000
0010
0000
0000
,
0000
0000
0001
0010
0001
0000
0010
0100
0000
0010
0000
1000
0001
0000
0100
0000
,
0000
0000
0010
1000
0010
0000
0100
0000
0000
0100
0010
0000
0001
0000
1000
0000
,
0010
0001
0000
0010
0100
0000
0010
0001
0000
0100
0000
0010
1000
0000
0010
0000
,
0100
0010
0100
0010
0000
1000
0001
1000
0001
0000
0010
0000
0000
0000
0000
0000
,
0000
0000
0000
0000
0100
0010
0100
0010
0000
1000
0001
0000
0100
0010
0000
0000
,
1001
0000
0000
0000
;

//---------------dance-single - ----------------
#NOTES:
     dance-single:
     :
     Medium:
     5:
     0.296,0.309,0.290,0.019,0.000,182.000,30.000,2.000,0.000,0.000,0.000,0.296,0.309,0.290,0.019,0.000,182.000,30.000,2.000,0.000,0.000,0.000:
0000
0000
0000
0000
,
0000
0000
0000
0000
,
0000
0000
0000
0000
,
0000
0000
0000
0000
,
0000
0000
0000
0000
,
0000
0000
0000
0000
,
0000
0000
0000
0000
,
0000
0000
0000
0000
,
0110
0000
0000
0000
,
0000
0220
0000
0330
,
1000
1000
0100
0000
0010
0000
0001
0000
,
0000
0001
0010
0110
,
0001
1000
0010
0100
,
0010
1001
0000
0000
,
0010
0010
0100
0000
1000
0000
0000
0000
,
1000
0100
0010
0100
,
1001
0010
1000
0100
,
0010
0011
0000
0000
,
0010
1000
0001
0000
0010
0000
0000
0000
,
1000
0100
0011
1100
,
0010
0100
1000
0010
,
0100
1001
0000
0000
,
0110
0000
0000
0000
0010
1000
0001
0000
,
0000
0010
0100
0000
0010
0000
0110
0000
,
0000
1000
1001
0000
,
0110
0000
0000
0000
,
1000
1000
1000
1000
,
0001
0001
0001
0001
,
0001
0010
0000
0010
0100
0000
0100
1000
,
0000
1000
1000
0000
0100
0000
0010
0000
,
0001
0100
0000
0100
0010
0000
0010
0000
,
0001
1000
0010
0100
,
1001
0000
0110
0000
,
1001
0000
0011
0000
,
0100
0010
0000
0010
0100
0000
1000
0100
,
0000
0010
0001
0010
,
1000
0100
0000
0100
0010
0000
0010
0001
,
0000
1000
0010
0100
,
0001
0001
0001
0001
,
0000
0001
0010
0100
,
1000
1000
1000
1000
,
0000
0010
0100
0010
,
1001
0000
0011
0000
0101
0000
0001
0100
,
0000
0010
0100
0010
,
1100
0000
0110
0000
1001
0000
0001
1000
,
0000
0010
0010
0010
,
1100
0000
0110
0000
0011
0000
0010
0100
,
0000
1000
0010
0100
,
0011
0000
1010
0000
0001
1000
0000
0010
,
0000
0100
0100
0100
,
0010
0010
0010
0010
,
0001
0001
0001
0001
,
0100
0100
0100
0100
,
0010
0010
0010
0010
,
1000
1000
1000
1000
,
0100
0100
0100
0100
,
0010
0010
0010
0010
,
0000
1100
0001
1000
,
1001
0000
0000
0000
;

//---------------dance-single - ----------------
#NOTES:
     dance-single:
     :
     Beginner:
     1:
     0.108,0.168,0.039,0.000,0.000,74.000,4.000,0.000,0.000,0.000,0.000,0.108,0.168,0.039,0.000,0.000,74.000,4.000,0.000,0.000,0.000,0.000: // measure 1
0000
0000
0000
0000
,  // measure 2
0000
0000
0000
0000
,  // measure 3
0000
0000
0000
0000
,  // measure 4
0000
0000
0000
0000
,  // measure 5
0000
0000
0000
0000
,  // measure 6
0000
0000
0000
0000
,  // measure 7
0000
0000
0000
0000
,  // measure 8
0000
0000
0000
0000
,  // measure 9
0010
0000
0000
0000
,  // measure 10
0000
0000
0000
0000
,  // measure 11
0100
0000
0000
0000
,  // measure 12
0000
0000
0010
0000
,  // measure 13
0000
0000
0001
0000
,  // measure 14
0010
0000
0000
0000
,  // measure 15
0100
0000
0000
0000
,  // measure 16
0000
0000
1000
0000
,  // measure 17
0000
0000
0010
0000
,  // measure 18
0100
0000
0000
0000
,  // measure 19
0010
0000
0000
0000
,  // measure 20
0000
0000
0001
0000
,  // measure 21
0000
0000
0010
0000
,  // measure 22
0100
0000
0000
0000
,  // measure 23
1000
0000
1000
0000
,  // measure 24
0000
0000
0010
0000
,  // measure 25
0000
0000
0010
0000
,  // measure 26
0001
0000
0000
0000
,  // measure 27
0100
0000
0000
0000
,  // measure 28
0000
0000
0000
0000
,  // measure 29
0010
0000
0010
0000
,  // measure 30
0010
0000
0001
0000
,  // measure 31
0100
0000
0100
0000
,  // measure 32
0100
0100
0100
0100
,  // measure 33
0100
0000
0000
0000
,  // measure 34
0000
0000
0000
0000
,  // measure 35
0010
0000
0010
0000
,  // measure 36
0001
0000
0010
0000
,  // measure 37
0100
0000
0100
0000
,  // measure 38
1000
0000
0010
0000
,  // measure 39
0100
0000
0100
0000
,  // measure 40
0010
0000
0010
0000
,  // measure 41
0001
0000
1001
0000
,  // measure 42
0000
0000
0000
0000
,  // measure 43
0010
0000
0010
0000
,  // measure 44
0110
0000
0000
0000
,  // measure 45
1000
0000
1000
0000
,  // measure 46
0001
0000
1000
0000
,  // measure 47
0010
0000
0100
0000
,  // measure 48
0110
0000
0000
0000
,  // measure 49
1000
0000
0001
0000
,  // measure 50
1001
0000
0000
0000
,  // measure 51
0010
0000
0010
0000
,  // measure 52
0010
0000
0010
0000
,  // measure 53
0010
0000
0010
0000
,  // measure 54
0010
0000
0010
0000
,  // measure 55
0100
0000
0100
0000
,  // measure 56
0100
0000
0100
0000
,  // measure 57
0100
0000
0100
0000
,  // measure 58
0100
0000
0100
0000
,  // measure 59
0010
0000
0000
0000
;
