#TITLE:OOH LALALA;
#SUBTITLE:;
#ARTIST:E-ROTIC;
#TITLETRANSLIT:;
#SUBTITLETRANSLIT:;
#ARTISTTRANSLIT:;
#GENRE:;
#CREDIT:;
#BANNER:OOH LALALA.png;
#BACKGROUND:OOH LALALA-bg.png;
#LYRICSPATH:;
#CDTITLE:.\CDTITLES\DDRMAX6.PNG;
#MUSIC:OOH LALALA.ogg;
#OFFSET:-0.040;
#SAMPLESTART:42.480;
#SAMPLELENGTH:15.000;
#SELECTABLE:YES;
#DISPLAYBPM:147.000;
#BPMS:0.000=147.000;
#STOPS:;
#BGCHANGES:;
#KEYSOUNDS:;

//---------------dance-single - ----------------
#NOTES:
     dance-single:
     :
     Easy:
     3:
     0.187,0.237,0.041,0.000,0.000,154.000,5.000,0.000,0.000,0.000,0.000,0.187,0.237,0.041,0.000,0.000,154.000,5.000,0.000,0.000,0.000,0.000:
0000
0000
0000
0000
,
0000
0000
0000
0000
,
0000
0000
0000
0000
,
0000
0000
0000
0000
,
0000
0000
0000
0000
,
0000
0000
0000
0000
,
0000
0000
0000
0000
,
1000
0000
0000
0000
,
0010
0000
0010
0000
,
0100
0000
0100
0000
,
1000
0000
1000
0000
,
0010
0000
0010
0000
,
0100
0000
0100
0000
,
0001
0000
0001
0000
,
0010
0000
0010
0000
,
0100
0000
0100
0000
,
0010
0000
0000
0000
,
1000
1000
0100
0000
,
0010
0010
0001
0000
,
0100
0100
0010
0000
,
1000
1000
0001
0000
,
0100
0010
1001
0000
,
0001
1000
1001
0000
,
0100
0000
0010
0000
,
0110
0000
1001
0000
,
0000
0000
0000
0000
,
1000
1000
0010
0000
,
0000
0100
0001
0100
,
0010
0010
0100
0000
,
1000
0000
0001
0000
,
0010
0010
0100
0000
,
0000
1000
0100
1000
,
0010
0100
0100
0000
,
0001
0000
0010
0000
,
1000
0000
1000
0000
,
0100
0000
0100
0000
,
0010
0000
0010
0000
,
0001
0000
0001
0000
,
0100
0000
0100
0000
,
0010
0000
0010
0000
,
1000
0000
1000
0000
,
0100
0000
0100
0000
,
0010
0000
0000
0000
,
0001
0001
0100
0000
,
0010
0010
1000
0000
,
0100
0100
0001
0000
,
0001
1000
0001
0000
,
0010
0100
0010
0000
,
1000
0100
1000
0000
,
0010
0000
0100
0000
,
0001
0000
1000
0000
,
1001
0000
0000
0000
,
0100
0100
0010
0000
,
0000
0001
0010
0001
,
0100
1000
1000
0000
,
0100
0010
0100
0010
,
1000
0001
0001
0000
,
0000
0010
0100
0010
,
1000
0100
0100
0001
,
1000
0001
1000
0010
,
1000
0000
1000
0000
,
0010
0000
0010
0000
,
0100
0000
0100
0000
,
0001
0000
0001
0000
,
0010
0000
0010
0000
,
0100
0000
0100
0000
,
1000
0000
1000
0000
,
0010
0000
0010
0000
,
0100
0000
0010
0000
,
1000
0000
0010
0000
,
0100
0000
0010
0000
,
0100
0000
0001
0000
,
1000
0000
0000
0000
;

//---------------dance-single - ----------------
#NOTES:
     dance-single:
     :
     Hard:
     7:
     0.369,0.385,0.378,0.041,0.000,263.000,46.000,5.000,0.000,0.000,0.000,0.369,0.385,0.378,0.041,0.000,263.000,46.000,5.000,0.000,0.000,0.000:
0000
0000
0000
0000
,
0000
0000
0000
0000
,
0000
0000
0000
0000
,
0000
0000
0000
0000
,
0000
0000
0000
0000
,
0000
0000
0000
0000
,
0000
0000
0000
0000
,
1000
0000
0000
0000
,
0010
0000
0001
0000
0010
0000
1000
0001
,
0000
0010
0000
1000
0001
0000
0100
0000
,
0010
0000
1000
0000
0100
0000
1000
0010
,
0000
0100
0000
0001
0100
0000
0010
0000
,
1000
0000
0001
0000
1000
0000
0010
0100
,
0000
1000
0000
0010
0100
0000
0001
0000
,
1000
0000
0010
0000
0100
0000
0001
1000
,
0000
0010
0000
0100
0001
0000
1000
0000
,
1001
0000
0000
0000
,
2000
0010
0010
3001
,
0010
0100
0010
0100
,
0002
1000
0100
1003
,
0010
0100
0010
0100
,
2000
0010
0001
3001
,
1001
0010
1010
0101
,
1001
0000
0000
0001
1000
0000
0100
0010
,
0011
0110
1100
0110
,
1001
0000
0000
0000
,
0010
1000
0001
0000
,
0001
0000
1000
0000
0010
0000
0100
0010
,
0100
0001
1000
0010
,
0110
0011
0110
1010
,
0100
0010
0100
0000
,
0010
0000
1000
0000
0100
0000
0010
0001
,
1000
0100
1000
0010
,
1001
0110
0011
1001
,
0010
0000
1000
0000
0100
0000
0001
0100
,
0000
0010
0000
1000
0001
0000
0100
0000
,
0010
0000
1000
0000
0100
0000
0010
0100
,
0000
0001
0000
1000
0010
0000
0100
0000
,
0001
0000
0010
0000
0100
0000
1000
0001
,
0000
0100
0000
0010
1000
0000
0100
0000
,
0010
0000
0001
0000
1000
0000
0010
0100
,
0000
0001
0000
1000
0010
0000
0100
0000
,
1001
0000
0000
0000
0000
0000
0000
1000
,
0001
0100
0010
0100
,
1010
0100
0011
0010
,
1000
0100
1000
0010
,
1010
0100
0011
0010
,
2000
0001
0001
3001
,
0200
0010
0301
0010
,
1001
0000
0100
0000
1001
0000
0010
1000
,
1001
0011
0101
1001
,
0110
0000
0000
0000
,
1000
0100
1100
0000
,
0010
0000
0100
0000
0010
0000
1000
0001
,
1000
0001
0011
0010
,
1100
0110
0011
0101
,
0010
1000
1001
0000
,
0100
0000
0010
0000
0100
0000
0001
0010
,
1000
0001
1001
0100
,
1010
0110
0011
0101
,
1000
0000
0100
0000
1000
0000
0010
1010
,
0000
0001
0000
0100
0010
0000
1000
0000
,
0001
0000
0100
0000
0010
0000
1000
1010
,
0000
0100
0000
0010
0100
0000
0001
0000
,
0010
0000
0001
0000
0100
0000
0010
1001
,
0000
0100
0000
0010
0100
0000
0001
0000
,
1000
0000
0010
0000
0100
0000
0010
1001
,
0000
0100
0000
0010
1000
0000
0100
0000
,
0010
0000
0100
0000
1000
0000
0010
0100
,
0000
0001
0000
1000
0010
0000
0100
0000
,
0001
0000
1000
0000
0010
0000
0100
0001
,
0000
1000
0000
0010
0100
0000
0001
0000
,
1000
0000
0000
0000
;

//---------------dance-single - ----------------
#NOTES:
     dance-single:
     :
     Challenge:
     9:
     0.500,0.592,0.452,0.000,0.103,371.000,55.000,0.000,0.000,0.000,0.000,0.500,0.592,0.452,0.000,0.103,371.000,55.000,0.000,0.000,0.000,0.000:
0000
0000
0000
0000
,
0000
0000
0000
0000
,
0000
0000
0000
0000
,
0000
0000
0000
0000
,
0000
0000
0000
0000
,
0000
0000
0000
0000
,
0000
0000
0000
0000
,
1000
0000
0000
0000
0001
0100
0001
0100
0001
0100
0001
0100
0001
0000
0010
0000
,
1000
0000
0010
1000
0100
0010
0100
0001
,
0000
0100
0000
0010
1000
0000
0010
0000
,
0100
0000
0001
0100
0001
0010
0100
1000
,
0000
0010
0000
0100
1000
0000
0010
0000
,
0100
0000
0001
0010
0100
1000
0010
0100
,
0000
0001
0000
0100
0010
0000
1000
0000
,
0001
0000
0100
0010
1000
0010
0100
0001
,
0000
1000
0000
0010
0100
0000
0010
0000
,
0001
0000
1000
0000
0010
0100
0010
0100
0010
0100
0010
0100
0010
0000
0100
0000
,
1000
0010
1000
0100
1001
0000
0010
0100
,
0110
0000
0011
0000
1010
0000
0110
0010
,
1000
0001
1000
0010
0100
0000
0001
0010
,
1001
0000
0000
0000
0110
0000
0000
0000
0011
0000
0000
0000
0110
0000
0010
1000
,
0001
0100
1000
0010
0100
0000
0010
1000
,
1010
0110
0011
0110
,
1001
0000
0001
0100
0010
1000
0010
0100
,
1001
0110
0011
0110
,
1010
0000
0000
0000
,
0100
0000
0000
0000
0010
0000
0100
0001
0000
0000
0000
0000
0000
0000
0000
0000
,
1000
0000
0100
0000
0010
0000
0001
1000
0000
0000
0010
0000
0100
0000
1000
0000
,
0010
0000
0000
0000
0100
0000
0001
1000
0000
0000
0000
0000
0010
0000
0100
0000
,
0110
1001
0011
0101
,
0010
0000
0000
0000
0100
0000
0001
1000
0000
0000
0000
0000
0000
0000
0000
0000
,
0010
0000
1000
0000
0100
0000
0010
0001
0000
0000
0100
0000
0010
0000
1000
0000
,
0100
0000
0000
0000
0001
0000
1000
0010
0000
0000
0000
0000
0100
0000
0010
0000
,
0011
1100
0110
0011
,
0010
0000
0100
0010
1000
0001
1000
0010
,
0000
0100
0000
0010
1000
0000
0001
0000
,
0100
0000
0010
1000
0100
1000
0010
0001
,
0000
0100
0000
0010
1000
0000
0100
0000
,
0010
0000
1000
0100
0010
0001
0100
0010
,
0000
0100
0000
0010
1000
0000
0100
0000
,
0010
0000
1000
0001
1000
0001
0010
0100
,
0000
1000
0000
0010
0100
0000
0001
0000
,
1001
0000
0000
0000
0100
0000
0010
1000
0010
1000
0010
1000
0010
0000
0100
0000
,
0001
0010
0100
1000
0010
0000
0100
0010
,
0011
0000
1010
0000
0110
0000
1001
0001
,
0100
0010
1000
0100
0010
0000
0100
0010
,
0011
0000
0000
0000
1100
0000
0000
0000
0110
0000
0000
0000
1010
0000
0100
0010
,
0100
0010
0001
0010
0100
0000
0010
1000
,
1100
0110
0011
0101
,
0110
0000
1000
0010
0100
0000
0010
1000
,
1001
0101
0011
1001
,
0110
0000
0000
0000
,
1000
0000
0000
0000
0100
0000
0001
1000
0000
0000
0000
0000
0000
0000
0000
0000
,
0010
0000
0100
0000
1000
0000
0010
0100
0000
0000
0001
0000
0010
0000
0100
0000
,
1000
0000
0000
0000
0100
0000
0010
0100
0000
0000
0000
0000
1000
0000
0100
0000
,
0110
0011
0110
1010
,
0100
0000
0000
0000
0001
0000
1000
0010
0000
0000
0000
0000
0000
0000
0000
0000
,
0100
0000
0010
0000
0001
0000
1000
0100
0000
0000
0010
0000
0100
0000
1000
0000
,
0010
0000
0000
0000
0100
0000
0001
1000
0000
0000
0000
0000
0100
0000
0010
0000
,
0011
1100
0110
0011
,
0010
0000
0100
0010
0001
1000
0010
0100
,
0000
0001
0000
1000
0010
0000
0100
0000
,
0001
0000
0010
0100
1000
0010
0100
0001
,
0000
0100
0000
0010
1000
0000
0100
0000
,
0010
0000
0100
1000
0010
0100
0001
0010
,
0000
0100
0000
1000
0010
0000
0100
0000
,
0001
0000
0010
0100
1000
0010
0100
0001
,
0000
1000
0000
0010
0100
0000
0001
0000
,
1000
0000
0100
0010
0100
0001
1000
0010
,
0000
0100
0000
1000
0010
0000
0100
0000
,
0001
0000
1000
0010
0100
0010
0100
0001
,
0000
1000
0000
0010
0100
0000
0001
0000
,
1001
0000
0000
0000
;

//---------------dance-single - ----------------
#NOTES:
     dance-single:
     :
     Beginner:
     1:
     0.087,0.118,0.000,0.000,0.000,74.000,0.000,0.000,0.000,0.000,0.000,0.087,0.118,0.000,0.000,0.000,74.000,0.000,0.000,0.000,0.000,0.000:
0000
0000
0000
0000
,
0000
0000
0000
0000
,
0000
0000
0000
0000
,
0000
0000
0000
0000
,
0000
0000
0000
0000
,
0000
0000
0000
0000
,
0000
0000
0000
0000
,
1000
0000
0000
0000
,
0010
0000
0000
0000
,
0010
0000
0000
0000
,
0100
0000
0000
0000
,
0100
0000
0000
0000
,
0001
0000
0000
0000
,
0001
0000
0000
0000
,
0010
0000
0000
0000
,
0100
0000
0000
0000
,
0000
0000
0000
0000
,
0100
0000
0000
0000
,
0010
0000
0000
0000
,
1000
0000
0000
0000
,
0010
0000
0000
0000
,
0100
0000
0000
0000
,
0001
0000
0000
0000
,
0010
0000
0000
0000
,
0100
0000
0000
0000
,
0000
0000
0000
0000
,
1000
0000
1000
0000
,
0000
0000
0010
0000
,
0010
0000
0010
0000
,
0001
0000
0100
0000
,
0010
0000
0010
0000
,
0000
0000
1000
0000
,
1000
0000
0100
0000
,
0010
0000
0010
0000
,
0001
0000
0000
0000
,
0001
0000
0000
0000
,
1000
0000
0000
0000
,
1000
0000
0000
0000
,
0010
0000
0000
0000
,
0010
0000
0000
0000
,
0100
0000
0000
0000
,
0100
0000
0000
0000
,
0000
0000
0000
0000
,
0010
0000
0000
0000
,
0001
0000
0000
0000
,
0010
0000
0000
0000
,
1000
0000
0000
0000
,
0100
0000
0000
0000
,
1000
0000
0000
0000
,
0010
0000
0000
0000
,
0100
0000
0000
0000
,
0000
0000
0000
0000
,
0010
0000
0010
0000
,
0000
0000
0100
0000
,
0100
0000
0001
0000
,
0010
0000
1000
0000
,
0100
0000
0100
0000
,
0000
0000
0010
0000
,
0010
0000
0001
0000
,
0100
0000
0010
0000
,
1000
0000
0000
0000
,
0001
0000
0000
0000
,
1000
0000
0000
0000
,
0001
0000
0000
0000
,
0010
0000
0000
0000
,
0100
0000
0000
0000
,
0010
0000
0000
0000
,
0100
0000
0000
0000
,
0001
0000
0000
0000
,
1000
0000
0000
0000
,
0010
0000
0000
0000
,
0100
0000
0000
0000
,
0010
0000
0000
0000
;

//---------------dance-single - ----------------
#NOTES:
     dance-single:
     :
     Medium:
     5:
     0.316,0.355,0.255,0.000,0.000,238.000,31.000,0.000,0.000,0.000,0.000,0.316,0.355,0.255,0.000,0.000,238.000,31.000,0.000,0.000,0.000,0.000: // measure 1
0000
0000
0000
0000
,  // measure 2
0000
0000
0000
0000
,  // measure 3
0000
0000
0000
0000
,  // measure 4
0000
0000
0000
0000
,  // measure 5
0000
0000
0000
0000
,  // measure 6
0000
0000
0000
0000
,  // measure 7
0000
0000
0000
0000
,  // measure 8
1000
0000
0000
0000
,  // measure 9
0001
0010
0001
0100
,  // measure 10
1000
0010
0100
0001
,  // measure 11
0010
0100
1000
0001
,  // measure 12
0010
0100
0010
1000
,  // measure 13
1001
0010
0001
0100
,  // measure 14
1000
0010
1000
0100
,  // measure 15
0001
1000
0100
0010
,  // measure 16
0100
0001
0010
1000
,  // measure 17
1001
0000
0000
0000
,  // measure 18
0010
0010
0010
0010
,  // measure 19
1000
0010
0001
0100
,  // measure 20
0010
0010
0010
0010
,  // measure 21
1000
0001
0010
1000
,  // measure 22
0001
0001
0001
0001
,  // measure 23
1000
0001
0010
0001
,  // measure 24
0100
0000
0001
0000
,  // measure 25
1001
0101
0011
1001
,  // measure 26
0011
0000
0000
0000
,  // measure 27
1000
0100
0010
0000
,  // measure 28
0000
0000
0010
0000
0100
0000
1000
0100
,  // measure 29
1000
0010
0100
0001
,  // measure 30
1001
0011
0101
0011
,  // measure 31
1000
0100
0001
0000
,  // measure 32
0000
0000
0010
0000
0100
0000
1000
0100
,  // measure 33
1000
0010
0100
0001
,  // measure 34
1001
0011
0101
1001
,  // measure 35
1000
0100
1000
0100
,  // measure 36
0001
0010
0001
0010
,  // measure 37
0100
0010
0100
0010
,  // measure 38
1000
0001
1000
0001
,  // measure 39
1001
0001
0100
0001
,  // measure 40
0100
0010
1000
0010
,  // measure 41
0100
0010
0100
0001
,  // measure 42
1000
0100
1000
0010
,  // measure 43
1001
0000
0000
0000
,  // measure 44
0010
0010
0010
0010
,  // measure 45
1000
0001
0100
0001
,  // measure 46
1000
1000
1000
1000
,  // measure 47
0010
0100
0001
0100
,  // measure 48
1000
0100
0001
0010
,  // measure 49
1000
0010
0100
0010
,  // measure 50
1000
0000
0100
0000
,  // measure 51
1010
0110
0011
0101
,  // measure 52
1001
0000
0000
0000
,  // measure 53
1000
0001
1000
0000
,  // measure 54
0000
0000
0010
0000
0100
0000
1000
0100
,  // measure 55
1000
0100
1000
0010
,  // measure 56
0011
0110
1010
0110
,  // measure 57
0001
0010
0001
0000
,  // measure 58
0000
0000
0010
0000
0100
0000
1000
0001
,  // measure 59
1000
0010
1000
0100
,  // measure 60
0011
0101
0011
1001
,  // measure 61
0100
0010
0001
0100
,  // measure 62
0001
1000
0100
0010
,  // measure 63
0100
0001
0010
0100
,  // measure 64
0010
1000
0010
0100
,  // measure 65
1001
0100
0010
0001
,  // measure 66
1000
0010
1000
0100
,  // measure 67
0001
0100
0001
0100
,  // measure 68
0001
0100
0001
0100
,  // measure 69
0001
1000
0001
1000
,  // measure 70
0001
1000
0001
0100
,  // measure 71
1000
0010
1000
0010
,  // measure 72
1000
0010
1000
0010
,  // measure 73
0100
0000
0000
0000
;
