#TITLE:No Nagging (Na-Na, Na, Na, Na);
#SUBTITLE:;
#ARTIST:Froggy Mix;
#TITLETRANSLIT:;
#SUBTITLETRANSLIT:;
#ARTISTTRANSLIT:;
#GENRE:;
#CREDIT:;
#BANNER:No Nagging (Na-Na, Na, Na, Na).png;
#BACKGROUND:No Nagging (Na-Na, Na, Na, Na)-bg.png;
#LYRICSPATH:;
#CDTITLE:.\CDTITLES\DDRMAX6.PNG;
#MUSIC:No Nagging (Na-Na, Na, Na, Na).ogg;
#OFFSET:1.100;
#SAMPLESTART:57.300;
#SAMPLELENGTH:15.000;
#SELECTABLE:YES;
#DISPLAYBPM:134.000;
#BPMS:0.000=134.000,124.000=134.300,160.000=134.000,180.000=133.000;
#STOPS:;
#BGCHANGES:;
#KEYSOUNDS:;

//---------------dance-single - ----------------
#NOTES:
     dance-single:
     :
     Hard:
     8:
     0.502,0.548,0.246,0.056,0.084,287.000,22.000,5.000,0.000,0.000,0.000,0.502,0.548,0.246,0.056,0.084,287.000,22.000,5.000,0.000,0.000,0.000:
0000
0000
0000
0000
,
0000
0000
0000
0000
,
0000
0000
0000
0000
,
0000
0000
0000
0000
,
0000
0000
0000
0000
,
0000
0000
0000
0000
,
0000
0000
0000
0000
,
0000
0000
0000
0000
,
0000
0000
0000
0000
,
0010
0100
0010
0100
0010
0100
0010
0100
,
0010
0001
0010
0001
0000
0001
0100
0001
,
1000
0010
1000
0010
1000
0010
1000
0010
,
1000
0100
1000
0100
0000
0010
0100
0010
,
0001
0100
0001
0100
0001
0100
0001
0100
,
0001
1000
0001
1000
0000
0010
0100
0010
,
1000
0001
1000
0001
1000
0001
1000
0001
,
0100
0010
0100
0010
0000
1000
0100
0010
,
0000
0000
0011
0000
0100
0000
1000
0000
0010
0000
0100
0000
0010
0001
0010
0000
,
1000
0000
0000
0100
1000
0000
0000
0010
0100
0000
0000
0001
0100
0000
0000
1000
,
0010
0000
0100
0000
0001
0000
0010
0000
0100
0000
0011
0000
0010
0100
0010
0100
,
0010
0000
0000
1000
0010
0000
0000
0100
0001
0000
0000
0010
0100
0000
0000
1000
,
0010
0000
0100
0000
0010
0000
1001
0000
0100
0000
1000
0000
0010
0001
0010
0000
,
0100
0110
0001
1001
,
0000
0010
0100
0010
0100
1000
0010
0100
,
0101
0001
0001
0001
0011
0010
0100
1001
,
0010
0000
0100
0000
0010
0000
0001
0000
0010
0100
0010
0000
1000
0000
0001
0000
,
0110
1001
0011
1100
,
0010
0000
0001
0000
0010
0000
0100
0000
0010
0000
0100
0000
0010
1000
0010
1000
,
0010
0001
0100
0010
,
1000
0100
0010
0100
0001
0010
0101
1001
,
0010
0100
1000
0010
0100
0010
0100
0001
,
0000
0100
1000
0010
0100
0001
1000
0010
,
0110
1000
0101
0100
0010
0001
1000
0010
,
0100
0010
0100
0010
0100
0010
0100
0010
,
0100
1000
0100
1000
0000
0010
0001
0010
,
0100
0010
0100
0010
0100
0010
0100
0010
,
1000
0001
1000
0010
0100
0010
1001
1001
,
0001
0100
0001
0100
0001
0100
0001
0100
,
0010
1000
0010
0100
0000
1000
0100
0010
,
0100
0010
0100
0010
0100
0010
0100
0010
,
0001
0010
0001
0010
0000
0100
0010
1000
,
0002
1000
0203
0310
,
2000
0010
3100
0001
,
0200
0010
0301
1000
,
0020
0100
1030
0100
,
0001
0010
0001
0010
0011
0000
0001
0010
,
0100
0010
0100
1000
1100
0000
0100
0001
,
0010
0001
0010
0001
1100
0000
0010
0100
,
0010
0001
0010
1000
0100
0010
0100
0001
,
1001
0000
0000
0000
;

//---------------dance-single - ----------------
#NOTES:
     dance-single:
     :
     Challenge:
     9:
     0.615,0.767,0.738,0.000,0.263,319.000,66.000,0.000,0.000,0.000,0.000,0.615,0.767,0.738,0.000,0.263,319.000,66.000,0.000,0.000,0.000,0.000:
0000
0000
0000
0000
,
0000
0000
0000
0000
,
0000
0000
0000
0000
,
0000
0000
0000
0000
,
0000
0000
0000
0000
,
0000
0000
0000
0000
,
0000
0000
0000
0000
,
0000
0000
0000
0000
,
0000
0000
0000
0000
,
1000
0000
0100
0000
0010
0000
0001
0000
0100
0000
0010
0000
0100
0000
1000
0001
,
1000
0010
0100
0010
0000
0001
0100
0010
,
1000
0000
0100
0000
1000
0000
0010
0000
1000
0000
0100
0000
0010
0000
0001
0010
,
0011
0010
0100
1000
0000
0010
1000
0100
,
0010
0000
0001
0000
0100
0000
0010
0000
0100
0000
0010
0000
1000
0000
0010
0100
,
0110
1000
0001
1000
0000
0010
0100
0010
,
1000
0000
0100
0000
0010
0000
0001
0000
0100
0000
0010
0000
1000
0000
0100
0010
,
1001
1000
0010
1000
0000
0010
0100
0010
,
0110
0000
0110
0000
0011
0000
0011
0000
1100
0000
0000
0000
0010
0001
0010
0001
,
0010
0000
0000
0100
0010
0000
0000
1000
0001
0000
0000
0100
0010
0000
0000
1000
,
0001
0000
0101
0000
0101
0000
1010
0000
0110
0000
0110
0000
0001
1000
0001
1000
,
0001
0000
0000
0100
0010
0000
0000
1000
0001
0000
0000
0100
0010
0000
0000
1000
,
0010
0000
0110
0000
0011
0000
0011
0000
1010
0000
1010
0000
0001
1000
0001
1000
,
0001
0000
0000
0100
0010
0000
0000
1000
0001
0000
0000
0100
0010
0000
0000
1000
,
0100
0110
0110
0011
0011
1010
0010
0100
,
1000
0000
0001
0000
1000
0000
0001
1000
0001
1000
0001
1000
0001
1000
0001
1000
,
0001
0000
0011
0000
0011
0000
1010
0000
1010
0000
0110
0000
0010
0001
0010
0001
,
0010
0000
0000
0010
0100
0000
0000
1000
0001
0000
0000
0100
0010
0000
0000
1000
,
0001
0000
0101
0000
0101
0000
1010
0000
1010
0000
0110
0000
1000
0001
1000
0001
,
1000
0000
0000
0100
0010
0000
0000
1001
0000
0000
0000
0100
0010
0000
0000
0001
,
1000
1010
1010
0110
0110
0011
0001
0100
,
1000
0000
0000
0010
0100
0000
0000
0001
0100
0000
0000
0010
0100
0000
0000
1000
,
0001
0101
0101
0011
0011
1001
1001
0010
,
0110
0000
0000
0010
0100
0000
0000
1000
0001
0000
0100
0000
0010
0000
1000
0000
,
0001
0100
0010
1000
1001
0000
0010
0100
,
0010
0100
1000
0010
0011
0000
0100
0010
,
1000
0010
1000
0100
0110
0000
0011
0000
,
0000
1000
0010
1000
0001
1000
1010
1000
,
0010
0100
0010
0100
0110
0000
1000
0001
,
0100
0010
1000
0010
0011
0000
0010
1000
,
0010
0100
0010
0100
0110
0000
1001
0000
,
0000
0001
0100
0010
1000
0010
1100
0010
,
0110
0010
0100
0010
0100
0010
0100
0010
,
0001
0000
0010
0000
0001
0000
0010
0000
0000
0000
0100
0000
1000
0000
0010
0100
,
1000
0100
1000
0100
1000
0100
1000
0100
,
0010
0000
0001
0000
0010
0000
0100
0000
0000
0000
0100
0000
0010
0000
0001
1000
,
0001
0100
0010
0001
1001
0000
0101
0001
,
1000
0001
1000
0010
1010
0000
0110
0010
,
0100
0010
0100
0010
0011
0000
1010
0000
,
0000
1000
0100
0010
1001
1000
1010
0100
,
1001
0000
0000
0000
;

//---------------dance-single - ----------------
#NOTES:
     dance-single:
     :
     Medium:
     5:
     0.324,0.384,0.358,0.000,0.000,171.000,32.000,0.000,0.000,0.000,0.000,0.324,0.384,0.358,0.000,0.000,171.000,32.000,0.000,0.000,0.000,0.000:
0000
0000
0000
0000
,
0000
0000
0000
0000
,
0000
0000
0000
0000
,
0000
0000
0000
0000
,
0000
0000
0000
0000
,
0000
0000
0000
0000
,
0000
0000
0000
0000
,
0000
0000
0000
0000
,
0000
0000
0000
0000
,
1000
0100
1000
0100
,
0001
0100
0000
0100
,
0010
0100
0010
0100
,
0010
0001
0000
0001
,
0010
0100
0010
0100
,
0010
0100
0000
1000
,
0100
0010
0100
0010
,
0100
0010
0000
0001
,
1000
0000
0100
0000
0010
0000
0001
0100
,
1000
0010
1000
0100
,
0010
0000
0100
0000
0001
0000
1000
0100
,
0010
0100
0010
1000
,
0001
0000
0010
0000
0001
0000
0100
0010
,
0001
0010
0001
0010
,
0100
0000
0010
0000
0100
0000
1000
0001
,
1000
0010
1000
0010
1000
0010
1000
0010
,
1000
1100
0100
0010
,
0011
0110
1010
0110
,
1000
1010
0001
0101
,
0110
0011
1001
0110
,
1000
1001
0010
0110
,
0101
0011
0110
1001
,
0010
1100
0010
0110
,
0011
1010
0100
0010
,
1000
0000
0100
0010
0001
0000
0001
0000
,
0010
0000
0100
1000
0100
0000
0100
0000
,
0010
0000
1000
0001
1000
0000
1000
0000
,
0010
0000
0100
0010
0100
0000
1000
0000
,
0001
0000
0010
0010
0010
0000
0100
0000
,
1000
0000
0010
0010
0010
0000
0100
0000
,
0001
0000
0100
0100
0100
0000
0010
0000
,
1000
0001
0100
1000
,
1010
1010
0100
0010
,
0011
0011
0001
0010
,
0110
0110
0010
1100
,
1000
0100
1000
0100
,
0101
1000
0001
1000
,
0001
1000
0001
1000
,
0010
0100
0010
0100
,
0000
1100
0100
1010
,
0101
0000
0000
0000
;

//---------------dance-single - ----------------
#NOTES:
     dance-single:
     :
     Easy:
     4:
     0.251,0.329,0.246,0.022,0.000,133.000,22.000,2.000,0.000,0.000,0.000,0.251,0.329,0.246,0.022,0.000,133.000,22.000,2.000,0.000,0.000,0.000:
0000
0000
0000
0000
,
0000
0000
0000
0000
,
0000
0000
0000
0000
,
0000
0000
0000
0000
,
0000
0000
0000
0000
,
0000
0000
0000
0000
,
0000
0000
0000
0000
,
0000
0000
0000
0000
,
0000
0000
0000
0000
,
1000
1000
1000
0100
,
0001
0001
0000
0010
,
1000
1000
1000
0100
,
0001
0001
0000
0010
,
1000
1000
1000
0100
,
0001
0001
0000
0010
,
0100
0100
0100
1000
,
0010
0010
0000
0001
,
0100
1000
0100
0100
,
0001
0010
0011
0000
,
0000
0010
0100
0010
,
1000
0010
1010
0000
,
0000
0100
0001
0010
,
1000
0010
0011
0000
,
0000
0010
0100
0010
,
0110
0000
0000
0000
,
0000
1000
0100
1000
,
0010
0001
0101
0000
,
0000
0010
1000
0010
,
0100
0001
0011
0000
,
0000
0010
0100
0010
,
1000
0010
1010
0000
,
0000
0100
0010
0100
,
1001
0110
2002
3003
,
0010
0100
0010
0010
,
0100
0010
0100
0100
,
0001
0100
0001
0001
,
0000
0010
1000
0100
,
0110
0010
0001
0001
,
0100
0010
0100
0100
,
1000
0010
0100
0100
,
0000
0010
0100
0010
,
0110
0110
0000
0010
,
0011
0011
0000
0010
,
0110
0110
0000
1000
,
1010
1010
0000
0010
,
0100
0100
0100
0001
,
0010
0010
0010
0100
,
1000
1000
1000
0010
,
0000
0110
0001
0110
,
1001
0000
0000
0000
;

//---------------dance-single - ----------------
#NOTES:
     dance-single:
     :
     Beginner:
     1:
     0.101,0.164,0.134,0.000,0.000,51.000,12.000,0.000,0.000,0.000,0.000,0.101,0.164,0.134,0.000,0.000,51.000,12.000,0.000,0.000,0.000,0.000: // measure 1
0000
0000
0000
0000
,  // measure 2
0000
0000
0000
0000
,  // measure 3
0000
0000
0000
0000
,  // measure 4
0000
0000
0000
0000
,  // measure 5
0000
0000
0000
0000
,  // measure 6
0000
0000
0000
0000
,  // measure 7
0000
0000
0000
0000
,  // measure 8
0000
0000
0000
0000
,  // measure 9
0000
0000
0000
0000
,  // measure 10
1000
0000
0000
0000
,  // measure 11
0001
0000
0000
1000
,  // measure 12
1000
0000
0000
0000
,  // measure 13
0010
0000
0000
0100
,  // measure 14
0100
0000
0000
0000
,  // measure 15
0010
0000
0000
0001
,  // measure 16
0001
0000
0000
0000
,  // measure 17
0010
0000
0000
0100
,  // measure 18
0100
0000
0000
0000
,  // measure 19
0000
0000
0000
0000
,  // measure 20
0010
0000
0000
0000
,  // measure 21
0000
0000
0000
0000
,  // measure 22
0001
0000
0000
0000
,  // measure 23
0000
0000
0000
0000
,  // measure 24
0010
0000
0000
0000
,  // measure 25
0100
0000
0000
0000
,  // measure 26
1001
0000
0000
0000
,  // measure 27
0000
0000
0000
0000
,  // measure 28
0110
0000
0000
0000
,  // measure 29
0000
0000
0000
0000
,  // measure 30
1000
0000
0000
0000
,  // measure 31
0000
0000
0000
0000
,  // measure 32
0001
0000
0000
0000
,  // measure 33
0010
0000
0000
0000
,  // measure 34
0100
0000
0110
0000
,  // measure 35
0010
0000
0110
0000
,  // measure 36
0001
0000
1001
0000
,  // measure 37
1000
0000
1001
0000
,  // measure 38
0010
0000
0110
0000
,  // measure 39
1000
0000
1001
0000
,  // measure 40
0010
0000
0110
0000
,  // measure 41
0000
0000
0000
0000
,  // measure 42
1000
1000
0000
0000
,  // measure 43
0001
0001
0000
0000
,  // measure 44
0010
0010
0000
0000
,  // measure 45
0100
0100
0000
0000
,  // measure 46
1000
0000
1001
0000
,  // measure 47
0010
0000
0110
0000
,  // measure 48
1000
0000
1001
0000
,  // measure 49
0000
0000
0000
0000
,  // measure 50
0100
0000
0000
0000
;
