#TITLE:No Hagas El Indio, Haz El Cherokee;
#SUBTITLE:;
#ARTIST:DJ Cherry Coke;
#TITLETRANSLIT:;
#SUBTITLETRANSLIT:;
#ARTISTTRANSLIT:;
#GENRE:;
#CREDIT:;
#BANNER:No Hagas El Indio, Haz El Cherokee.png;
#BACKGROUND:No Hagas El Indio, Haz El Cherokee-bg.png;
#LYRICSPATH:;
#CDTITLE:.\CDTITLES\DDRMAX6.PNG;
#MUSIC:No Hagas El Indio, Haz El Cherokee.ogg;
#OFFSET:0.000;
#SAMPLESTART:22.480;
#SAMPLELENGTH:15.000;
#SELECTABLE:YES;
#DISPLAYBPM:160.000;
#BPMS:0.000=160.000;
#STOPS:;
#BGCHANGES:;
#KEYSOUNDS:;

//---------------dance-single - ----------------
#NOTES:
     dance-single:
     :
     Hard:
     9:
     0.602,0.523,0.643,0.020,0.000,348.000,63.000,2.000,0.000,0.000,0.000,0.602,0.523,0.643,0.020,0.000,348.000,63.000,2.000,0.000,0.000,0.000:
0000
0000
0000
0000
,
0000
0000
0000
0000
,
0000
0000
0000
0000
,
0000
0000
0000
0000
,
0000
0000
0000
0000
,
0000
0000
0000
0000
,
0000
0000
0000
0000
,
0000
0000
0000
0000
,
1100
0000
1100
0000
1100
0000
0100
0101
,
0000
0101
0000
0101
0000
0010
0100
0010
,
0110
0000
0110
0000
0110
0000
0100
1100
,
0000
1100
0000
1100
0000
0100
0010
0100
,
1100
0000
1100
0000
1100
0000
0100
0110
,
0000
0110
0000
0110
0000
0010
0001
0010
,
0011
0000
0011
0000
0011
0000
0010
2002
,
0000
0000
0000
3003
,
1000
0000
0100
0000
0110
0000
0001
0100
,
0000
0010
0000
1001
0000
0010
1000
0010
,
0100
0000
0010
0000
1001
0000
0100
0010
,
0000
0100
0000
1001
0000
0010
1000
0010
,
0100
0000
0010
0000
0011
0000
0010
0100
,
0000
1000
0000
1010
0000
0100
0010
0100
,
0010
0000
1000
0000
1001
0000
0010
0100
,
0000
0010
0000
0011
0000
0010
0100
1000
,
0010
0100
0010
0100
0010
0100
0010
0100
,
0010
0001
0010
0001
0010
0001
0010
0001
,
0010
0100
0010
0100
0010
0100
0010
0100
,
1000
0100
1000
0100
1000
0100
1000
0100
,
0010
0001
0010
0001
0010
0001
0010
0001
,
0100
0010
0100
0010
0100
0010
0100
0010
,
1000
0100
1000
0100
1000
0100
1000
0100
,
0010
0001
0010
0001
0010
0001
0010
0100
,
0010
0100
0010
0100
0010
0100
0010
0100
,
1000
0100
1000
0100
1000
0100
1000
0100
,
0010
0100
0010
0100
0010
0100
0010
0100
,
0001
0100
0001
0100
0001
0100
0001
0100
,
0010
0100
0010
0100
0010
0100
0010
0100
,
1000
0100
1000
0100
1000
0100
1000
0100
,
0010
0100
0010
0100
0010
0100
0010
0100
,
0001
0100
0001
0100
0001
0100
0001
0100
,
0010
1000
0010
1000
0010
1000
0010
1000
,
0001
0100
0001
0100
0001
0100
0001
0100
,
0010
0100
0010
0100
0010
0100
0010
0100
,
0010
1000
0010
1000
0010
1000
0010
1000
,
0010
0100
0010
0100
0010
0100
0010
0100
,
0001
0100
0001
0100
0001
0100
0001
0100
,
0010
1000
0010
1000
0010
1000
0010
1000
,
0010
0100
0010
0100
0010
0100
0010
0100
,
0101
0000
0101
0000
0101
0000
0001
0101
,
0000
0101
0000
0101
0000
0010
0100
0010
,
1010
0000
1010
0000
1010
0000
0010
0110
,
0000
0110
0000
0110
0000
0010
0100
0010
,
0011
0000
0011
0000
0011
0000
0010
0110
,
0000
0110
0000
0110
0000
0010
1000
0010
,
0110
0000
0110
0000
0110
0000
0001
1001
,
0000
1001
0000
1001
0000
0010
1000
0100
,
0001
0000
0010
0000
0011
0000
0010
0100
,
0000
0010
0000
0110
0000
0010
1000
0010
,
0001
0000
0010
0000
0011
0000
0010
0100
,
0000
0010
0000
0110
0000
0010
1000
0010
,
0100
0000
0010
0000
0110
0000
1000
0001
,
0000
0010
0000
0110
0000
1000
0010
1000
,
0010
0000
0100
0000
0101
0000
0010
1000
,
0000
0100
0000
1100
0000
0010
0100
0001
,
1001
0000
0000
0000
;

//---------------dance-single - ----------------
#NOTES:
     dance-single:
     :
     Easy:
     3:
     0.246,0.196,0.102,0.000,0.000,159.000,10.000,0.000,0.000,0.000,0.000,0.246,0.196,0.102,0.000,0.000,159.000,10.000,0.000,0.000,0.000,0.000:
0000
0000
0000
0000
,
0000
0000
0000
0000
,
0000
0000
0000
0000
,
0000
0000
0000
0000
,
0000
0000
0000
0000
,
0000
0000
0000
0000
,
0000
0000
0000
0000
,
0000
0000
0000
0000
,
1000
1000
0100
0000
,
0010
0010
0001
0000
,
0100
0100
0010
0000
,
1000
1000
0100
0000
,
0001
0001
0100
0000
,
0010
0010
1000
0000
,
0100
0100
0010
0000
,
1001
0000
0000
0000
,
0001
0001
0100
0000
,
0010
0010
1000
0000
,
0100
0100
0010
0000
,
0001
0001
1000
0000
,
0010
0010
0100
0000
,
1000
1000
0100
0000
,
0001
0001
0100
0000
,
0010
0010
0100
0000
,
1001
0000
1000
0000
,
1001
0000
1000
0000
,
0110
0000
0001
0000
,
0110
0000
0001
0000
,
1001
0000
1000
0000
,
1001
0000
0001
0000
,
0110
0000
1000
0000
,
0110
0000
0001
0000
,
1000
1000
0100
0000
,
0010
0010
0010
0000
,
0001
0001
0100
0000
,
1000
1000
1000
0000
,
0010
0100
0100
0000
,
0001
0001
0001
0000
,
1000
0010
0010
0000
,
0100
0100
0100
0000
,
0010
0010
0001
0000
,
0001
0001
0001
0000
,
1000
1000
0100
0000
,
0010
0010
0010
0000
,
0100
0100
1000
0000
,
0010
0010
0100
0000
,
0010
0010
0010
0000
,
0100
0100
0100
0000
,
0010
0010
1000
0000
,
0100
0100
0001
0000
,
1000
1000
0010
0000
,
0100
0100
0001
0000
,
1000
1000
0010
0000
,
0100
0100
0001
0000
,
1000
1000
0010
0000
,
0100
0100
0001
0000
,
1000
1000
0010
0000
,
0100
0100
0001
0000
,
0010
0010
0100
0000
,
1000
1000
0010
0000
,
0100
0100
0001
0000
,
1000
1000
0010
0000
,
0100
0100
0001
0000
,
1000
1000
0010
0000
,
1001
0000
0000
0000
;

//---------------dance-single - ----------------
#NOTES:
     dance-single:
     :
     Medium:
     5:
     0.386,0.392,0.265,0.020,0.000,237.000,26.000,2.000,0.000,0.000,0.000,0.386,0.392,0.265,0.020,0.000,237.000,26.000,2.000,0.000,0.000,0.000:
0000
0000
0000
0000
,
0000
0000
0000
0000
,
0000
0000
0000
0000
,
0000
0000
0000
0000
,
0000
0000
0000
0000
,
0000
0000
0000
0000
,
0000
0000
0000
0000
,
0000
0000
0000
0000
,
1000
0000
1000
0000
1000
0000
1000
0010
,
0000
0010
0000
0010
0000
0010
0100
0000
,
0001
0000
0001
0000
0001
0000
0001
1000
,
0000
1000
0000
1000
0000
1000
0010
0000
,
0100
0000
0100
0000
0100
0000
0100
0010
,
0000
0010
0000
0010
0000
0010
1000
0000
,
0100
0000
0100
0000
0100
0000
0100
2002
,
0000
0000
0000
3003
,
1000
0000
1000
0000
1000
0000
1000
0010
,
0000
0010
0000
0010
0000
0010
0100
0000
,
1000
0000
1000
0000
1000
0000
1000
0100
,
0000
0100
0000
0100
0000
0100
0010
0000
,
0001
0000
0001
0000
0001
0000
0001
0100
,
0000
0100
0000
0100
0000
0100
0010
0000
,
1000
0000
1000
0000
1000
0000
1000
0010
,
0000
0010
0000
0010
0000
0010
0100
0000
,
1000
0100
0010
0001
,
1000
0100
0010
0001
,
1000
0100
0010
0001
,
1000
0100
0010
0001
,
1000
0100
0010
0001
,
1000
0100
0010
0001
,
1000
0100
0010
0001
,
1000
0100
0010
0001
,
0001
0010
0100
1000
,
0001
0010
0100
1000
,
0001
0010
0100
1000
,
0001
0010
0100
1000
,
0001
0010
0100
1000
,
0001
0010
0100
1000
,
0001
0010
0100
1000
,
0001
0010
0100
1000
,
1000
0100
0010
0001
,
1000
0100
0010
0001
,
1000
0100
0010
0001
,
1000
0100
0010
0001
,
0001
0010
0100
1000
,
0001
0010
0100
1000
,
0001
0010
0100
1000
,
0001
0010
0100
1000
,
1010
0000
0110
0000
0011
0000
0001
1000
,
0000
1000
0000
1000
0000
1000
0010
0000
,
0110
0000
0011
0000
1001
0000
0001
1000
,
0000
1000
0000
1000
0000
0100
0010
0000
,
0011
0000
1010
0000
0110
0000
1000
0001
,
0000
0001
0000
0001
0000
0001
1000
0000
,
1010
0000
0110
0000
0011
0000
0010
0100
,
0000
0100
0000
0100
0000
0100
1000
0000
,
1100
0000
0110
0000
0011
0000
0001
0010
,
0000
0010
0000
0010
0000
0010
0100
0000
,
1100
0000
0110
0000
0011
0000
0001
0010
,
0000
0010
0000
0010
0000
0010
0100
0000
,
1100
0000
0110
0000
1010
0000
1000
0010
,
0000
0010
0000
0010
0000
0010
0100
0000
,
0110
0000
1001
0000
0011
0000
0001
0010
,
0000
0010
0000
0010
0000
0010
0100
0000
,
1001
0000
0000
0000
;

//---------------dance-single - ----------------
#NOTES:
     dance-single:
     :
     Beginner:
     1:
     0.146,0.163,0.041,0.000,0.000,96.000,4.000,0.000,0.000,0.000,0.000,0.146,0.163,0.041,0.000,0.000,96.000,4.000,0.000,0.000,0.000,0.000: // measure 1
0000
0000
0000
0000
,  // measure 2
0000
0000
0000
0000
,  // measure 3
0000
0000
0000
0000
,  // measure 4
0000
0000
0000
0000
,  // measure 5
0000
0000
0000
0000
,  // measure 6
0000
0000
0000
0000
,  // measure 7
0000
0000
0000
0000
,  // measure 8
0000
0000
0000
0000
,  // measure 9
1000
1000
1000
0000
,  // measure 10
1000
0000
0100
0000
,  // measure 11
0010
0010
0010
0000
,  // measure 12
0001
0000
0001
0000
,  // measure 13
0100
0100
0100
0000
,  // measure 14
0010
0000
0010
0000
,  // measure 15
0010
0010
0010
0000
,  // measure 16
0100
0000
0000
0000
,  // measure 17
0100
0100
0100
0000
,  // measure 18
0010
0000
0010
0000
,  // measure 19
1000
1000
1000
0000
,  // measure 20
0100
0000
0100
0000
,  // measure 21
0010
0010
0010
0000
,  // measure 22
0001
0000
0001
0000
,  // measure 23
0100
0100
0100
0000
,  // measure 24
0010
0000
0010
0000
,  // measure 25
0001
0000
0000
0000
,  // measure 26
1000
0000
0000
0000
,  // measure 27
0001
0000
0000
0000
,  // measure 28
1000
0000
0000
0000
,  // measure 29
0010
0000
0000
0000
,  // measure 30
0100
0000
0000
0000
,  // measure 31
0010
0000
0000
0000
,  // measure 32
0100
0000
0000
0000
,  // measure 33
0001
0000
0000
0000
,  // measure 34
1000
0000
0000
0000
,  // measure 35
0010
0000
0000
0000
,  // measure 36
0100
0000
0000
0000
,  // measure 37
0010
0000
0000
0000
,  // measure 38
0100
0000
0000
0000
,  // measure 39
1000
0000
0000
0000
,  // measure 40
0100
0000
0000
0000
,  // measure 41
0010
0000
0000
0000
,  // measure 42
0100
0000
0000
0000
,  // measure 43
0010
0000
0000
0000
,  // measure 44
0001
0000
0000
0000
,  // measure 45
0100
0000
0000
0000
,  // measure 46
0010
0000
0000
0000
,  // measure 47
0100
0000
0000
0000
,  // measure 48
0010
0000
0000
0000
,  // measure 49
1001
0000
0000
0000
,  // measure 50
0010
0000
0010
0000
,  // measure 51
1001
0000
0000
0000
,  // measure 52
0100
0000
0100
0000
,  // measure 53
1001
0000
0000
0000
,  // measure 54
0100
0000
0100
0000
,  // measure 55
1001
0000
0000
0000
,  // measure 56
1000
0000
1000
0000
,  // measure 57
0010
0010
0010
0000
,  // measure 58
0100
0000
0100
0000
,  // measure 59
1000
1000
1000
0000
,  // measure 60
1000
0000
1000
0000
,  // measure 61
0001
0001
0001
0000
,  // measure 62
0001
0000
0001
0000
,  // measure 63
0100
0100
0100
0000
,  // measure 64
0100
0000
0010
0000
,  // measure 65
0100
0000
0000
0000
;
