#TITLE:Maria;
#SUBTITLE:;
#ARTIST:Speedmaster feat. Angelica;
#TITLETRANSLIT:;
#SUBTITLETRANSLIT:;
#ARTISTTRANSLIT:;
#GENRE:;
#CREDIT:;
#BANNER:Maria.png;
#BACKGROUND:Maria-bg.png;
#LYRICSPATH:;
#CDTITLE:.\CDTITLES\DDRMAX6.PNG;
#MUSIC:Maria.ogg;
#OFFSET:-0.040;
#SAMPLESTART:49.220;
#SAMPLELENGTH:15.000;
#SELECTABLE:YES;
#DISPLAYBPM:160.000;
#BPMS:0.000=160.000,52.000=159.000,60.000=160.000,68.000=158.000,72.000=160.000,96.000=158.000,100.000=160.000,116.000=158.000,120.000=160.000,144.000=157.000,148.000=160.000,176.000=158.000,180.000=160.000,196.000=158.000,200.000=160.000,224.000=159.000;
#STOPS:;
#BGCHANGES:;
#KEYSOUNDS:;

//---------------dance-single - ----------------
#NOTES:
     dance-single:
     :
     Easy:
     5:
     0.347,0.388,0.273,0.000,0.000,189.000,24.000,0.000,0.000,0.000,0.000,0.347,0.388,0.273,0.000,0.000,189.000,24.000,0.000,0.000,0.000,0.000:
0000
0000
0000
0000
,
0000
0000
0000
0000
,
0000
0000
0000
0000
,
0000
0000
0000
0000
,
0000
0000
0000
0000
,
0000
0000
0000
0000
,
0000
0000
0000
0000
,
0000
0000
0000
0000
,
0000
0000
0000
0000
,
0010
1000
0001
1000
,
0010
1000
0001
1000
,
0010
1000
0001
1000
,
0010
1000
0001
1001
,
0001
1000
0010
1000
,
0001
1000
0010
1000
,
0001
1000
0010
1000
,
1001
0000
0000
0000
,
0010
1000
0010
1000
,
1000
0100
0010
0010
,
0100
0001
0100
1000
,
0010
1000
0100
0010
,
1100
0100
0001
0010
,
0110
0001
1001
0110
,
1100
0100
0010
0100
,
1000
0100
1000
0010
,
1001
0001
0100
0001
,
0101
0100
0001
0100
,
1000
1000
1000
1000
,
0010
0010
0010
0010
,
0110
0100
0010
0100
,
0101
0001
0100
0001
,
1000
1000
1000
1000
,
0010
0010
0010
0010
,
1000
0100
0010
0001
,
1000
0100
0010
0001
,
1000
0100
0010
0001
,
1001
0010
0110
0100
,
1000
1000
0100
0100
,
0010
0010
0001
0001
,
0100
0100
0010
0010
,
1001
0001
0110
1000
,
1000
0100
0010
0001
,
1000
0100
0010
0001
,
1000
0100
0010
0001
,
1001
0001
0110
0100
,
1000
1000
0100
0100
,
0010
0010
0001
0001
,
1000
1000
0100
0100
,
0110
0010
1001
0001
,
1000
0100
1000
0010
,
1000
0100
1000
0010
,
1000
0100
1000
0010
,
1100
0100
1010
0010
,
0001
0010
0001
0100
,
0001
0010
0001
0100
,
0001
0010
0001
0100
,
0101
0100
0110
1001
;

//---------------dance-single - ----------------
#NOTES:
     dance-single:
     :
     Medium:
     6:
     0.389,0.453,0.422,0.023,0.000,200.000,37.000,2.000,0.000,0.000,0.000,0.389,0.453,0.422,0.023,0.000,200.000,37.000,2.000,0.000,0.000,0.000:
0000
0000
0000
0000
,
0000
0000
0000
0000
,
0000
0000
0000
0000
,
0000
0000
0000
0000
,
0000
0000
0000
0000
,
0000
0000
0000
0000
,
0000
0000
0000
0000
,
0000
0000
0000
0000
,
0000
0000
0000
0000
,
0010
0001
0010
0001
,
1000
0100
1000
0100
,
0010
0100
0010
0100
,
1100
0110
0011
0101
,
1000
0100
1000
0100
,
0010
0100
0010
0100
,
0001
0010
0001
0010
,
0110
1100
0110
0011
,
0100
0000
0010
0000
1000
0100
0010
0000
,
0001
0000
0010
0000
0100
1000
0100
0000
,
0010
0000
1000
0000
0100
0010
0001
0000
,
0100
0000
0010
0000
1000
0001
1000
0000
,
0110
0100
0010
0100
,
1000
0100
1000
0100
,
0011
0010
0001
0010
,
1100
0110
0110
0110
,
0011
0000
0010
0100
1000
0000
0100
0000
,
0010
0000
0001
0010
0100
0000
1000
0000
,
0100
0010
0002
0000
1000
0000
1003
0000
,
0100
0010
0010
1000
,
1001
0100
0100
0010
,
1010
0010
0010
0010
,
0100
0010
2000
0000
0001
0000
3010
0000
,
0100
1000
0100
0010
,
0001
0010
0100
1000
,
0001
0010
0100
1000
,
0001
0010
0100
1000
,
1010
0011
0110
1001
,
0010
0010
0100
0100
,
1000
1000
0100
0100
,
0010
0010
0001
0001
,
1000
0001
1000
0010
,
0001
0010
0100
1000
,
0001
0010
0100
1000
,
0001
0010
0100
1000
,
1100
0110
0011
1001
,
0010
0010
0001
0001
,
1000
1000
0100
0100
,
0010
0010
0100
0100
,
0101
0011
0110
1100
,
0010
0001
0010
0001
,
0010
0001
0010
0001
,
0010
0001
0010
0001
,
1010
0110
0011
0110
,
1000
0100
1000
0100
,
1000
0100
1000
0100
,
0010
0001
1000
0010
,
1010
0011
0110
1001
;

//---------------dance-single - ----------------
#NOTES:
     dance-single:
     :
     Hard:
     9:
     0.594,0.517,0.342,0.023,0.000,333.000,30.000,2.000,0.000,0.000,0.000,0.594,0.517,0.342,0.023,0.000,333.000,30.000,2.000,0.000,0.000,0.000:
0000
0000
0000
0000
,
0000
0000
0000
0000
,
0000
0000
0000
0000
,
0000
0000
0000
0000
,
0000
0000
0000
0000
,
0000
0000
0000
0000
,
0000
0000
0000
0000
,
0000
0000
0000
0000
,
0000
0000
0000
0000
,
1000
0100
1000
0100
1000
0100
1000
0100
,
0010
0100
0010
0100
0010
0100
0010
0100
,
0001
0100
0001
0100
0001
0100
0001
0100
,
0101
1010
0110
0011
,
0010
0100
0010
0100
0010
0100
0010
0100
,
1000
0100
1000
0100
1000
0100
1000
0100
,
0010
0100
0010
0100
0010
0100
0010
0100
,
0010
0001
1000
0001
1000
0010
1000
0001
,
0100
0000
0100
0000
1000
0100
0000
0010
,
0000
1000
0100
0010
0001
1000
0100
1000
,
0010
1010
0000
0100
0000
0010
0100
0001
,
0100
0010
0000
0110
0000
1000
0100
0010
,
0001
0000
0010
0100
1000
0010
1000
0100
,
0010
0000
0100
0000
1000
0001
1000
0010
,
1000
0100
1000
0100
1000
0100
1000
0100
,
0010
0001
0100
0001
0100
0010
0100
0001
,
1000
1100
0010
0011
,
0010
0100
1000
0100
0000
0010
1000
0001
,
1000
0100
0002
0000
1000
0000
1003
0000
,
0100
0010
0100
0010
0100
0010
0100
0010
,
0100
0110
1000
1100
,
0001
0010
0001
0100
0010
1000
0010
0100
,
0001
1000
0020
0000
0100
0000
0130
0000
,
0001
1000
0010
1000
0100
1000
0010
0000
,
0100
0010
0100
0010
0100
0010
0100
0010
,
0001
0010
0001
0010
0001
0010
0001
0010
,
1000
0100
1000
0100
1000
0100
1000
0100
,
0110
0011
0110
1010
,
0100
0010
0100
0010
0100
0010
0100
0010
,
0001
0010
0001
0010
0001
0010
0001
0010
,
1000
0100
1000
0100
1000
0100
1000
0100
,
0010
0001
0010
0001
0010
0001
0010
0100
,
0001
0100
0001
0100
0001
0100
0001
0100
,
1000
0010
1000
0010
1000
0010
1000
0010
,
0100
0010
0100
0010
0100
0010
0100
0010
,
0110
0011
0110
1100
,
0010
0001
0010
0001
0010
0001
0010
0001
,
0100
0010
0100
0010
0100
0010
0100
0010
,
1000
0100
1000
0100
1000
0100
1000
0100
,
0110
0011
0110
1010
,
0010
1000
0010
1000
0010
1000
0010
1000
,
0010
0001
0010
0001
0010
0001
0010
0001
,
0100
0010
0100
0010
0100
0010
0100
0010
,
1010
0011
0110
1010
,
0100
0010
0100
0010
0100
0010
0100
0010
,
0001
0010
0001
0010
0001
0010
0001
0010
,
1000
0010
1000
0010
1000
0010
1000
0010
,
0110
0011
0110
1010
;

//---------------dance-single - ----------------
#NOTES:
     dance-single:
     :
     Beginner:
     1:
     0.156,0.194,0.000,0.000,0.000,96.000,0.000,0.000,0.000,0.000,0.000,0.156,0.194,0.000,0.000,0.000,96.000,0.000,0.000,0.000,0.000,0.000: // measure 1
0000
0000
0000
0000
,  // measure 2
0000
0000
0000
0000
,  // measure 3
0000
0000
0000
0000
,  // measure 4
0000
0000
0000
0000
,  // measure 5
0000
0000
0000
0000
,  // measure 6
0000
0000
0000
0000
,  // measure 7
0000
0000
0000
0000
,  // measure 8
0000
0000
0000
0000
,  // measure 9
0000
0000
0000
0000
,  // measure 10
1000
0000
1000
0000
,  // measure 11
0001
0000
0001
0000
,  // measure 12
0010
0000
0010
0000
,  // measure 13
0100
0100
0100
0100
,  // measure 14
0100
0000
0010
0000
,  // measure 15
0100
0000
0010
0000
,  // measure 16
0100
0000
0000
0000
,  // measure 17
0010
0010
0010
0010
,  // measure 18
0010
0000
0010
0000
,  // measure 19
0100
0000
0000
0000
,  // measure 20
0100
0000
0100
0000
,  // measure 21
0010
0000
0010
0000
,  // measure 22
0100
0000
0000
0000
,  // measure 23
0010
0010
0010
0000
,  // measure 24
0100
0000
0000
0000
,  // measure 25
0010
0000
0000
0000
,  // measure 26
1000
0000
0000
0100
,  // measure 27
0100
0000
0010
0000
,  // measure 28
0001
0001
0000
0000
,  // measure 29
0010
0010
0000
0000
,  // measure 30
0100
0000
0000
0000
,  // measure 31
1000
0000
0100
0000
,  // measure 32
0010
0010
0000
0000
,  // measure 33
0100
0100
0000
0000
,  // measure 34
0010
0010
0010
0000
,  // measure 35
0100
0100
0100
0000
,  // measure 36
0010
0010
0010
0000
,  // measure 37
0100
0100
0100
0100
,  // measure 38
0100
0000
0010
0000
,  // measure 39
0100
0000
1000
0000
,  // measure 40
0100
0000
0000
0000
,  // measure 41
0010
0000
0000
0010
,  // measure 42
0010
0000
0010
0000
,  // measure 43
0100
0000
0100
0000
,  // measure 44
0001
0000
0001
0000
,  // measure 45
0010
0010
0010
0010
,  // measure 46
0010
0000
0100
0000
,  // measure 47
1000
0000
0010
0000
,  // measure 48
0100
0000
0000
0000
,  // measure 49
0010
0010
0010
0010
,  // measure 50
0010
0000
0000
0000
,  // measure 51
0000
0000
0000
0000
,  // measure 52
0000
0000
0000
0000
,  // measure 53
0010
0010
0010
0010
,  // measure 54
0010
0000
0000
0000
,  // measure 55
0000
0000
0000
0000
,  // measure 56
0000
0000
0000
0000
,  // measure 57
0100
0100
0100
0100
;
