#TITLE:ルカルカ★ナイトフィーバー (English Side);
#SUBTITLE:;
#ARTIST:JubyPhonic feat. 巡音ルカ;
#TITLETRANSLIT:Luka Luka★Night Fever (English Side);
#SUBTITLETRANSLIT:;
#ARTISTTRANSLIT:JubyPhonic feat. Megurine Luka;
#GENRE:;
#CREDIT:;
#BANNER:Luka Luka Night Fever.png;
#BACKGROUND:Luka Luka Night Fever-bg.png;
#LYRICSPATH:;
#CDTITLE:.\CDTITLES\DDRMAX6.PNG;
#MUSIC:Luka Luka Night Fever (English Side).ogg;
#OFFSET:1.280;
#SAMPLESTART:49.660;
#SAMPLELENGTH:15.000;
#SELECTABLE:YES;
#DISPLAYBPM:160.000;
#BPMS:0.000=160.000;
#STOPS:;
#BGCHANGES:;
#KEYSOUNDS:;

//---------------dance-single - ----------------
#NOTES:
     dance-single:
     :
     Easy:
     3:
     0.240,0.286,0.096,0.000,0.000,148.000,9.000,0.000,0.000,0.000,0.000,0.240,0.286,0.096,0.000,0.000,148.000,9.000,0.000,0.000,0.000,0.000:
0000
0000
0000
0000
,
0000
0000
0000
0000
,
1000
0000
1000
0000
,
0010
0000
0010
0000
,
0100
0000
0100
0000
,
0001
0000
0001
0000
,
0010
0000
0010
0000
,
0100
0000
0100
0000
,
0010
0000
0010
0000
,
0100
0000
0100
0100
,
0010
0000
0010
0000
,
0100
1000
0001
0000
,
0010
0000
0010
0000
,
0100
1000
0010
0000
,
0010
0000
0010
0000
,
0100
0001
1000
0000
,
0010
1000
0100
0010
,
0001
1001
0010
0100
,
0010
0000
0010
0000
,
1000
0100
1000
0000
,
0010
0000
0010
0000
,
0001
0100
0001
0000
,
0010
0000
0010
0000
,
0100
1000
0001
0000
,
1000
0100
0010
0001
,
1000
1001
0000
0010
,
0100
0010
1000
0100
,
1000
0010
1000
0100
,
0110
0000
1001
0000
,
0110
0010
0100
0010
,
1000
0000
1000
0000
,
0100
0000
0100
0000
,
0110
0000
1001
0000
,
0001
0100
0010
0000
,
0100
0100
0010
0000
,
0001
0001
1000
0000
,
0010
0010
0100
0000
,
1000
0010
1000
0100
,
0010
0000
0001
0000
,
0010
0000
0100
0000
,
1000
0000
0010
0000
,
0100
0000
0000
0000
,
0010
0010
0001
0000
,
0001
0001
0100
0000
,
0010
1000
0001
0000
,
0100
0010
0100
1000
,
0001
0000
0010
0000
,
0100
0000
1000
0000
,
0010
0000
0100
0000
,
0010
0010
0010
0000
,
0100
0000
1000
0000
,
1000
0000
0100
0000
,
0010
0000
0001
0000
,
0100
0000
0100
0000
,
0010
0000
1000
0000
,
0001
0000
0001
0000
,
0110
0000
1000
0000
,
1001
0000
0010
0010
,
0100
0000
0000
0000
,
1000
0010
0100
0000
;

//---------------dance-single - ----------------
#NOTES:
     dance-single:
     :
     Medium:
     5:
     0.359,0.350,0.320,0.000,0.000,205.000,30.000,0.000,0.000,0.000,0.000,0.359,0.350,0.320,0.000,0.000,205.000,30.000,0.000,0.000,0.000,0.000:
0000
0000
0000
0000
,
0000
0000
0000
0000
,
1000
0100
0011
0000
,
0001
0100
0010
0100
,
1000
0010
1010
0000
,
0100
0010
0101
0011
,
0100
1000
1010
0000
,
0100
0010
0100
1000
,
0100
0001
0011
0000
,
0010
0100
0110
1001
,
0100
0010
0110
0000
,
1001
0101
0011
0000
,
0010
0100
0010
0000
,
1010
0110
0011
0000
,
0010
0100
0010
0000
,
0110
0011
1001
0000
,
0100
0000
0010
0000
1000
0000
0001
1000
,
0000
0010
0100
0000
0010
0000
0010
0000
,
0100
0010
0011
0000
,
0010
0100
0010
0000
,
0010
0001
1100
0000
,
0010
0100
0010
0000
,
1000
0100
0011
0000
,
0010
0100
0010
1000
,
0011
0000
1100
0000
0010
0000
0100
0001
,
0000
0010
0100
0000
0010
0000
1000
0000
,
0100
0100
0110
0010
,
0001
0000
0001
0000
0011
0000
0100
1000
,
0000
0010
0100
0000
0010
0000
0010
0000
,
1000
0000
0100
0000
0010
0000
1000
0001
,
0000
0010
1000
0100
,
0010
0001
0100
0010
,
1001
0000
0011
0000
,
0100
0010
0100
0000
,
0010
0100
0010
0100
,
0001
0100
0100
0000
,
0010
0100
0010
0100
,
1000
0010
0001
0000
,
0000
0010
0100
1000
,
0100
0010
0001
0000
,
0010
0100
0010
1000
,
0100
0010
1001
0110
,
0001
0001
0100
0100
,
0010
1000
0001
0000
,
0010
0010
0100
0100
,
0001
1000
0010
0000
,
0000
0010
0100
1000
,
0010
0100
1001
0000
,
0010
0100
0010
1000
,
0001
0000
1000
0001
0010
0000
0000
0000
,
0100
0100
0010
0010
,
1000
1000
0001
0100
,
0010
0010
1000
1000
,
0100
0100
0010
0001
,
1000
0100
1000
0100
,
0010
0100
0010
0100
,
0001
0100
0001
0100
,
0010
1000
0001
0100
,
0000
0000
0000
0000
,
0010
0000
0100
0001
1000
0000
0000
0000
;

//---------------dance-single - ----------------
#NOTES:
     dance-single:
     :
     Hard:
     7:
     0.459,0.445,0.342,0.000,0.000,269.000,32.000,0.000,0.000,0.000,0.000,0.459,0.445,0.342,0.000,0.000,269.000,32.000,0.000,0.000,0.000,0.000:
0000
0000
0000
0000
,
0000
0000
0000
0000
,
1000
0010
1000
0010
,
1000
0010
1000
0100
,
0010
0001
0010
0001
,
0010
0001
0101
0110
,
1000
0100
1000
0100
,
1000
0100
1000
0010
,
0001
0100
0001
0100
,
0001
0100
0110
1001
,
0000
0001
0100
0001
0010
1000
0000
0100
,
0010
0001
0100
0000
0010
0000
0000
0000
,
0000
0100
0010
0100
1000
0001
0000
0100
,
0010
1000
0001
0000
0100
0000
0000
0000
,
0000
0010
1000
0010
0100
0010
0000
0100
,
0010
0100
0001
0000
0010
0000
0100
1000
,
0010
0000
0100
0000
1000
0000
0010
0010
,
0000
0100
0100
0000
1001
0000
0110
0000
,
0000
0010
0100
0010
1000
0001
0000
0100
,
0010
0100
0001
0000
0010
0000
0000
0000
,
0000
0010
0100
0010
1000
0001
0000
0100
,
0010
0100
1000
0000
0100
0000
0000
0000
,
0000
0010
0100
0010
0001
1000
0000
0010
,
0100
0001
1000
0000
0010
0000
0100
0001
,
0010
0000
0100
0000
1000
0000
0010
0100
,
0000
1000
1001
0000
0000
0000
0100
0001
,
0100
0000
1000
0000
0100
0000
0010
0100
,
0100
0000
0010
0000
1000
0000
0001
1000
,
0000
0010
0100
0000
0010
1000
0001
0000
,
0010
0100
0010
1000
0001
0100
0010
1000
,
0000
0000
0100
0000
0010
0000
0001
1000
,
0000
0100
0010
0000
1000
0000
0010
0001
,
1001
0000
0000
0010
0110
0000
0000
1000
,
0000
0010
0100
0001
1000
0000
0000
0000
,
0011
0100
1000
0010
,
1010
0110
0011
0000
,
0011
0100
1000
0010
,
1000
0100
1000
0100
0010
0100
0010
0100
,
0000
0001
1000
0001
1000
0010
0000
0100
,
0010
0100
0001
0000
0010
0000
0000
0000
,
1100
0000
0110
0000
0011
0000
0010
0100
,
0000
1000
0000
0010
0110
0000
1001
0000
,
0011
0100
1000
0100
,
1010
0110
0011
0000
,
0110
0001
1000
0100
,
0100
0010
0100
0010
1000
0010
0100
0001
,
0000
0010
0100
0010
0100
0010
0000
1000
,
0010
1000
0010
0000
0100
0000
0010
0000
,
0101
0000
1010
0000
0110
0000
1000
0010
,
0000
0100
0001
1000
0010
0000
0000
0000
,
0100
0010
0100
0010
,
0100
0010
0100
0010
,
0001
1000
0001
1000
,
0001
1000
1010
0011
,
0010
0100
0010
0100
,
0010
0100
0010
0100
,
1000
0100
1000
0100
,
1000
0100
1010
0110
,
0011
0000
0000
0000
0000
0000
0000
0001
,
0000
0010
0100
0010
0100
0000
0000
0000
;

//---------------dance-single - ----------------
#NOTES:
     dance-single:
     :
     Beginner:
     1:
     0.119,0.127,0.000,0.000,0.000,78.000,0.000,0.000,0.000,0.000,0.000,0.119,0.127,0.000,0.000,0.000,78.000,0.000,0.000,0.000,0.000,0.000:
0000
0000
0000
0000
,
0000
0000
0000
0000
,
1000
0000
0000
0000
,
0100
0000
0000
0000
,
0010
0000
0000
0000
,
0001
0000
0000
0000
,
1000
0000
0000
0000
,
0010
0000
0000
0000
,
0100
0000
0000
0000
,
0001
0000
0000
0000
,
0010
0000
0010
0000
,
0100
0000
0100
0000
,
0010
0000
0010
0000
,
0100
0000
0100
0000
,
1000
0000
1000
0000
,
0100
0000
0100
0000
,
0001
0000
0001
0000
,
0010
0000
0000
0000
,
1000
0000
1000
0000
,
0010
0000
0010
0000
,
0100
0000
0100
0000
,
0001
0000
0001
0000
,
0010
0000
0010
0000
,
0100
0000
0100
0000
,
1000
0000
0001
0000
,
0010
0000
0000
0000
,
0100
0000
0000
0000
,
0100
0000
0000
0000
,
0010
0000
0000
0000
,
0000
0000
0000
0000
,
0010
0000
0000
0000
,
0010
0000
0000
0000
,
0001
0000
1000
0000
,
0010
0000
0100
0000
,
0010
0000
0010
0000
,
0010
0000
0001
0000
,
0100
0000
0100
0000
,
0010
0000
0010
0000
,
0100
0000
0000
0000
,
0000
0000
0000
0000
,
0010
0000
0000
0000
,
0000
0000
0000
0000
,
0001
0000
0001
0000
,
0010
0000
0010
0000
,
0100
0000
0100
0000
,
1000
0000
1000
0000
,
0010
0000
0000
0000
,
0000
0000
0000
0000
,
0100
0000
0000
0000
,
0000
0000
0000
0000
,
0010
0000
0000
0000
,
0100
0000
0000
0000
,
0001
0000
0000
0000
,
1000
0000
0000
0000
,
0010
0000
0000
0000
,
0100
0000
0000
0000
,
0010
0000
0000
0000
,
0100
0000
0000
0000
,
0010
0000
0000
0000
,
0100
0000
0010
0000
;

//---------------dance-single - ----------------
#NOTES:
     dance-single:
     :
     Challenge:
     9:
     0.583,0.540,0.214,0.235,0.000,340.000,20.000,22.000,0.000,0.000,0.000,0.583,0.540,0.214,0.235,0.000,340.000,20.000,22.000,0.000,0.000,0.000: // measure 1
0000
0000
0000
0000
,  // measure 2
0000
0000
0000
0000
,  // measure 3
1000
0100
1000
0100
1000
0100
1000
0100
,  // measure 4
1000
0100
1000
0100
0010
0001
0100
0010
,  // measure 5
0001
0010
0001
0010
0001
0010
0001
0010
,  // measure 6
0001
0010
0001
0010
0110
0000
1001
0000
,  // measure 7
1000
0100
1000
0100
1000
0100
1000
0100
,  // measure 8
1000
0100
1000
0100
1000
0100
1000
0010
,  // measure 9
0100
0010
0100
0010
0100
0010
0100
0010
,  // measure 10
0100
0010
0100
0010
1001
0000
0011
0000
,  // measure 11
0000
0010
0100
1000
0100
0010
0000
0100
,  // measure 12
0010
1000
0001
0000
0010
0000
0000
0000
,  // measure 13
0000
0010
0100
0010
0100
1000
0000
0010
,  // measure 14
0100
0010
0001
0000
0010
0000
0000
0000
,  // measure 15
0000
0100
0010
0100
0010
1000
0000
0100
,  // measure 16
0010
0100
0010
0000
0001
0000
0010
0100
,  // measure 17
1000
0000
0010
0000
0100
0000
0001
1000
,  // measure 18
0000
0010
0100
0000
1010
0000
0011
0000
,  // measure 19
0000
0010
0100
0010
1000
0001
0000
0010
,  // measure 20
0100
1000
0001
0000
0010
0000
0000
0000
,  // measure 21
0000
0100
0010
0100
0010
1000
0000
0100
,  // measure 22
0010
0100
0001
0000
0010
0000
0000
0000
,  // measure 23
0000
0010
0100
0010
0100
1000
0000
0010
,  // measure 24
0100
0010
1000
0000
0001
0000
0010
0100
,  // measure 25
1000
0000
0001
0000
0100
0000
0010
1000
,  // measure 26
0000
0001
0100
0000
1010
0000
0011
0001
,  // measure 27
0100
0010
0100
0010
0100
0000
1000
0001
,  // measure 28
1000
0001
1000
0001
0010
0000
0100
0100
,  // measure 29
0000
0010
1000
0000
0100
0010
0001
0000
,  // measure 30
1000
0100
1000
0100
0010
0001
0010
0100
,  // measure 31
0000
0000
0010
0100
1000
0100
0010
0100
,  // measure 32
0001
0010
0100
1000
0100
1000
0010
0100
,  // measure 33
0001
0000
0010
0100
1000
0000
0010
0100
,  // measure 34
0000
0001
1000
0001
1001
0000
0000
0000
,  // measure 35
2000
3200
0320
0032
,  // measure 36
2003
0000
3200
0000
0320
0000
0130
1000
,  // measure 37
0002
0203
0320
2030
,  // measure 38
3100
0010
0100
0010
0001
1000
0001
1000
,  // measure 39
0000
0100
0010
0100
0010
0100
0000
0010
,  // measure 40
1000
0010
1000
0000
0001
0000
0000
0000
,  // measure 41
0101
0000
1001
0000
1010
0000
0010
1000
,  // measure 42
0000
0001
0000
0100
0110
0000
0011
0000
,  // measure 43
0020
2030
3200
0320
,  // measure 44
0032
0000
2003
0000
3200
0000
0310
0001
,  // measure 45
0020
0230
2300
3020
,  // measure 46
0130
0010
0100
0010
1000
0001
1000
1010
,  // measure 47
0000
0010
0100
0010
0100
1000
0000
0100
,  // measure 48
0010
0100
0001
0000
0010
0000
0000
0000
,  // measure 49
0100
0000
0010
0000
0001
0000
1000
0001
,  // measure 50
0000
0010
0100
0010
0100
0000
0000
0000
,  // measure 51
1000
0100
1000
0100
1000
0100
1000
0100
,  // measure 52
0010
0100
0010
0100
0010
0100
0010
0001
,  // measure 53
0100
0010
0100
0010
0100
0010
0100
0010
,  // measure 54
1000
0010
1000
0010
0110
0000
0011
0000
,  // measure 55
0010
0100
0010
0100
0010
0100
0010
0100
,  // measure 56
1000
0100
1000
0100
1000
0100
1000
0010
,  // measure 57
0100
0010
0100
0010
0100
0010
0100
0001
,  // measure 58
0100
0010
0100
1000
1010
0000
0011
0000
,  // measure 59
1100
0000
0000
0000
0000
0000
0000
0001
,  // measure 60
0000
0100
1000
0001
1000
0000
0000
0000
;
