#TITLE:Koonichi Wa;
#SUBTITLE:;
#ARTIST:Caroline;
#TITLETRANSLIT:;
#SUBTITLETRANSLIT:;
#ARTISTTRANSLIT:;
#GENRE:;
#CREDIT:;
#BANNER:Koonichi Wa.png;
#BACKGROUND:Koonichi Wa-bg.png;
#LYRICSPATH:;
#CDTITLE:.\CDTITLES\DDRMAX6.PNG;
#MUSIC:Koonichi Wa.ogg;
#OFFSET:-0.020;
#SAMPLESTART:24.320;
#SAMPLELENGTH:15.000;
#SELECTABLE:YES;
#DISPLAYBPM:138.000;
#BPMS:0.000=138.000;
#STOPS:;
#BGCHANGES:;
#KEYSOUNDS:;

//---------------dance-single - ----------------
#NOTES:
     dance-single:
     :
     Hard:
     7:
     0.469,0.458,0.258,0.000,0.012,258.000,22.000,0.000,0.000,0.000,0.000,0.469,0.458,0.258,0.000,0.012,258.000,22.000,0.000,0.000,0.000,0.000:
0000
0000
0000
0000
,
0000
0000
0000
0000
,
0000
0000
0000
0000
,
0000
0000
0000
0000
,
0000
0000
0000
0000
,
1000
0010
1000
0010
0100
0010
0100
0000
,
0010
0001
0010
0100
0010
0001
1000
0000
,
0010
1000
0010
0100
0010
0100
0010
0000
,
0001
0010
0001
0010
0001
0010
0100
0000
,
0100
0010
0100
0010
0100
0010
0100
0000
,
1000
0001
1000
0010
1001
0000
0101
0000
,
0001
0010
0100
1000
0010
0100
0010
0000
,
1000
0100
1000
0010
1000
0100
0010
0000
,
0100
0001
0010
0100
1000
0000
0000
0000
,
1001
0000
0001
0000
1001
0000
0000
0001
,
0100
0010
0100
0010
1000
0010
0100
0000
,
0110
0000
0010
0000
0110
0000
0000
0001
,
1000
0010
0100
0010
0011
0000
0000
0000
,
1010
0000
0010
0000
0011
0000
0000
0001
,
0100
0010
0100
0010
1000
0100
0010
0000
,
1010
1000
0110
0000
,
0010
1000
0001
1000
0010
0000
0000
0000
,
0010
0100
0010
0100
0010
0100
0010
0100
,
0001
0100
0001
0100
0001
0100
0001
0100
,
1000
0010
1000
0010
1000
0010
1000
0010
,
0100
0000
0010
0000
0100
0000
0010
0000
0001
1000
0001
0000
0100
0000
0010
0000
,
1000
0100
1000
0100
1000
0100
1000
0010
,
0100
0010
0100
0010
0100
0010
0001
0010
,
0100
0010
0100
0010
0100
0010
1000
0010
,
0100
0000
0001
0000
0010
0000
0100
0000
1000
0001
1000
0000
0010
0000
0000
0000
,
0100
0010
0100
0010
0100
0001
0100
0000
,
1000
0010
1000
0010
0100
0010
0001
0000
,
0010
1000
0010
1000
0010
1000
0100
0000
,
0001
0010
0100
0010
0001
0010
0100
0000
,
1000
0010
1000
0010
0100
0010
0001
0000
,
0010
0100
0010
0100
0010
0100
1000
0000
,
0001
0010
0001
0010
0100
1000
1001
0000
,
0010
0100
0010
0100
0110
0000
0000
0000
,
1100
0000
0100
0000
0011
0000
0000
0010
,
0100
1000
0010
0100
0010
0001
0010
0000
,
0110
0000
0001
0000
0101
0000
0000
0010
,
1000
0001
1000
0010
0100
0000
0000
0000
,
1010
0000
0010
0000
0011
0000
0000
0010
,
0100
1000
0010
0100
0001
0010
0100
0000
,
1100
0010
0101
0000
,
0001
1000
0001
1000
0001
0000
0000
0000
,
1001
0000
0000
0000
;

//---------------dance-single - ----------------
#NOTES:
     dance-single:
     :
     Medium:
     5:
     0.335,0.350,0.387,0.082,0.000,160.000,33.000,7.000,0.000,0.000,0.000,0.335,0.350,0.387,0.082,0.000,160.000,33.000,7.000,0.000,0.000,0.000:
0000
0000
0000
0000
,
0000
0000
0000
0000
,
0000
0000
0000
0000
,
0000
0000
0000
0000
,
0000
0000
0000
0000
,
1000
1000
1000
1000
,
0010
0100
0010
0010
,
0100
0010
0001
0001
,
0100
0010
0100
0100
,
1000
0010
0100
0011
,
0100
0010
1010
1010
,
0100
0010
0011
0011
,
0010
0100
0110
0110
,
1001
0110
1001
0000
,
2000
0010
3001
0000
,
0100
0000
0001
0000
1000
0010
1000
0000
,
0002
0100
1003
0000
,
0010
0010
0110
0000
,
2000
0010
3001
0000
,
0100
0000
0001
0000
1000
0001
1000
0000
,
0002
0100
1003
0000
,
1010
0110
0011
0000
,
0001
0001
0001
0010
,
1000
0000
1000
0000
1000
0000
0100
0010
,
0100
0100
0100
1000
,
0001
0000
0100
0000
0001
1000
0001
1000
,
0001
0001
0001
0100
,
0010
0010
1000
0100
,
0010
0010
0010
0100
,
0001
0000
1000
0000
0010
0001
1000
0000
,
0100
0100
0100
0010
,
0001
1000
1010
0101
,
0001
0001
0001
0010
,
0100
1000
1010
0110
,
0001
0010
1001
0110
,
1000
0000
0100
0000
0001
0100
1000
0000
,
1001
0000
0011
0000
0100
0010
0100
0000
,
1001
0110
0011
0000
,
2000
0010
3010
0000
,
0100
0000
0001
0000
1000
0001
1000
0000
,
0002
0100
0103
0000
,
1001
0011
0011
0000
,
2000
0100
3010
0000
,
0001
1000
0110
0011
,
0100
1000
1001
0000
,
0100
0010
0110
0000
,
1001
0000
0000
0000
;

//---------------dance-single - ----------------
#NOTES:
     dance-single:
     :
     Easy:
     4:
     0.278,0.269,0.152,0.000,0.000,153.000,13.000,0.000,0.000,0.000,0.000,0.278,0.269,0.152,0.000,0.000,153.000,13.000,0.000,0.000,0.000,0.000:
0000
0000
0000
0000
,
0000
0000
0000
0000
,
0000
0000
0000
0000
,
0000
0000
0000
0000
,
0000
0000
0000
0000
,
1000
1000
1000
1000
,
0001
0001
0001
0001
,
0001
0001
0010
0100
,
1000
1000
1000
1000
,
1000
1000
0010
0100
,
0001
0001
0001
0001
,
0010
0100
1000
0001
,
1000
1000
1000
1000
,
0010
0000
1000
0001
1000
0000
0000
0000
,
0010
0100
0110
0000
,
1000
0010
1000
0010
,
0100
0010
0011
0000
,
0100
0010
0110
0000
,
1000
0001
1000
0000
,
0010
0100
0110
0110
,
0001
1000
0001
0000
,
1000
0001
0010
0000
,
1000
1000
1000
1000
,
1000
1000
1000
0010
,
0100
0100
0100
0100
,
0001
0001
0010
0010
,
0100
0100
0100
0100
,
0001
0001
0001
1000
,
0010
0010
0010
0010
,
0100
0001
1000
1001
,
0010
0100
0010
0100
,
0010
0100
0010
0100
,
0001
1000
0001
1000
,
0010
0100
1001
1001
,
0010
1000
0010
1000
,
0010
0001
0010
0001
,
0100
0010
0100
1000
,
0010
0000
1000
0100
0001
0000
0000
0000
,
0010
0100
0110
0000
,
0001
1000
0010
0010
,
1000
0100
1000
0000
,
0010
0100
0010
0000
,
0001
0010
0011
0000
,
0100
0010
0100
0010
,
1000
0010
0110
0000
,
1000
0010
0110
0000
,
1001
0000
0000
0000
;

//---------------dance-single - ----------------
#NOTES:
     dance-single:
     :
     Beginner:
     1:
     0.114,0.108,0.012,0.000,0.000,67.000,1.000,0.000,0.000,0.000,0.000,0.114,0.108,0.012,0.000,0.000,67.000,1.000,0.000,0.000,0.000,0.000: // measure 1
0000
0000
0000
0000
,  // measure 2
0000
0000
0000
0000
,  // measure 3
0000
0000
0000
0000
,  // measure 4
0000
0000
0000
0000
,  // measure 5
0000
0000
0000
0000
,  // measure 6
1000
0000
0000
0000
,  // measure 7
0001
0000
0001
0000
,  // measure 8
0100
0000
0100
0000
,  // measure 9
0010
0000
0010
0000
,  // measure 10
0100
0000
0100
0000
,  // measure 11
1000
0000
0010
0000
,  // measure 12
0100
0000
0010
0000
,  // measure 13
0001
0000
0010
0000
,  // measure 14
0001
0000
0100
0000
,  // measure 15
0010
0000
0000
0000
,  // measure 16
0010
0000
0000
0000
,  // measure 17
0100
0000
0000
0000
,  // measure 18
0000
0000
0000
0000
,  // measure 19
1000
0000
0000
0000
,  // measure 20
1000
0000
0000
0000
,  // measure 21
0001
0000
0000
0000
,  // measure 22
0000
0000
0000
0000
,  // measure 23
0100
0000
0100
0000
,  // measure 24
0001
0000
0001
0000
,  // measure 25
1000
0000
1000
0000
,  // measure 26
0010
0000
0010
0000
,  // measure 27
0100
0000
0100
0000
,  // measure 28
0010
0000
0010
0000
,  // measure 29
1000
0000
1000
0000
,  // measure 30
0001
0000
0001
0000
,  // measure 31
0100
0000
0010
0000
,  // measure 32
0100
0000
0010
0000
,  // measure 33
0001
0000
1000
0000
,  // measure 34
0001
0000
1000
0000
,  // measure 35
0010
0000
0000
0000
,  // measure 36
0001
0000
0000
0000
,  // measure 37
0100
0000
0000
0000
,  // measure 38
0000
0000
0000
0000
,  // measure 39
0010
0000
0010
0000
,  // measure 40
0001
0000
0001
0000
,  // measure 41
0100
0000
0100
0000
,  // measure 42
0010
0000
0010
0000
,  // measure 43
1000
0000
1000
0000
,  // measure 44
0010
0000
0010
0000
,  // measure 45
0100
0000
0100
0000
,  // measure 46
0001
0000
1000
0000
,  // measure 47
1001
0000
0000
0000
;
