#TITLE:Keep It Up;
#SUBTITLE:;
#ARTIST:J&R Project;
#TITLETRANSLIT:;
#SUBTITLETRANSLIT:;
#ARTISTTRANSLIT:;
#GENRE:;
#CREDIT:;
#BANNER:Keep It Up.png;
#BACKGROUND:Keep It Up-bg.png;
#LYRICSPATH:;
#CDTITLE:.\CDTITLES\DDRMAX6.PNG;
#MUSIC:Keep It Up.ogg;
#OFFSET:-0.040;
#SAMPLESTART:51.800;
#SAMPLELENGTH:15.000;
#SELECTABLE:YES;
#DISPLAYBPM:138.000;
#BPMS:0.000=139.000;
#STOPS:;
#BGCHANGES:;
#KEYSOUNDS:;

//---------------dance-single - ----------------
#NOTES:
     dance-single:
     :
     Hard:
     7:
     0.503,0.452,0.289,0.000,0.000,279.000,25.000,0.000,0.000,0.000,0.000,0.503,0.452,0.289,0.000,0.000,279.000,25.000,0.000,0.000,0.000,0.000:
0000
0000
0000
0000
,
0000
0000
0000
0000
,
0000
0000
0000
0000
,
0000
0000
0000
0000
,
0000
0000
0000
0000
,
1001
0000
0000
0000
,
0010
0001
0100
0100
0010
1000
0100
0100
,
0010
0001
0100
0100
0010
1000
0100
0100
,
0010
0001
0100
0100
0010
0100
1000
1000
,
0010
0100
0001
0001
0100
0010
0100
0010
,
1000
0100
0001
0001
0010
0100
1000
1000
,
0010
0100
0001
0001
0010
0100
1000
1000
,
0010
0100
0001
0001
0100
0010
1000
1000
,
0100
0010
0001
0001
0100
0010
1000
0100
,
0010
0001
0100
0100
0010
1000
0100
0100
,
0010
0001
1000
1000
0010
0100
0001
0001
,
0100
0010
1000
1000
0100
0010
0100
0100
,
0001
1000
0010
0010
0100
0001
1000
1000
,
0010
0100
0001
0001
0100
0010
1000
1000
,
0100
0010
0001
0001
0100
0010
1000
1000
,
0100
0010
0001
0001
0100
0010
1000
1000
,
0010
0100
0001
0001
0100
0000
0000
0000
,
1000
1010
0001
0011
,
1000
1010
0001
0011
,
1000
1100
0001
0011
,
1000
1100
0001
0011
,
0100
0110
0001
1001
,
0010
0110
0001
1001
,
0010
0110
0001
1001
,
0010
0110
0001
1001
,
0011
0100
1000
0000
1010
0010
0100
0010
,
1000
0001
0100
0000
1001
0001
0100
0010
,
0100
1000
0010
0000
1010
0010
1000
0100
,
1000
0100
0010
0000
0011
0010
0100
0010
,
1000
0100
0001
0000
0011
0010
0100
0010
,
1000
0100
0010
0000
1010
0010
1000
0010
,
0100
0010
0001
0000
1001
0001
1000
0010
,
1000
0010
0100
0000
0100
0010
0100
0010
,
0100
0100
0001
0001
0100
0100
0010
0010
,
1000
1000
0100
0100
0010
0010
0001
0001
,
1000
1000
0010
0010
0100
0100
0001
0001
,
1000
1000
0010
0010
0100
0100
0001
0001
,
1000
0100
1000
0100
1000
0100
0010
0010
,
0001
0010
0001
0010
0001
0010
0100
0100
,
0010
0100
0010
0100
0010
0100
1000
1000
,
0010
0100
0010
0100
0010
1000
0001
0100
,
0010
0000
0000
0000
;

//---------------dance-single - ----------------
#NOTES:
     dance-single:
     :
     Easy:
     4:
     0.293,0.266,0.266,0.093,0.000,146.000,23.000,8.000,0.000,0.000,0.000,0.293,0.266,0.266,0.093,0.000,146.000,23.000,8.000,0.000,0.000,0.000:
0000
0000
0000
0000
,
0000
0000
0000
0000
,
0000
0000
0000
0000
,
0000
0000
0000
0000
,
0000
0000
0000
0000
,
1001
0000
0000
0000
,
0001
0010
0010
0100
,
1000
0010
0010
0100
,
0001
0010
0010
0100
,
1000
0010
0010
0100
,
0001
0010
0010
0100
,
1000
0010
0010
0100
,
0001
0010
0010
0100
,
1000
0010
0010
0100
,
0001
0001
0001
0001
,
0001
0001
0001
0001
,
1000
1000
1000
1000
,
1000
1000
1000
1000
,
0010
0010
0010
0010
,
0010
0010
0010
0010
,
0100
0100
0100
0100
,
0010
1000
1001
0000
,
0010
0100
0100
0001
,
1000
0010
0010
0100
,
0001
1000
1000
0010
,
0100
0001
0001
0100
,
0010
1000
1000
0100
,
0010
0001
0001
0100
,
0010
1000
1000
0010
,
0100
0001
0001
0100
,
0012
1000
0103
0000
,
1020
0100
0031
0000
,
1002
0100
1003
0000
,
0120
0001
1030
0000
,
1200
0010
0301
0000
,
0102
1000
0103
0000
,
1002
0100
1003
0000
,
1020
0100
0031
0000
,
1001
1000
1001
0000
,
0110
0010
0110
0000
,
1001
0001
1001
0000
,
0110
0010
0110
0000
,
1100
0010
0100
0000
,
0011
0010
0100
0000
,
1100
0010
0100
0000
,
0011
0010
0100
1000
,
1001
0000
0000
0000
;

//---------------dance-single - ----------------
#NOTES:
     dance-single:
     :
     Medium:
     5:
     0.402,0.319,0.035,0.000,0.000,240.000,3.000,0.000,0.000,0.000,0.000,0.402,0.319,0.035,0.000,0.000,240.000,3.000,0.000,0.000,0.000,0.000:
0000
0000
0000
0000
,
0000
0000
0000
0000
,
0000
0000
0000
0000
,
0000
0000
0000
0000
,
0000
0000
0000
0000
,
1001
0000
0000
0000
,
0001
0001
0100
0000
0010
0010
0100
0000
,
1000
1000
0100
0000
0010
0010
0100
0000
,
0001
0001
1000
0000
0010
0010
0100
0000
,
0001
0001
0100
0000
0010
0010
0100
0000
,
1000
1000
0100
0000
0010
0010
0100
0000
,
0001
0001
0100
0000
0010
0010
0100
0000
,
1000
1000
0100
0000
0010
0010
0100
0000
,
0001
0001
0100
0000
0010
0010
0100
0000
,
1000
0001
1000
0000
0010
0100
0010
0000
,
1000
0001
1000
0000
0010
0100
0010
0000
,
1000
1000
0001
0000
0100
0100
0010
0000
,
1000
1000
0001
0000
0100
0100
0010
0000
,
1000
0100
0010
0000
0001
0010
0100
0000
,
1000
0100
0010
0000
0001
0010
0100
0000
,
1000
0001
1000
0000
0010
0100
0010
0000
,
1000
0001
1000
0000
1001
0000
0000
0000
,
0001
0001
0100
0000
1000
1000
0010
0000
,
1000
1000
0100
0000
0100
0100
0010
0000
,
1000
1000
0001
0000
0001
0001
0100
0000
,
0010
0010
1000
0000
1000
1000
0100
0000
,
0010
0010
0001
0000
0001
0001
0100
0000
,
0010
0010
1000
0000
1000
1000
0100
0000
,
0001
0010
0001
0000
0100
0010
0100
0000
,
0010
0010
1000
0000
0010
0100
0001
0000
,
1000
1000
0001
0000
0001
0001
0100
0000
,
0010
0010
0100
0000
0100
0100
0001
0000
,
1000
1000
0100
0000
0010
0010
0100
0000
,
0001
0001
0100
0000
0001
1000
1000
0000
,
0010
0010
0100
0000
0100
0100
1000
0000
,
0001
0001
0100
0000
0100
0100
1000
0000
,
0010
0010
0100
0000
1000
1000
0100
0000
,
0010
0010
0001
0000
0010
0001
1000
0000
,
0010
0010
0001
0000
0001
0001
0100
0000
,
0010
0010
1000
0000
0100
0100
0010
0000
,
1000
1000
0100
0000
0010
0010
0001
0000
,
0100
0100
0010
0000
1000
1000
0100
0000
,
0010
0001
0010
0000
0100
1000
0100
0000
,
0010
0100
0100
0000
0001
0010
0010
0000
,
0100
0010
0100
0000
0001
1000
0001
0000
,
0100
0100
0010
0000
1000
0100
0010
0000
,
1001
0000
0000
0000
;

//---------------dance-single - ----------------
#NOTES:
     dance-single:
     :
     Beginner:
     1:
     0.107,0.106,0.023,0.000,0.000,63.000,2.000,0.000,0.000,0.000,0.000,0.107,0.106,0.023,0.000,0.000,63.000,2.000,0.000,0.000,0.000,0.000: // measure 1
0000
0000
0000
0000
,  // measure 2
0000
0000
0000
0000
,  // measure 3
0000
0000
0000
0000
,  // measure 4
0000
0000
0000
0000
,  // measure 5
0000
0000
0000
0000
,  // measure 6
1001
0000
0000
0000
,  // measure 7
0001
0000
0000
0000
,  // measure 8
1000
0000
0000
0000
,  // measure 9
0001
0000
0000
0000
,  // measure 10
1000
0000
0000
0000
,  // measure 11
0001
0000
0000
0000
,  // measure 12
1000
0000
0000
0000
,  // measure 13
0001
0000
0000
0000
,  // measure 14
1000
0000
0000
0000
,  // measure 15
0001
0000
0000
0000
,  // measure 16
0010
0000
0000
0000
,  // measure 17
0001
0000
0000
0000
,  // measure 18
0010
0000
0000
0000
,  // measure 19
0100
0000
0000
0000
,  // measure 20
0010
0000
0000
0000
,  // measure 21
0100
0000
0000
0000
,  // measure 22
0010
0000
0000
0000
,  // measure 23
1000
0000
0000
0001
,  // measure 24
0001
0000
0000
1000
,  // measure 25
1000
0000
0000
0001
,  // measure 26
0001
0000
0000
0010
,  // measure 27
0010
0000
0000
0001
,  // measure 28
0001
0000
0000
0010
,  // measure 29
0010
0000
0000
0001
,  // measure 30
0001
0000
0000
0000
,  // measure 31
1000
0000
0000
0100
,  // measure 32
0100
0000
0000
0010
,  // measure 33
0010
0000
0000
0001
,  // measure 34
0001
0000
0000
0010
,  // measure 35
0010
0000
0000
0100
,  // measure 36
0100
0000
0000
1000
,  // measure 37
1000
0000
0000
0010
,  // measure 38
0010
0000
0000
0000
,  // measure 39
0001
0000
0000
0010
,  // measure 40
0010
0000
0000
0100
,  // measure 41
0100
0000
0000
1000
,  // measure 42
1000
0000
0000
0010
,  // measure 43
0010
0000
0000
0100
,  // measure 44
0100
0000
0000
0001
,  // measure 45
0001
0000
0000
1000
,  // measure 46
1000
0000
0000
0000
,  // measure 47
1001
0000
0000
0000
;
