#TITLE:Kallurivaanil aka Benny Lava;
#SUBTITLE:;
#ARTIST:Anuradha Sriram as in Some Indian Guy;
#TITLETRANSLIT:;
#SUBTITLETRANSLIT:;
#ARTISTTRANSLIT:;
#GENRE:;
#CREDIT:;
#BANNER:Kallurivaanil aka Benny Lava.png;
#BACKGROUND:Kallurivaanil aka Benny Lava-bg.png;
#LYRICSPATH:;
#CDTITLE:.\CDTITLES\DDRMAX6.PNG;
#MUSIC:Kallurivaanil aka Benny Lava.ogg;
#OFFSET:-0.060;
#SAMPLESTART:7.280;
#SAMPLELENGTH:15.000;
#SELECTABLE:YES;
#DISPLAYBPM:133.000;
#BPMS:0.000=133.000,108.000=132.000,112.000=133.000,140.000=132.000,144.000=133.000;
#STOPS:;
#BGCHANGES:;
#KEYSOUNDS:;

//---------------dance-single - ----------------
#NOTES:
     dance-single:
     :
     Easy:
     5:
     0.248,0.188,0.313,0.179,0.000,111.000,28.000,16.000,0.000,0.000,0.000,0.248,0.188,0.313,0.179,0.000,111.000,28.000,16.000,0.000,0.000,0.000:
0000
0000
0000
0000
,
0000
0000
0000
0000
,
0000
0000
0000
0000
,
0000
0000
0000
0000
,
0000
0010
0100
0010
,
0110
0000
1001
0000
,
0000
0001
0010
0001
,
0011
0000
1010
0000
,
0000
0100
1000
0100
,
1100
0000
0011
0000
,
0000
0010
0100
0010
,
0110
0000
1001
0000
,
0000
0010
1000
0010
,
0022
0000
0033
0000
,
0000
0010
0100
1000
,
2020
0000
3030
0000
,
0000
0100
0001
0010
,
0022
0000
0033
0000
,
0000
0010
0100
1000
,
2200
0000
3300
0000
,
0000
0010
0100
0010
,
0110
0000
1001
0000
,
0000
0010
1000
0010
,
1010
0000
0011
0000
,
0000
0100
0010
0100
,
0220
0000
0330
0000
,
0000
1000
0100
1000
,
2200
0000
3300
0000
,
0000
0010
0001
0010
,
0011
0000
1100
0000
,
0000
0010
0100
0010
,
0110
0000
1010
0000
,
0000
0010
0001
0010
,
0011
0000
1100
0000
,
0000
0010
1000
0010
,
1010
0000
0011
0000
,
0000
0010
0100
0010
,
0220
0000
0330
0000
,
0000
1000
0001
1000
,
2002
0000
3003
0000
,
0000
0010
1000
0010
,
0100
0010
0010
0100
,
0000
0100
0010
0100
,
1000
0010
0010
0100
,
0000
0001
0010
0001
,
0100
0010
0010
0100
,
0000
0010
0100
0010
,
1000
0100
0100
0010
,
0001
0000
0000
0000
;

//---------------dance-single - ----------------
#NOTES:
     dance-single:
     :
     Medium:
     6:
     0.294,0.268,0.347,0.134,0.000,141.000,31.000,12.000,0.000,0.000,0.000,0.294,0.268,0.347,0.134,0.000,141.000,31.000,12.000,0.000,0.000,0.000:
0000
0000
0000
0000
,
0000
0000
0000
0000
,
0000
0000
0000
0000
,
0000
0000
0000
0000
,
0000
0010
0100
0000
0010
0000
0100
0000
,
0010
0001
0011
1100
,
0000
0100
0010
0000
0100
0000
0010
0000
,
0100
0010
1100
0110
,
0000
0010
0001
0000
0010
0000
0100
0000
,
1000
0100
0110
0011
,
0000
0010
0100
0000
1000
0000
0100
0000
,
0010
0100
0001
1000
,
0000
0010
0100
0000
0010
0000
0100
0000
,
1002
0000
0003
0000
,
0000
0010
0100
0000
0010
0000
1000
0000
,
2010
0000
3000
0000
,
0000
0010
0100
0000
0001
0000
0010
0000
,
0012
0000
0003
0000
,
0000
0010
0100
0000
0010
0000
0100
0000
,
1002
0000
0003
0000
,
0000
0010
1000
0000
0100
0000
0010
0000
,
0100
0001
1100
0110
,
0000
0010
0100
0000
0001
0000
0100
0000
,
0010
0100
1100
0011
,
0000
0010
0100
0000
0001
0000
1000
0000
,
2010
0000
3000
0000
,
0000
0100
0010
0000
0001
0000
0010
0000
,
1002
0000
0003
0000
,
0000
0010
0100
0000
1000
0000
0010
0000
,
0100
0001
0011
1100
,
0000
0010
0100
0000
0010
0000
1000
0000
,
0001
0100
1010
0011
,
0000
0100
0010
0000
1000
0000
0001
0000
,
0100
0010
1010
0011
,
0000
0010
0100
0000
0001
0000
0010
0000
,
0100
1000
0011
1001
,
0000
0010
0100
0000
0010
0000
1000
0000
,
2010
0000
3000
0000
,
0000
0100
0010
0000
1000
0000
0001
0000
,
1002
0000
0003
0000
,
0000
0010
0100
0000
1000
0000
0010
0000
,
2010
0000
3000
0000
,
0000
0100
0010
0000
1000
0000
0010
0000
,
1002
0000
0003
0000
,
0000
0100
0010
0000
0100
0000
1000
0000
,
2001
0000
3000
0000
,
0000
0010
0100
0000
0010
0000
1000
0000
,
1020
0000
0030
0000
,
1001
0000
0000
0000
;

//---------------dance-single - ----------------
#NOTES:
     dance-single:
     :
     Hard:
     7:
     0.371,0.295,0.324,0.268,0.034,179.000,29.000,24.000,0.000,0.000,0.000,0.371,0.295,0.324,0.268,0.034,179.000,29.000,24.000,0.000,0.000,0.000:
0000
0000
0000
0000
,
0000
0000
0000
0000
,
0000
0000
0000
0000
,
0000
0000
0000
0000
,
0000
0010
0100
0010
0100
0000
0010
0000
,
1000
0000
0001
1000
0001
0000
1000
0000
,
0000
0010
1000
0010
1000
0000
0010
0000
,
0001
0000
0010
0001
0010
0000
0100
0000
,
0000
0000
0010
0100
0010
0000
0100
0000
1000
0000
0000
0000
0100
0000
0000
0000
,
0001
0000
0100
0010
0100
0000
1000
0000
,
0000
0100
0010
0100
0010
0000
0100
0000
,
1000
0000
0100
0001
0100
0000
0010
0000
,
0000
0010
0001
0010
0011
0000
1100
0000
,
0220
0000
0330
0000
,
0000
0001
1000
0001
1001
0000
0011
0000
,
0202
0000
0303
0000
,
0000
0010
1000
0010
1010
0000
0110
0000
,
2002
0000
3003
0000
,
0000
0010
0100
0010
0110
0000
1010
0000
,
2002
0000
3003
0000
,
0000
0100
0010
0100
0010
0000
1000
0000
,
0100
0000
0010
0001
0100
0000
0010
0000
,
0000
0010
1000
0010
0100
0000
0001
0000
,
1000
0000
0010
0100
0010
0000
1000
0000
,
0000
0001
1000
0001
1001
0000
0101
0000
,
0022
0000
0033
0000
,
0000
0010
1000
0010
1010
0000
0110
0000
,
2002
0000
3003
0000
,
0000
0010
1000
0001
1000
0000
0100
0000
,
0001
0000
0010
0100
0010
0000
1000
0000
,
0000
0001
0100
0010
0100
0000
1000
0000
,
0100
0000
0010
0100
0010
0000
0001
0000
,
0000
0000
0010
0100
0010
0000
0001
0000
1000
0000
0000
0000
0100
0000
0000
0000
,
0001
0000
0010
0100
0010
0000
1000
0000
,
0000
0100
0010
0100
0010
0000
1000
0000
,
0001
0000
0100
0010
0100
0000
0010
0000
,
0000
0010
0001
0010
0011
0000
1010
0000
,
2002
0000
3003
0000
,
0000
0010
1000
0010
1010
0000
0110
0000
,
0022
0000
0033
0000
,
0000
0000
0010
0000
0100
0000
0010
0000
0100
0000
0000
0100
0000
0000
0100
0000
,
0220
0000
0330
0000
,
0000
0000
0001
0000
1000
0000
0001
0000
1000
0000
0000
1000
0000
0000
1000
0000
,
2002
0000
3003
0000
,
0000
0000
0010
0000
0100
0000
0010
0000
0100
0000
0000
0100
0000
0000
0100
0000
,
0220
0000
0330
0000
,
0000
0000
0001
0000
1000
0000
0001
0000
1000
0000
0000
1000
0000
0000
1000
0000
,
2002
0000
3003
0000
,
1001
0000
0000
0000
;

//---------------dance-single - ----------------
#NOTES:
     dance-single:
     :
     Beginner:
     1:
     0.089,0.081,0.011,0.000,0.000,55.000,1.000,0.000,0.000,0.000,0.000,0.089,0.081,0.011,0.000,0.000,55.000,1.000,0.000,0.000,0.000,0.000: // measure 1
0000
0000
0000
0000
,  // measure 2
0000
0000
0000
0000
,  // measure 3
0000
0000
0000
0000
,  // measure 4
0000
0000
0000
0000
,  // measure 5
0000
0000
0010
0000
,  // measure 6
0010
0000
0001
0000
,  // measure 7
0000
0000
0010
0000
,  // measure 8
0010
0000
1000
0000
,  // measure 9
0000
0000
0100
0000
,  // measure 10
0100
0000
0001
0000
,  // measure 11
0000
0000
0010
0000
,  // measure 12
0010
0000
1000
0000
,  // measure 13
0000
0000
0100
0000
,  // measure 14
0010
0000
0000
0000
,  // measure 15
0000
0000
0001
0000
,  // measure 16
0010
0000
0000
0000
,  // measure 17
0000
0000
1000
0000
,  // measure 18
0010
0000
0000
0000
,  // measure 19
0000
0000
0100
0000
,  // measure 20
0001
0000
0000
0000
,  // measure 21
0000
0000
0010
0000
,  // measure 22
0010
0000
0100
0000
,  // measure 23
0000
0000
1000
0000
,  // measure 24
1000
0000
0010
0000
,  // measure 25
0000
0000
0001
0000
,  // measure 26
1000
0000
0000
0000
,  // measure 27
0000
0000
1000
0000
,  // measure 28
0001
0000
0000
0000
,  // measure 29
0000
0000
0010
0000
,  // measure 30
0010
0000
0100
0000
,  // measure 31
0000
0000
1000
0000
,  // measure 32
1000
0000
0010
0000
,  // measure 33
0000
0000
0001
0000
,  // measure 34
0001
0000
0100
0000
,  // measure 35
0000
0000
0010
0000
,  // measure 36
0010
0000
1000
0000
,  // measure 37
0000
0000
0100
0000
,  // measure 38
0010
0000
0000
0000
,  // measure 39
0000
0000
0001
0000
,  // measure 40
1000
0000
0000
0000
,  // measure 41
0000
0000
1000
0000
,  // measure 42
0010
0000
0000
0000
,  // measure 43
0000
0000
0001
0000
,  // measure 44
0010
0000
0000
0000
,  // measure 45
0000
0000
0100
0000
,  // measure 46
0010
0000
0000
0000
,  // measure 47
0000
0000
1000
0000
,  // measure 48
0010
0000
0000
0000
,  // measure 49
1001
0000
0000
0000
;
