#TITLE:Holy Virgin;
#SUBTITLE:;
#ARTIST:Groove Coverage;
#TITLETRANSLIT:;
#SUBTITLETRANSLIT:;
#ARTISTTRANSLIT:;
#GENRE:;
#CREDIT:;
#BANNER:Holy Virgin.png;
#BACKGROUND:Holy Virgin-bg.png;
#LYRICSPATH:;
#CDTITLE:.\CDTITLES\DDRMAX6.PNG;
#MUSIC:Holy Virgin.ogg;
#OFFSET:-0.020;
#SAMPLESTART:60.440;
#SAMPLELENGTH:15.000;
#SELECTABLE:YES;
#DISPLAYBPM:135.000;
#BPMS:0.000=135.000;
#STOPS:;
#BGCHANGES:;
#KEYSOUNDS:;

//---------------dance-single - ----------------
#NOTES:
     dance-single:
     :
     Easy:
     2:
     0.136,0.164,0.049,0.000,0.000,92.000,5.000,0.000,0.000,0.000,0.000,0.136,0.164,0.049,0.000,0.000,92.000,5.000,0.000,0.000,0.000,0.000:
0000
0000
0000
0000
,
0000
0000
0000
0000
,
0000
0000
0000
0000
,
0000
0000
0000
0000
,
0000
0000
0000
0000
,
0000
0000
0000
0000
,
0000
0000
0000
0000
,
0000
0000
0000
0000
,
0000
0000
0010
0010
,
0010
0000
0001
0001
,
0001
0000
0100
0100
,
0100
0000
1000
1000
,
1000
0000
0010
0010
,
0010
0000
0100
0100
,
0100
0000
0001
0001
,
0001
0000
0010
0010
,
0010
0000
0000
0000
,
0100
0000
0000
0000
,
0000
0000
0000
0000
,
0010
0000
0000
0000
,
0000
0000
0000
0000
,
0001
0000
0000
0000
,
0000
0000
0000
0000
,
1000
0000
0000
0000
,
0010
0000
0000
0000
,
0000
0000
0000
0000
,
0100
0000
0100
0000
,
0010
0000
0010
0000
,
0100
0000
0100
0000
,
0010
0000
0010
0000
,
1001
0000
0100
0000
,
0010
0000
0100
0000
,
0000
0000
1001
0000
,
1001
0000
0000
0000
,
0010
0000
0010
0000
,
0100
0000
0100
0000
,
0001
0000
0001
0000
,
1000
0000
1000
0000
,
0010
0000
0010
0000
,
0100
0000
0100
0000
,
0010
0000
0100
0000
,
0110
0000
1001
0000
,
0010
0000
0000
0000
,
0100
0000
0000
0000
,
1000
0000
0000
0000
,
0010
0000
0100
0100
,
0100
0000
0001
0001
,
0001
0000
1000
1000
,
1000
0000
0100
0100
,
0100
0000
0010
0010
,
0010
0000
0001
0001
,
0001
0000
0100
0100
,
0100
0000
0010
0010
,
0010
0000
0000
0000
,
1000
0000
1000
0000
,
0001
0000
0001
0000
,
0010
0000
0000
0000
;

//---------------dance-single - ----------------
#NOTES:
     dance-single:
     :
     Medium:
     5:
     0.282,0.329,0.421,0.000,0.000,159.000,43.000,0.000,0.000,0.000,0.000,0.282,0.329,0.421,0.000,0.000,159.000,43.000,0.000,0.000,0.000,0.000:
0000
0000
0000
0000
,
0000
0000
0000
0000
,
0000
0000
0000
0000
,
0000
0000
0000
0000
,
0000
0000
0000
0000
,
0000
0000
0000
0000
,
0000
0000
0000
0000
,
0000
0000
0000
0000
,
0000
0000
0100
0100
,
0010
0010
0100
0100
,
0001
0001
0100
0100
,
0010
0010
0100
0100
,
1000
1000
0010
0010
,
0100
0100
0010
0010
,
1000
1000
0001
0001
,
0100
0100
0010
0010
,
0100
0000
0000
0010
,
1010
1010
0100
0010
,
0011
0101
1010
0000
,
0110
0000
0110
0000
,
1000
0001
0000
0010
,
0100
0100
0010
0010
,
0001
0000
0001
0010
1000
0000
0000
0000
,
0100
0000
0100
0000
0010
0000
0010
0001
,
1000
0001
0000
0000
,
1001
0000
0000
0000
,
0110
0000
0110
0010
,
0100
0010
1000
1010
,
0000
0100
0010
0100
,
1010
1100
0011
0000
,
1001
0000
0110
0100
,
0010
0100
1000
1010
,
0000
0100
0001
0010
,
0011
0000
0001
0100
,
1100
0000
0011
0100
,
0010
0100
0010
0011
,
0000
0011
0010
0100
,
1010
0110
1001
0000
,
0110
0000
1001
0100
,
0010
0100
1000
1001
,
0010
0010
0010
0010
,
0001
0001
1000
0100
,
1100
0000
0110
0000
,
1010
0000
0011
0000
,
0110
0000
0101
0000
,
1010
0000
0010
0010
,
0100
0100
0001
0001
,
1000
1000
0010
0010
,
0100
0100
0010
0010
,
1001
0000
0001
0001
,
0100
0100
0010
0010
,
1000
1000
0100
0100
,
0010
0010
0001
0100
,
1001
0000
0000
0000
,
0110
0110
0100
0100
,
1001
1010
0101
0000
,
1001
0000
0000
0000
;

//---------------dance-single - ----------------
#NOTES:
     dance-single:
     :
     Hard:
     7:
     0.387,0.362,0.372,0.049,0.000,234.000,38.000,5.000,0.000,0.000,0.000,0.387,0.362,0.372,0.049,0.000,234.000,38.000,5.000,0.000,0.000,0.000:
0000
0000
0000
0000
,
0000
0000
0000
0000
,
0000
0000
0000
0000
,
0000
0000
0000
0000
,
0000
0000
0000
0000
,
0000
0000
0000
0000
,
0000
0000
0000
0000
,
0000
0000
0000
0000
,
0000
0000
0000
0000
0100
0010
0100
0010
,
0100
0000
0100
0000
0001
0010
0001
0010
,
0001
0000
0001
0000
0010
0100
0010
0100
,
0010
0000
0010
0100
1000
0010
0100
0000
,
0001
0000
0000
0000
0010
0100
0010
0100
,
0010
0000
0010
0000
1000
0001
1000
0010
,
1000
0000
0100
0000
0010
0001
0010
0001
,
0100
0000
0100
0000
0010
0100
0010
0000
,
1000
0000
0000
0000
0000
0000
0100
0010
,
1001
1001
0010
0010
,
0001
0010
1000
0100
0010
0000
0000
0000
,
1000
0000
0100
0001
0010
0100
0010
0001
,
1000
0000
0100
0000
0010
0000
1000
0001
,
1001
1001
0110
0011
,
0010
1000
0100
0010
0100
0000
0000
0000
,
0011
0000
0100
0000
0010
0001
1000
0100
,
1001
1001
0000
0000
,
0010
0001
0010
0001
0010
0001
0010
0001
,
0100
1100
0010
0011
,
0010
1001
0110
0011
,
0100
1000
0010
1000
,
1100
0110
0011
0000
,
0010
0110
1000
1001
,
0010
1100
0110
0011
,
0100
0010
1000
0100
,
0010
0000
0000
0000
0001
0010
0100
0010
,
0001
0011
0100
1010
,
0100
0010
1001
0011
,
0100
0010
1000
0100
,
1001
0011
1001
0000
,
0010
0110
1000
1010
,
0100
0011
0011
0110
,
2000
0001
0100
3010
,
0200
0010
0301
1000
,
0200
0001
0001
0301
,
2000
0010
3010
0100
,
0002
1000
1000
1003
,
0100
0000
0000
0000
0010
0100
0010
0100
,
0010
0000
0010
0000
0001
0010
0001
0010
,
0001
0000
0010
0100
0010
0100
0010
0100
,
1000
0000
1000
0001
1000
0001
1000
0000
,
0010
0000
0000
0000
0100
0010
0100
0010
,
0100
0000
0100
0000
0010
0100
0010
0100
,
0001
0000
0001
0010
0001
0010
0001
0100
,
0010
0000
0010
0000
0100
0010
0100
0000
,
0010
0000
0000
0000
0000
0000
0100
0010
,
0011
0011
0100
0100
,
1000
0010
0001
0100
0010
0000
0000
0000
,
1100
0000
0010
0001
0010
0100
0010
0000
,
1001
0000
0000
0000
;

//---------------dance-single - ----------------
#NOTES:
     dance-single:
     :
     Beginner:
     1:
     0.064,0.112,0.000,0.000,0.000,46.000,0.000,0.000,0.000,0.000,0.000,0.064,0.112,0.000,0.000,0.000,46.000,0.000,0.000,0.000,0.000,0.000: // measure 1
0000
0000
0000
0000
,  // measure 2
0000
0000
0000
0000
,  // measure 3
0000
0000
0000
0000
,  // measure 4
0000
0000
0000
0000
,  // measure 5
0000
0000
0000
0000
,  // measure 6
0000
0000
0000
0000
,  // measure 7
0000
0000
0000
0000
,  // measure 8
0000
0000
0000
0000
,  // measure 9
0000
0000
0000
0000
,  // measure 10
0010
0000
0000
0000
,  // measure 11
0010
0000
0000
0000
,  // measure 12
0100
0000
0000
0000
,  // measure 13
0100
0000
0000
0000
,  // measure 14
0001
0000
0000
0000
,  // measure 15
0001
0000
0000
0000
,  // measure 16
1000
0000
0000
0000
,  // measure 17
1000
0000
0000
0000
,  // measure 18
0010
0000
0010
0000
,  // measure 19
0100
0000
0100
0000
,  // measure 20
0001
0000
0001
0000
,  // measure 21
1000
0000
0000
0000
,  // measure 22
0010
0000
0010
0000
,  // measure 23
0001
0000
0001
0000
,  // measure 24
0100
0000
0100
0000
,  // measure 25
0010
0000
0000
0000
,  // measure 26
0000
0000
0000
0000
,  // measure 27
1000
0000
0000
0000
,  // measure 28
0000
0000
0000
0000
,  // measure 29
1000
0000
0000
0000
,  // measure 30
0000
0000
0000
0000
,  // measure 31
0001
0000
0000
0000
,  // measure 32
0000
0000
0000
0000
,  // measure 33
0001
0000
0000
0000
,  // measure 34
0000
0000
0000
0000
,  // measure 35
0010
0000
0000
0000
,  // measure 36
0000
0000
0000
0000
,  // measure 37
0010
0000
0000
0000
,  // measure 38
0000
0000
0000
0000
,  // measure 39
0100
0000
0000
0000
,  // measure 40
0000
0000
0000
0000
,  // measure 41
0100
0000
0000
0000
,  // measure 42
0000
0000
0000
0000
,  // measure 43
1000
0000
0000
0000
,  // measure 44
0000
0000
0000
0000
,  // measure 45
0000
0000
0000
0000
,  // measure 46
0000
0000
0000
0000
,  // measure 47
0001
0000
0000
0000
,  // measure 48
0010
0000
0000
0000
,  // measure 49
0100
0000
0000
0000
,  // measure 50
1000
0000
0000
0000
,  // measure 51
0010
0000
0000
0000
,  // measure 52
0100
0000
0000
0000
,  // measure 53
0001
0000
0000
0000
,  // measure 54
0010
0000
0000
0000
,  // measure 55
1000
0000
1000
0000
,  // measure 56
0010
0000
0010
0000
,  // measure 57
0100
0000
0100
0000
,  // measure 58
0001
0000
0000
0000
;
