#TITLE:Harder To Breathe;
#SUBTITLE:;
#ARTIST:Maroon 5;
#TITLETRANSLIT:;
#SUBTITLETRANSLIT:;
#ARTISTTRANSLIT:;
#GENRE:;
#CREDIT:;
#BANNER:Harder To Breathe.png;
#BACKGROUND:Harder To Breathe-bg.png;
#LYRICSPATH:;
#CDTITLE:.\CDTITLES\DDRMAX6.PNG;
#MUSIC:Harder To Breathe.ogg;
#OFFSET:1.580;
#SAMPLESTART:30.420;
#SAMPLELENGTH:15.000;
#SELECTABLE:YES;
#DISPLAYBPM:75.000;
#BPMS:0.000=75.000;
#STOPS:;
#BGCHANGES:;
#KEYSOUNDS:;

//---------------dance-single - ----------------
#NOTES:
     dance-single:
     :
     Hard:
     8:
     0.535,0.472,0.328,0.000,0.948,240.000,23.000,0.000,0.000,0.000,0.000,0.535,0.472,0.328,0.000,0.948,240.000,23.000,0.000,0.000,0.000,0.000:
0000
0000
0000
0000
,
0000
0000
0000
0000
,
0000
0000
0100
0010
0100
0010
0100
0010
1000
0100
1000
0100
1000
0010
0001
0000
,
0000
0010
0100
0010
0100
0010
0100
0010
1000
0001
1000
0001
0100
0010
0100
0000
,
0000
0010
0001
0010
0001
0010
0001
0010
0100
1000
0100
1000
0001
0100
0001
0000
,
0000
0100
0010
0100
0010
0100
0010
0100
0001
1000
0001
1000
0010
0100
0010
0000
,
0000
0100
1000
0100
1000
0100
1000
0100
0010
0001
0010
0001
1000
0001
1001
0000
,
0000
0100
0010
0100
0010
0100
0010
0100
0001
1000
0001
0100
0010
0100
0110
0000
,
0000
0100
1000
0100
1000
0100
1000
0100
0010
0001
0100
0010
0001
0010
1001
0000
,
0000
0010
0100
0010
0000
0000
0001
0010
0100
0001
0100
0001
0100
0010
1001
0000
,
0000
0000
0000
0100
0010
0100
0010
0100
0000
1000
0000
0001
0000
0010
0100
0110
,
0000
1000
0000
1001
0000
0100
0010
1001
0000
0000
0000
0000
1000
0001
1000
0001
,
0000
0000
0100
0010
0100
0010
0100
0010
0000
0001
1000
0001
0000
0100
1000
1010
,
0000
0100
0000
0101
0000
0010
0100
0110
0000
0000
1100
0000
0110
0000
0011
0000
,
0000
0000
0001
0010
0001
0010
0001
0010
0000
0100
0010
0110
0000
1000
0001
1001
,
0000
0010
0000
0110
0000
0010
1000
1001
0000
0000
0000
0000
0100
0010
0100
0010
,
0000
0000
1000
0100
1000
0100
1000
0100
0000
0010
0000
0100
0010
0100
0010
0100
,
0000
0001
0100
0101
0000
0100
1000
1100
0000
0100
0000
0010
0100
0010
0100
0010
,
0000
0000
1000
0001
1000
0001
1000
0001
0000
0100
0000
0010
0100
0010
0100
0010
,
0000
1000
0100
1100
0000
0010
0001
0011
0000
0000
0000
0000
0100
1000
0100
1000
,
0010
0000
0100
0010
0100
0010
0100
0010
0000
0100
0000
1000
0001
1000
0001
1000
,
0000
0010
0100
0110
0000
0010
0001
0011
0000
0000
0000
0000
1000
0001
1000
0001
,
1000
0010
0000
0000
0000
0000
0000
0000
0000
0000
0000
0000
0000
0000
0000
0000
;

//---------------dance-single - ----------------
#NOTES:
     dance-single:
     :
     Easy:
     3:
     0.195,0.172,0.071,0.114,0.000,83.000,5.000,8.000,0.000,0.000,0.000,0.195,0.172,0.071,0.114,0.000,83.000,5.000,8.000,0.000,0.000,0.000:
0000
0000
0000
0000
,
0000
0000
0000
0000
,
0100
0100
0010
0010
,
0001
0001
0010
0010
,
0100
0100
1000
1000
,
0010
0010
0100
0100
,
0010
0010
0001
0001
,
0100
0100
0010
0010
,
1000
1000
0100
0100
,
0010
0010
1000
1000
,
0000
0000
0010
0000
0100
0100
0100
0000
,
0010
0010
0010
0000
0001
0000
1000
1010
,
0000
0000
0100
0000
0001
0001
0001
0000
,
1000
1000
1000
0000
0000
0010
0100
0110
,
0000
0000
1000
0000
0010
0010
0010
0000
,
0100
0100
0100
0000
0001
0000
0010
0110
,
0000
2000
0010
3001
,
0200
0320
0032
0000
,
0203
0010
0301
0001
,
2000
0001
3010
0000
,
0200
0010
0302
1000
,
0103
1000
1001
0000
,
1001
0000
0000
0000
;

//---------------dance-single - ----------------
#NOTES:
     dance-single:
     :
     Medium:
     4:
     0.293,0.251,0.114,0.128,0.050,127.000,8.000,9.000,0.000,0.000,0.000,0.293,0.251,0.114,0.128,0.050,127.000,8.000,9.000,0.000,0.000,0.000:
0000
0000
0000
0000
,
0000
0000
0000
0000
,
0000
0000
0010
0000
0100
0000
0100
0000
0001
0000
1000
0000
0010
0100
0010
0000
,
0000
0000
0100
0000
0010
0000
0010
0000
1000
0000
0001
0000
1000
0010
1000
0000
,
0000
0000
0100
0000
0010
0000
0010
0000
0001
0000
0001
0000
1000
0100
1000
0000
,
0000
0000
0100
0000
0010
0000
0010
0000
1000
0000
0001
0000
0100
0001
0100
0000
,
0000
0000
0010
0000
1000
0000
0001
0000
0100
0000
0010
0000
1000
0001
1000
0000
,
0000
0000
0010
0000
0100
0000
1000
0000
0010
0000
0100
0000
0001
0100
0001
0000
,
0000
0000
0010
0000
1000
0000
0010
0000
0100
0000
0001
0000
1000
0001
1000
0000
,
0000
0010
0100
0100
0001
1000
0010
0110
,
0000
0000
1000
1000
0010
0010
0100
0100
,
0001
0010
0100
1000
1001
0000
0010
0110
,
0000
1000
0010
0010
0100
0001
1000
1000
,
0010
0100
0001
1000
0001
0010
0100
0110
,
0000
1000
0010
0010
0100
0001
1000
0010
,
0100
0010
1000
0001
1001
0000
0010
0110
,
0200
0010
0302
1000
,
0203
0320
0032
0000
,
2003
0100
3020
0100
,
0031
0100
1000
0000
,
0020
0100
2030
0001
,
3100
0001
0011
0000
,
1001
0000
0000
0000
;

//---------------dance-single - ----------------
#NOTES:
     dance-single:
     :
     Beginner:
     1:
     0.092,0.094,0.100,0.000,0.000,38.000,7.000,0.000,0.000,0.000,0.000,0.092,0.094,0.100,0.000,0.000,38.000,7.000,0.000,0.000,0.000,0.000:
0000
0000
0000
0000
,
0000
0000
0000
0000
,
1000
0000
1000
0000
,
0010
0000
0010
0000
,
0100
0000
0100
0000
,
0001
0000
0001
0000
,
0010
0000
0010
0000
,
0100
0000
0100
0000
,
0010
0000
0010
0000
,
0100
0000
1001
0000
,
0010
0000
1001
0000
,
0100
0100
0100
0000
,
0010
0000
1001
0000
,
0010
0010
0010
0000
,
0100
0000
0110
0000
,
1000
1000
1000
0000
,
0110
0000
0000
0000
,
1001
0000
0000
0000
,
0001
0000
0000
0000
,
1000
0000
0000
0000
,
0010
0000
0000
0000
,
0100
0000
0000
0000
,
1001
0000
0000
0000
;

//---------------dance-single - ----------------
#NOTES:
     dance-single:
     :
     Challenge:
     9:
     0.627,0.535,0.570,0.000,1.000,268.000,40.000,0.000,0.000,0.000,0.000,0.627,0.535,0.570,0.000,1.000,268.000,40.000,0.000,0.000,0.000,0.000: // measure 1
0000
0000
0000
0000
,  // measure 2
0000
0000
0000
0000
,  // measure 3
0000
0000
0000
0000
1000
0000
0100
0000
1000
0000
0100
0000
1000
0000
0100
0000
0010
0000
0100
0000
0010
0000
0001
0000
0010
0000
0001
0000
0100
0000
0000
0100
,  // measure 4
0010
0000
0001
0000
0010
0000
0001
0000
0010
0000
0100
0000
0010
0000
0100
0000
1000
0000
0100
0000
1000
0000
0100
0000
0010
0000
0100
0000
0010
0000
0000
0100
,  // measure 5
0001
0000
0010
0000
0001
0000
0010
0000
0100
0000
0010
0000
0100
0000
0010
0000
0100
0000
1000
0000
0100
0000
1000
0000
0100
0000
0010
0000
0100
0000
0000
0001
,  // measure 6
0100
0000
0010
0000
0100
0000
0010
0000
0100
0000
1000
0000
0100
0000
1000
0000
0010
0000
0100
0000
0010
0000
0100
0000
0001
0000
0100
0000
0001
0000
0000
0100
,  // measure 7
0010
0000
0100
0000
0010
0000
0100
0000
1000
0000
0100
0000
1000
0000
0100
0000
0010
0000
0100
0000
0010
0000
0100
0000
0001
0000
0010
0000
1001
0000
0000
1000
,  // measure 8
0001
0000
0100
0000
0001
0000
0100
0000
1000
0000
0100
0000
1000
0000
0100
0000
0010
0000
0100
0000
0010
0000
0100
0000
1000
0000
0010
0000
1001
0000
0000
1000
,  // measure 9
0001
0000
0100
0000
0001
0000
0100
0000
1000
0000
0100
0000
1000
0000
0100
0000
0010
0000
0100
0000
0010
0000
0100
0000
0010
0000
0001
0000
1001
0000
0000
1000
,  // measure 10
0001
0100
0001
0100
0010
0100
0010
0100
1000
0010
1000
0010
0100
0010
1001
0000
,  // measure 11
0000
0000
0000
1000
0100
0010
0100
0110
0000
0011
0000
1001
0000
0100
0010
0110
,  // measure 12
0000
0000
1010
0000
0000
0000
0100
0000
0000
0000
0001
0000
1000
0000
1001
0000
0000
0000
0000
0010
0100
0000
0000
0000
0100
0000
0010
0000
0100
0000
0010
0000
,  // measure 13
0000
0000
1000
0100
1000
0100
1000
1010
0000
0010
0100
0101
0000
0001
1000
1001
,  // measure 14
0000
0101
0000
0010
0000
1000
0010
0110
0000
0000
1001
0000
0011
0000
1001
0000
,  // measure 15
1100
0000
1000
0100
1000
0100
0010
0110
0000
0001
1000
1001
0000
0010
0100
0110
,  // measure 16
0000
0000
1000
0000
0001
0000
1001
0000
0000
0000
0010
0000
0001
0000
0011
0000
0000
0000
0000
0010
0001
0000
0000
0000
0100
0000
0010
0000
0100
0000
0010
0000
,  // measure 17
0000
0000
1000
0010
1000
0010
1000
1010
0000
1010
0000
0010
0001
0010
0001
0011
,  // measure 18
0000
0100
0010
0110
0000
0001
1000
1001
0000
0110
0000
0001
1000
0010
0100
0010
,  // measure 19
0000
0000
0100
0010
0001
1000
0010
0110
0000
1001
0000
0010
1000
0100
0010
0110
,  // measure 20
0000
0000
0001
0000
1000
0000
1001
0000
0000
0000
0010
0000
0100
0000
0110
0000
0000
0000
0000
1000
0100
0000
0010
0000
0100
0000
0001
0000
0100
0000
0010
0000
,  // measure 21
1000
0000
1000
0010
0100
0010
0100
0101
0000
0001
0000
1000
0010
1000
0100
0110
,  // measure 22
0000
0000
0010
0000
1000
0000
1001
0000
0000
0000
0100
0000
0010
0000
1001
0000
0000
0000
0000
0010
0001
0000
0100
0000
1000
0000
0010
0000
0100
0000
0001
0000
,  // measure 23
1000
1001
0000
0000
0000
0000
0000
0000
0000
0000
0000
0000
0000
0000
0000
0000
;
