#TITLE:Gonna Make You Sweat (Everybody Dance Now) (Hardcore Remix);
#SUBTITLE:;
#ARTIST:C+C Music Factory;
#TITLETRANSLIT:;
#SUBTITLETRANSLIT:;
#ARTISTTRANSLIT:;
#GENRE:;
#CREDIT:;
#BANNER:Gonna Make You Sweat (Everybody Dance Now) (Hardcore Remix).png;
#BACKGROUND:Gonna Make You Sweat (Everybody Dance Now) (Hardcore Remix)-bg.png;
#LYRICSPATH:;
#CDTITLE:.\CDTITLES\DDRMAX6.PNG;
#MUSIC:Gonna Make You Sweat (Everybody Dance Now) (Hardcore Remix).ogg;
#OFFSET:-0.020;
#SAMPLESTART:77.420;
#SAMPLELENGTH:15.000;
#SELECTABLE:YES;
#DISPLAYBPM:132.000;
#BPMS:0.000=132.000;
#STOPS:;
#BGCHANGES:;
#KEYSOUNDS:;

//---------------dance-single - ----------------
#NOTES:
     dance-single:
     :
     Hard:
     8:
     0.459,0.591,0.242,0.000,0.532,282.000,23.000,0.000,0.000,0.000,0.000,0.459,0.591,0.242,0.000,0.532,282.000,23.000,0.000,0.000,0.000,0.000:
0000
0000
0000
0000
,
0000
0000
0000
0000
,
0000
0000
0000
0000
,
0000
0000
0000
0000
,
0000
0000
0000
0000
,
1000
0000
0000
0000
0000
0000
0001
0000
0000
0000
0010
0000
0000
0100
0000
0000
,
0010
0000
0010
0000
0000
0000
1000
0000
0000
0000
0010
0000
0000
0100
0000
0000
,
0001
0000
0000
0000
0000
0000
0010
0000
0000
0000
0100
0000
0000
0010
0000
0000
,
0100
0000
0000
0000
0000
0000
0010
0000
0000
0000
1000
0000
0000
0010
0000
0000
,
0100
0000
0000
0000
0000
0000
0010
0000
0000
0000
0001
0000
0000
0100
0000
0000
,
0010
0000
0000
0000
0000
0000
0010
0000
0000
0000
0100
0000
0000
0001
0000
0000
,
1000
0000
0000
0000
0000
0000
0010
0000
0000
0000
0100
0000
0000
0001
0000
0000
,
1000
0100
0010
0001
0100
0000
1000
0000
,
0010
0000
0000
0000
0000
0000
0100
0000
0000
0000
0001
0000
0000
1000
0000
0000
,
0010
0000
0000
0000
0000
0000
0100
0000
0000
0000
0010
0000
0000
1000
0000
0000
,
0001
0000
0000
0000
0000
0000
0010
0000
0000
0000
1000
0000
0000
0100
0000
0000
,
0010
0001
0010
0100
1100
0000
0110
0000
,
0001
0000
0000
0000
0000
0000
0101
0000
0000
0000
1000
0000
0000
0010
0000
0000
,
0100
0000
0000
0000
0000
0000
0110
0000
0000
0000
0001
0000
0000
1000
0000
0000
,
0010
0000
0000
0000
0000
0000
0011
0000
0000
0000
0100
0000
0000
1000
0000
0000
,
0010
0001
0010
0100
0110
0000
1001
0000
,
0100
0000
0000
0000
0000
0000
1010
0000
0000
0000
1000
0000
0000
0100
0000
0000
,
0001
0000
0001
0000
0000
0000
0011
0000
0000
0000
0100
0000
0000
0010
0000
0000
,
1000
0000
1000
0000
0000
0000
1100
0000
0000
0000
0010
0000
0000
0001
0000
0000
,
0100
0000
0010
0000
1000
0000
0010
0000
0100
0000
0010
0000
0100
0001
0000
1000
,
0001
0000
0000
0000
0000
0000
0000
0010
0000
0100
0000
0001
1000
0000
0000
0100
,
0010
0000
1000
0001
0000
0100
0010
0100
0000
0001
1000
0001
0000
0100
0000
0000
,
1000
0000
0000
0000
0010
0000
0100
0001
0000
0010
0100
0010
0000
1000
0000
0000
,
0100
0000
0001
0100
0001
0100
0001
0000
1000
0000
0010
1000
0010
1000
0010
0000
,
0000
0000
0000
0100
0010
0000
0000
0100
0000
0001
0000
1000
0010
0000
0000
0000
,
0100
0000
0001
1000
0000
0010
1000
0000
0100
0001
0000
0010
0100
0000
1000
0000
,
0001
0000
0000
0000
0000
0000
0000
0010
0001
0000
0010
0000
0100
0000
0000
0000
,
1000
0000
0000
0000
0010
0000
0100
0001
0000
0010
0000
1000
0000
0100
0000
0010
,
0001
0000
0000
0000
0010
0000
0100
0010
0000
0100
0000
1000
0000
0001
0000
1000
,
0010
0000
0000
0000
0100
0010
0100
0010
0100
0000
0000
0001
1000
0000
0010
0000
,
0100
0000
0000
0010
0000
0100
0001
0000
0010
0000
0000
0100
0010
0000
0100
0000
,
1000
0000
0000
0100
0000
0010
0000
0100
0001
0000
0000
0010
0100
0000
1000
0000
,
0010
0000
1000
0001
1000
0001
1000
0001
1000
0000
0010
0100
0010
0100
0010
0100
,
0010
0000
0000
0001
1000
0000
0010
0100
0000
0010
1000
0010
1000
0000
0100
0000
,
0001
0000
0000
0000
0010
0100
0000
0010
0000
1000
0010
1000
0010
0000
0000
0000
,
0101
0000
0000
0000
0000
0000
0000
0001
0000
0000
0100
0000
1001
0000
0000
0000
,
1010
0000
0000
0000
0000
0000
0000
0100
0000
0010
0100
0000
1001
0000
0000
0000
,
0001
0000
0010
0000
0100
0000
1000
0000
0010
0000
0100
0001
0000
0000
0100
0000
,
1100
0000
0000
0000
0000
0000
0110
0000
0000
0000
0010
0000
0000
0001
0000
0000
,
1100
0000
0000
0000
0000
0000
0101
0000
0000
0000
0010
0000
0000
0000
1000
0001
,
1000
0001
0000
0010
0000
0100
0000
1000
0000
0000
0000
0000
0000
0000
0000
0000
,
1000
0000
0010
0100
0000
0001
0000
1000
0000
0000
0001
0000
0000
0000
0000
0000
,
1010
0000
0000
0000
0000
0000
0101
0000
0000
0000
1000
0000
0000
0010
0000
0000
,
0110
0000
0000
0000
0000
0000
0011
0000
0000
0000
0010
0000
0000
0000
1000
0100
,
1000
0100
0000
0010
0000
0001
0000
0100
0000
0000
0000
0000
0000
0000
0000
0000
,
0010
0000
1000
0001
0000
0100
0000
0010
0000
0000
0100
0000
0000
0000
0000
0000
,
1001
0000
0000
0000
;

//---------------dance-single - ----------------
#NOTES:
     dance-single:
     :
     Easy:
     3:
     0.215,0.269,0.232,0.000,0.000,121.000,22.000,0.000,0.000,0.000,0.000,0.215,0.269,0.232,0.000,0.000,121.000,22.000,0.000,0.000,0.000,0.000:
0000
0000
0000
0000
,
0000
0000
0000
0000
,
0000
0000
0000
0000
,
0000
0000
0000
0000
,
0000
0000
0000
0000
,
1000
0000
0000
0100
,
0010
0000
0000
0001
,
0010
0000
0000
0100
,
1000
0000
0000
0010
,
0010
0000
0000
0100
,
0100
0000
0000
0001
,
0001
0000
0000
0100
,
0100
0000
0000
0010
,
0010
0000
0000
1000
,
1000
0000
0000
0100
,
0010
0000
0000
0001
,
1000
0100
1001
1001
,
0010
0000
0000
0100
,
0001
0000
0000
0001
,
1000
0000
0000
0010
,
0100
0000
0000
0001
,
0100
0000
0000
0010
,
0100
0000
0000
1000
,
0001
0000
0000
0010
,
0100
0000
0000
0100
,
0110
0000
0001
1000
,
1001
0010
0100
0010
,
0110
0001
0100
0001
,
0110
1000
1001
0110
,
0000
1000
0100
0010
,
1001
0001
1000
0010
,
0110
0000
0100
0010
,
0100
1000
0100
0010
,
0110
0010
0100
0010
,
1000
0100
0010
1001
,
0110
1000
0010
0100
,
0001
0100
0010
0100
,
1001
0100
0110
1000
,
1001
0100
0010
0100
,
0010
0100
1000
0100
,
0001
0000
0000
0000
,
1000
0000
0000
0000
,
0000
0000
0000
0010
,
0110
0000
1000
0000
,
0001
0000
1000
0000
,
0010
0100
0010
0000
,
1000
0001
1000
0000
,
1001
0000
0000
0000
,
0110
0000
0000
0000
,
1000
0100
0110
0000
,
0100
0001
1001
0000
,
1001
0000
0000
0000
;

//---------------dance-single - ----------------
#NOTES:
     dance-single:
     :
     Medium:
     5:
     0.319,0.322,0.369,0.000,0.095,177.000,35.000,0.000,0.000,0.000,0.000,0.319,0.322,0.369,0.000,0.095,177.000,35.000,0.000,0.000,0.000,0.000: // measure 1
0000
0000
0000
0000
,  // measure 2
0000
0000
0000
0000
,  // measure 3
0000
0000
0000
0000
,  // measure 4
0000
0000
0000
0000
,  // measure 5
0000
0000
0000
0000
,  // measure 6
1000
0000
0000
0000
0000
0000
0100
0000
0000
0000
0010
0000
0000
0010
0000
0000
,  // measure 7
0010
0000
0000
0000
0000
0000
0100
0000
0000
0000
0001
0000
0000
0001
0000
0000
,  // measure 8
0001
0000
0000
0000
0000
0000
0100
0000
0000
0000
0010
0000
0000
0010
0000
0000
,  // measure 9
0100
0000
0000
1000
0000
0000
0100
0000
,  // measure 10
0010
0000
0000
0000
0000
0000
0001
0000
0000
0000
0100
0000
0000
0100
0000
0000
,  // measure 11
0100
0000
0000
0000
0000
0000
0010
0000
0000
0000
1000
0000
0000
1000
0000
0000
,  // measure 12
0010
0000
0000
0000
0000
0000
0100
0000
0000
0000
0010
0000
0000
0010
0000
0000
,  // measure 13
0010
0100
1000
0100
,  // measure 14
0010
0000
0000
0000
0000
0000
0010
0000
0000
0000
0100
0000
0000
0100
0000
0000
,  // measure 15
0100
0000
0000
0000
0000
0000
0010
0000
0000
0000
0001
0000
0000
0001
0000
0000
,  // measure 16
0001
0000
0000
0000
0000
0000
0010
0000
0000
0000
1000
0000
0000
0001
0000
0000
,  // measure 17
0100
0010
1100
0101
,  // measure 18
0010
0000
0000
0000
0000
0000
0011
0000
0000
0000
0010
0000
0000
0100
0000
0000
,  // measure 19
1000
0000
0000
0000
0000
0000
1100
0000
0000
0000
1000
0000
0000
0010
0000
0000
,  // measure 20
0100
0000
0000
0000
0000
0000
0110
0000
0000
0000
0001
0000
0000
1000
0000
0000
,  // measure 21
0010
0100
0010
0100
,  // measure 22
0001
0000
0000
0000
0000
0000
0101
0000
0000
0000
0100
0000
0000
0010
0000
0000
,  // measure 23
1000
0000
0000
0000
0000
0000
1100
0000
0000
0000
0010
0000
0000
0100
0000
0000
,  // measure 24
0001
0000
0000
0000
0000
0000
0011
0000
0000
0000
0010
0000
0000
0100
0000
0000
,  // measure 25
1000
0100
0000
0010
,  // measure 26
0010
0000
0100
0010
,  // measure 27
0110
1000
0100
1000
,  // measure 28
1100
0010
0100
0010
,  // measure 29
0011
0010
0110
1100
,  // measure 30
1001
0010
0100
0010
,  // measure 31
0110
0010
0100
0010
,  // measure 32
1001
0000
1001
0011
,  // measure 33
0100
0010
0100
0010
,  // measure 34
0110
1000
0100
0010
,  // measure 35
0011
0010
0100
0010
,  // measure 36
0110
1000
0001
0100
,  // measure 37
0010
1000
0100
0100
,  // measure 38
0010
0001
0010
0001
0010
0001
0010
0001
,  // measure 39
0100
0100
1000
1100
,  // measure 40
0011
0100
0010
0100
,  // measure 41
1001
0000
0010
0010
,  // measure 42
0110
0000
1000
1000
,  // measure 43
1001
0000
0000
0010
,  // measure 44
0110
0000
0000
0000
0000
0000
1100
0000
0000
0000
0100
0000
0000
0100
0000
0000
,  // measure 45
0010
0000
0000
0011
0000
0010
0000
0000
,  // measure 46
0100
0010
0100
0000
,  // measure 47
0001
1000
0010
0100
,  // measure 48
1001
0000
0000
0000
0000
0000
0011
0000
0000
0000
0010
0000
0000
0010
0000
0000
,  // measure 49
0100
0000
0000
0000
0000
0000
1100
0000
0000
0000
1000
0000
0000
1000
0000
0000
,  // measure 50
0010
0100
0110
0000
,  // measure 51
0001
1000
1001
0000
,  // measure 52
1001
0000
0000
0000
;

//---------------dance-single - ----------------
#NOTES:
     dance-single:
     :
     Beginner:
     1:
     0.105,0.134,0.021,0.000,0.000,68.000,2.000,0.000,0.000,0.000,0.000,0.105,0.134,0.021,0.000,0.000,68.000,2.000,0.000,0.000,0.000,0.000:
0000
0000
0000
0000
,
0000
0000
0000
0000
,
0000
0000
0000
0000
,
0000
0000
0000
0000
,
0000
0000
0000
0000
,
1000
0000
0000
1000
,
1000
0000
0000
0010
,
0010
0000
0000
0001
,
0001
0000
0000
0000
,
0010
0000
0000
0010
,
0100
0000
0000
1000
,
1000
0000
0000
0001
,
0010
0000
0000
0000
,
0100
0000
0000
0010
,
0010
0000
0000
0001
,
0010
0000
0000
1000
,
0010
0000
0100
0100
,
0100
0000
0000
0001
,
0001
0000
0000
1000
,
1000
0000
0000
0010
,
0010
0000
0000
0000
,
0100
0000
0000
0001
,
0001
0000
0000
1000
,
0010
0000
0000
0100
,
0010
0000
0000
0000
,
1000
0000
0000
0000
,
0100
0000
0000
0000
,
0010
0000
0000
0000
,
1001
0000
0000
0000
,
1001
0000
0000
0000
,
0000
0000
0000
0000
,
0010
0000
0000
0000
,
0100
0000
0000
0000
,
0010
0000
0000
0000
,
1000
0000
0000
0000
,
0100
0000
0000
0000
,
0001
0000
0000
0000
,
0010
0000
0000
0000
,
0100
0000
0000
0000
,
1000
0000
0000
0000
,
0100
0000
0000
0000
,
0010
0000
0000
0000
,
0001
0000
0000
0100
,
0100
0000
0000
0000
,
0010
0000
0000
0000
,
1000
0000
0100
0000
,
0010
0000
0001
0000
,
1000
0000
0000
0000
,
0001
0000
0000
0000
,
0010
0000
0100
0000
,
1000
0000
0010
0000
,
0100
0000
0000
0000
;
