#TITLE:Genie In A Bottle;
#SUBTITLE:;
#ARTIST:Kyria;
#TITLETRANSLIT:;
#SUBTITLETRANSLIT:;
#ARTISTTRANSLIT:;
#GENRE:;
#CREDIT:;
#BANNER:Genie In A Bottle.png;
#BACKGROUND:Genie In A Bottle-bg.png;
#LYRICSPATH:;
#CDTITLE:.\CDTITLES\DDRMAX6.PNG;
#MUSIC:Genie In A Bottle.ogg;
#OFFSET:-0.020;
#SAMPLESTART:62.060;
#SAMPLELENGTH:15.000;
#SELECTABLE:YES;
#DISPLAYBPM:116.000;
#BPMS:0.000=116.000;
#STOPS:;
#BGCHANGES:;
#KEYSOUNDS:;

//---------------dance-single - ----------------
#NOTES:
     dance-single:
     :
     Easy:
     4:
     0.232,0.287,0.118,0.000,0.000,128.000,10.000,0.000,0.000,0.000,0.000,0.232,0.287,0.118,0.000,0.000,128.000,10.000,0.000,0.000,0.000,0.000:
0000
0000
0000
0000
,
0000
0000
0000
0000
,
0000
0000
0000
0000
,
0000
0000
0000
0000
,
1000
0100
0010
0001
,
1000
0100
0010
0001
,
1000
0100
0010
0001
,
1000
0100
0010
0001
,
1000
1000
0100
0100
,
0010
0010
0001
0001
,
0100
0100
0010
0010
,
1000
1000
0100
0100
,
0001
0001
0010
0010
,
0100
0100
1000
1000
,
0010
0010
0100
0100
,
0001
0001
0010
0010
,
0100
0000
0000
0000
,
0000
0000
0000
0000
,
0001
0010
0100
1000
,
0001
0010
0100
1000
,
0001
0010
0100
1000
,
0001
0010
0100
1000
,
1000
0100
0010
0001
,
1000
0100
0010
0001
,
1000
0100
0010
0001
,
1000
0100
0010
0001
,
1100
0110
0011
0110
,
1100
0100
0010
0100
,
0011
0110
1100
0110
,
0011
0010
0100
0010
,
1000
1000
0010
0010
,
0100
0100
0010
0010
,
0001
0001
0100
0100
,
0010
0010
0100
0100
,
1000
1000
0010
0010
,
0100
0100
0010
0010
,
0001
0001
0100
0100
,
0010
0010
0100
0000
;

//---------------dance-single - ----------------
#NOTES:
     dance-single:
     :
     Medium:
     6:
     0.308,0.309,0.271,0.118,0.000,150.000,23.000,10.000,0.000,0.000,0.000,0.308,0.309,0.271,0.118,0.000,150.000,23.000,10.000,0.000,0.000,0.000: // measure 1
0000
0000
0000
0000
,  // measure 2
0000
0000
0000
0000
,  // measure 3
0000
0000
0000
0000
,  // measure 4
0000
0000
0000
0000
,  // measure 5
1001
1001
0100
0100
,  // measure 6
1001
1001
0010
0010
,  // measure 7
1001
1001
0100
0100
,  // measure 8
1100
0101
0110
1001
,  // measure 9
2000
0001
3010
0001
,  // measure 10
0200
0010
0301
0010
,  // measure 11
1000
1100
0100
0110
,  // measure 12
0010
0000
0011
0000
1000
0010
0100
0010
,  // measure 13
0002
1000
0103
1000
,  // measure 14
0020
0100
1030
0001
,  // measure 15
0100
0110
1000
1010
,  // measure 16
1000
0000
1001
0000
0001
1000
0010
0001
,  // measure 17
0100
0000
0000
0000
,  // measure 18
0000
0000
0000
0000
,  // measure 19
0010
0100
0010
0100
0010
0100
0010
0000
,  // measure 20
0100
1000
0100
1000
0100
1000
0100
0000
,  // measure 21
1000
0100
0010
0001
,  // measure 22
1000
0010
0001
0100
,  // measure 23
0001
0010
0001
0010
0001
0010
0001
0000
,  // measure 24
0010
1000
0010
1000
0010
1000
0010
0000
,  // measure 25
0100
0010
0100
0010
,  // measure 26
0100
0010
0100
0100
,  // measure 27
2000
0001
0001
3001
,  // measure 28
0100
0000
0010
0000
1000
0001
1000
0001
,  // measure 29
0020
0100
0100
0130
,  // measure 30
1000
0000
0100
0000
0010
0100
0010
0100
,  // measure 31
0020
0100
1030
1000
,  // measure 32
0002
1000
0103
0100
,  // measure 33
0010
1010
0100
1100
,  // measure 34
0010
0000
1001
0000
0100
0010
0100
0010
,  // measure 35
0002
1000
0103
0100
,  // measure 36
0020
1000
0130
0100
,  // measure 37
1000
1001
1000
0101
,  // measure 38
1000
0011
1001
0000
;

//---------------dance-single - ----------------
#NOTES:
     dance-single:
     :
     Hard:
     9:
     0.525,0.530,0.000,0.141,0.571,300.000,0.000,12.000,0.000,0.000,0.000,0.525,0.530,0.000,0.141,0.571,300.000,0.000,12.000,0.000,0.000,0.000:
0000
0000
0000
0000
,
0000
0000
0000
0000
,
0000
0000
0000
0000
,
0000
0000
0000
0000
,
1000
0000
0100
0010
0100
0010
0100
0010
0100
0000
0010
0000
0100
0000
0010
0000
,
0001
0000
0100
0010
0100
0010
0100
0010
0100
0000
0010
0000
0100
0000
0010
0000
,
1000
0000
0100
0010
0100
0010
0100
0010
0100
0000
0001
0000
0100
0000
0010
0000
,
1000
0001
0100
0010
1000
0100
1000
0010
,
2000
0000
3010
0100
0010
0100
0010
0100
,
0002
0000
1003
0100
1000
0100
1000
0010
,
0200
0000
0000
0000
0301
0000
0010
0000
0001
0000
0010
0000
0100
0000
1000
0100
,
0000
1000
0000
0010
0100
0010
0100
0010
0100
0000
1000
0000
0100
0000
1000
0000
,
0002
0000
1003
0100
1000
0010
0100
0001
,
2000
0000
3010
0100
0010
0100
0001
1000
,
0002
0000
0000
0000
0103
0010
0100
0010
0100
0000
1000
0100
0000
0010
0000
0100
,
0000
0001
0000
1000
0001
1000
0001
1000
0001
0000
0100
0000
0010
0000
1000
0000
,
0100
0000
0000
0100
0000
0000
0010
0000
0000
0010
0100
0000
0010
0000
0100
0000
,
0010
0000
0000
0010
0000
0000
0001
0000
0000
1000
0010
0000
1000
0000
0010
0100
,
0010
0100
0000
1000
0000
0100
0000
0010
0000
0100
0000
0010
0000
0001
0000
0010
,
0000
0100
0000
0010
0000
1000
0000
0100
0000
0010
0000
0001
0000
0100
0010
0000
,
1000
0100
1000
0100
0000
0010
0000
0010
0001
0000
0100
0000
0010
1000
0010
1000
,
0000
0100
0000
0010
0100
0000
0010
0000
0000
0100
0000
0010
1000
0000
0001
1000
,
0001
0100
0001
0100
0000
0010
1000
0010
1000
0010
1000
0000
0100
0000
0010
0001
,
0000
0010
0000
0100
0000
1000
0010
1000
0010
1000
0010
1000
0000
0100
0010
0000
,
0100
0000
0010
0100
0000
1000
0100
0000
0010
0100
0010
0100
0000
0001
0100
0000
,
1000
0100
0000
0010
0001
0000
1000
0010
1000
0010
1000
0000
0100
0000
0010
0000
,
1000
0000
0000
1000
0000
0000
0001
0000
0000
0001
0000
0000
0100
0000
0000
0000
,
0010
0000
0100
0000
1000
0000
0100
0010
0100
0010
0100
0010
0100
0000
0001
0000
,
1000
0000
0000
1000
0000
0000
0010
0000
0000
0010
0000
0000
0100
0000
0010
0000
,
0001
0000
0010
0000
0010
0000
0100
1000
0100
1000
0100
1000
0100
0000
0010
0100
,
0020
0000
0031
0100
0010
0100
0010
0100
,
2000
0000
3100
0010
0100
0010
0100
0010
,
0002
0000
0000
0000
0013
0000
0100
0000
0010
0000
0100
0000
0010
0000
1000
0100
,
0000
1000
0000
0010
0100
0010
0100
0010
0100
0000
0010
0000
1000
0000
0100
0000
,
0020
0000
0031
0100
0010
0100
0010
1000
,
0200
0000
0310
0001
0010
0001
0010
0100
,
2000
0000
0000
0000
3100
0010
0100
0000
0010
0000
0001
0010
0000
0100
0000
1000
,
0000
0010
1000
0000
0001
0000
1000
0000
0010
0000
0000
0000
0000
0000
0000
0000
;

//---------------dance-single - ----------------
#NOTES:
     dance-single:
     :
     Beginner:
     1:
     0.121,0.132,0.000,0.000,0.000,72.000,0.000,0.000,0.000,0.000,0.000,0.121,0.132,0.000,0.000,0.000,72.000,0.000,0.000,0.000,0.000,0.000:
0000
0000
0000
0000
,
0000
0000
0000
0000
,
0000
0000
0000
0000
,
0000
0000
0000
0000
,
1000
1000
0000
0000
,
0010
0010
0000
0000
,
0100
0100
0000
0000
,
0001
0000
0000
0000
,
0010
0010
0000
0000
,
0100
0100
0000
0000
,
1000
1000
0000
0000
,
0010
0010
0000
0000
,
0001
0001
0000
0000
,
0100
0100
0000
0000
,
0010
0010
0000
0000
,
0100
0100
0000
0000
,
0010
0000
0000
0000
,
0000
0000
0000
0000
,
0100
0100
0100
0000
,
0100
0100
0100
0000
,
0010
0010
0010
0000
,
0001
1000
0000
0000
,
0010
0010
0010
0000
,
0100
0100
0100
0000
,
1000
0001
0000
0000
,
0001
1000
0000
0000
,
0010
0010
0010
0010
,
0010
0000
0000
0000
,
0100
0100
0100
0100
,
0100
0000
0000
0000
,
1000
1000
0000
0000
,
0010
0010
0000
0000
,
0100
0100
0000
0000
,
0001
0001
0000
0000
,
0010
0010
0000
0000
,
0100
0100
0000
0000
,
1000
1000
0000
0000
,
0010
0010
0010
0000
;
