#TITLE:Flying Witch;
#SUBTITLE:;
#ARTIST:DJ Sammy;
#TITLETRANSLIT:;
#SUBTITLETRANSLIT:;
#ARTISTTRANSLIT:;
#GENRE:;
#CREDIT:;
#BANNER:Flying Witch.png;
#BACKGROUND:Flying Witch-bg.png;
#LYRICSPATH:;
#CDTITLE:.\CDTITLES\DDRMAX6.PNG;
#MUSIC:Flying Witch.ogg;
#OFFSET:-0.020;
#SAMPLESTART:73.120;
#SAMPLELENGTH:15.000;
#SELECTABLE:YES;
#DISPLAYBPM:132.000;
#BPMS:0.000=132.000;
#STOPS:;
#BGCHANGES:;
#KEYSOUNDS:;

//---------------dance-single - ----------------
#NOTES:
     dance-single:
     :
     Easy:
     4:
     0.253,0.240,0.191,0.045,0.000,169.000,21.000,5.000,0.000,0.000,0.000,0.253,0.240,0.191,0.045,0.000,169.000,21.000,5.000,0.000,0.000,0.000:
0000
0000
0000
0000
,
0000
0000
0000
0000
,
0000
0000
0000
0000
,
0000
0000
0000
0000
,
1000
0100
0010
0010
,
0100
1000
0001
0001
,
0100
0010
1000
1000
,
0100
0010
0001
0001
,
0100
0010
1000
1000
,
0100
0010
0001
0001
,
0200
0000
0320
0000
,
0031
0010
0100
0110
,
1001
0010
0010
0010
,
0010
0100
0000
1100
,
0100
0100
0100
0100
,
0010
0010
0010
0010
,
0001
0010
0100
1000
,
1001
0000
0110
0000
,
0200
0000
0000
0000
,
0300
0010
0001
0010
,
0100
0000
0100
0000
,
0010
0000
0010
0000
,
0001
0000
0001
0000
,
0100
0000
0000
0100
,
0010
0001
0011
0000
,
0100
0010
0110
0000
,
0010
1000
1010
0000
,
1001
0000
0110
0000
,
1000
0001
0101
0000
,
0010
0100
1100
0000
,
0010
0100
0110
0000
,
1010
0000
0000
0000
,
0010
0001
1000
0000
,
0010
1000
0001
0000
,
0100
0010
0100
0000
,
0001
1000
1000
0000
,
0100
0001
0001
0000
,
0010
0100
0010
0000
,
1000
1000
0100
0000
,
0001
0010
0001
0000
,
0000
0010
0100
0010
,
0110
0000
0010
0000
,
1001
0001
1000
0001
,
0100
0010
0100
0010
,
1000
0001
0000
0001
,
1000
0010
1000
0010
,
0001
0100
0010
0100
,
1000
0100
0001
0010
,
0100
1000
0010
0100
,
1001
0000
0100
0000
,
0110
0010
0100
0010
,
1000
0100
1000
0100
,
0001
0000
0000
0000
,
1000
0010
0100
0010
,
1000
0100
0010
0000
,
0001
0010
0100
1000
,
1001
0000
0010
0100
,
0220
0000
0000
0330
,
0000
0010
0100
0110
;

//---------------dance-single - ----------------
#NOTES:
     dance-single:
     :
     Hard:
     8:
     0.463,0.454,0.236,0.100,0.232,320.000,26.000,11.000,0.000,0.000,0.000,0.463,0.454,0.236,0.100,0.232,320.000,26.000,11.000,0.000,0.000,0.000:
0000
0000
0000
0000
,
0000
0000
0000
0000
,
0000
0000
0000
0000
,
0000
0000
0000
0000
,
1000
0000
0001
0000
0000
0000
0010
0100
0010
0000
1000
0000
0000
0000
0010
0001
,
0010
0000
0100
0000
0000
0000
0010
0100
0010
0000
1000
0000
0000
0000
0100
0010
,
0100
0000
0001
0000
0000
0000
1000
0010
1000
0000
0100
0000
0000
0000
0010
0100
,
0010
0000
0100
0000
0000
0000
0001
1000
0001
0000
0100
0000
0000
0000
1000
0010
,
1000
0000
0100
0000
0000
0000
0010
0001
0000
0000
0100
0010
0100
0010
0100
0010
,
0100
0010
0100
0010
0100
0000
0000
0000
0010
0000
0000
0000
0001
0000
0000
0000
,
2000
0000
0000
0000
0100
0000
0000
0000
0100
0000
0000
0000
3001
0000
0010
0100
,
0010
0100
1000
0010
,
0100
0000
0010
0100
0000
0000
0010
0000
1000
0000
0100
0000
0010
0000
0001
1000
,
0000
0010
0200
0000
0000
0000
0000
0000
0310
0000
0000
0000
0001
0000
0010
0000
,
0001
0000
0000
0100
0000
0000
0010
0000
1000
0000
0000
0100
0000
0000
0010
0000
,
0001
0000
0000
0100
0000
0000
0010
0000
1000
0000
0000
0100
0000
0000
0000
0000
,
0010
0000
0000
0010
0000
0000
0010
0000
0100
0000
0000
0100
0000
0000
0002
0000
,
0000
0000
0000
0000
0003
0000
0000
0000
0010
0000
0000
0100
0000
0000
0020
0000
,
0000
0130
0110
0100
,
0000
0000
1000
0001
1000
0000
0010
0000
0100
0000
1000
0000
0010
0000
0001
0000
,
0001
0000
0010
0010
0000
0100
0000
1000
,
0000
1000
0001
0101
0000
1000
0010
1000
,
0001
0000
0000
0000
0110
0000
0000
1000
0100
0000
0000
0000
0010
0000
1001
0000
,
0000
0000
0100
0010
0100
0010
0000
0100
0000
1000
0000
0000
0010
0000
0001
0000
,
0011
0000
0010
0110
0000
0100
0000
1000
,
0000
0010
0100
1001
0000
0010
0100
0010
,
1000
0000
0000
0000
1100
0000
0000
0010
0001
0000
0000
0000
0010
0000
0100
0000
,
0000
0010
1000
0010
0000
0110
0110
0001
,
1000
0000
0010
0100
0000
0010
0000
1000
,
0000
0100
0010
0011
0000
0010
0100
1000
,
0010
0100
0001
1001
0000
0010
0100
0110
,
0000
1001
0001
0100
0000
0010
0100
0010
,
0100
0000
0010
0000
0011
0000
0010
0100
,
1000
0010
1000
0001
0000
0010
0100
0010
,
1000
0000
0110
0000
0001
0000
0010
0100
,
1000
0010
0100
0001
0000
0010
0110
0000
,
1000
0000
1001
0000
0001
0000
0010
0100
,
1000
0010
0100
0001
0000
0010
0110
0000
,
1000
0000
0011
0000
0010
0000
0100
0010
,
0001
0000
1000
0002
0000
0000
0003
0000
,
0000
0011
1100
0110
,
0002
0000
0000
0000
0100
0000
0000
0000
0100
0000
0000
0000
1003
0000
0010
0100
,
0010
1000
0001
0010
,
0100
0000
0010
0100
0000
0000
0001
0000
0010
0000
1000
0000
0001
0000
0100
0010
,
0000
1000
0002
0000
0000
0000
0000
0000
0103
0000
0000
0000
1000
0000
0100
0000
,
0010
0000
0000
0010
0000
0000
0010
0000
0001
0000
0000
0001
0000
0000
0001
0000
,
0100
0000
0000
0100
0000
0000
0100
0000
0010
0000
0000
0010
0000
0000
0000
0000
,
1000
0000
0001
1000
0000
0000
0010
0000
0100
0000
0000
0010
0000
0000
0001
0000
,
0100
0011
0101
1001
,
0020
0000
0100
0000
0031
0000
0000
0100
,
0010
0100
0010
1000
,
0001
0000
0000
0001
0000
0000
0100
0000
0010
0000
1000
0000
0100
0000
0010
0100
,
0000
0001
2000
0000
0000
0000
0000
0000
3001
0000
0000
0000
1000
0000
0000
0000
,
0010
0000
0100
0010
0000
0000
0100
0000
0001
0000
1000
0000
0010
0000
0100
0000
,
0001
0000
0000
0000
0100
0000
0010
0000
0001
1000
0001
0000
0000
0000
0000
0000
,
0100
0000
0000
0010
0000
0000
0100
0000
0010
0000
0000
0010
0000
0000
0002
0000
,
0000
0000
0000
0000
0003
0000
0000
0000
0100
0000
0000
0010
0000
0000
0200
0000
,
0000
0310
0001
0100
,
0000
0000
1000
0001
1000
0000
0010
0000
0100
0000
0001
0000
1000
0000
0000
0000
;

//---------------dance-single - ----------------
#NOTES:
     dance-single:
     :
     Medium:
     6:
     0.328,0.374,0.363,0.064,0.000,206.000,40.000,7.000,0.000,0.000,0.000,0.328,0.374,0.363,0.064,0.000,206.000,40.000,7.000,0.000,0.000,0.000:
0000
0000
0000
0000
,
0000
0000
0000
0000
,
0000
0000
0000
0000
,
0000
0000
0000
0000
,
1000
1000
0100
0100
,
0010
0010
0001
0001
,
0100
0100
0010
0010
,
0100
0100
0010
0010
,
1000
1000
0100
0100
,
0010
0011
1100
0110
,
2000
0000
0001
0000
3010
0000
0000
0100
,
0010
0100
1000
0100
,
0001
0010
0001
0100
,
0110
1001
0000
0100
,
0010
0010
1000
1000
,
0100
0100
0010
0010
,
0011
1010
0110
1001
,
0110
0000
1010
1010
,
0100
0010
0100
0010
,
0001
0000
0010
0000
0100
0010
0010
0000
,
0100
0000
0110
0000
,
0001
0000
1001
0000
,
0010
1000
0100
1000
,
0010
0100
0101
0000
,
0010
1000
0010
0100
,
0010
0100
0010
0100
,
0001
0001
0001
0001
,
1000
1000
1000
1000
,
0010
1000
0010
1000
,
0010
0100
0010
0100
,
0001
0001
0001
0001
,
0010
0010
0010
0010
,
1100
1100
1100
0010
,
0100
0010
0110
0000
,
0011
0011
0011
0010
,
0100
0010
0100
0000
,
1100
1100
1100
0010
,
0100
0010
0100
0000
,
0011
0011
0011
0010
,
0100
0010
2002
3003
,
0000
1100
0011
0110
,
2000
0000
0001
0000
3010
0000
0000
0001
,
1000
0010
0100
0001
,
1000
1000
0010
0010
,
0100
0001
0000
0010
,
0100
0100
1000
1000
,
0010
0010
0100
0100
,
0001
1000
0010
1000
,
0001
1001
0011
0101
,
2000
0000
0010
0000
3100
0000
0000
0001
,
0010
0100
1000
0010
,
1000
1000
0100
0100
,
0010
0001
0011
0000
,
0100
0100
0010
0010
,
1000
1000
0100
0000
,
0010
0100
0010
0100
,
0220
0330
1001
0101
,
0011
0010
0010
0010
,
1000
0000
0100
0000
0001
1000
0010
0000
;

//---------------dance-single - ----------------
#NOTES:
     dance-single:
     :
     Beginner:
     1:
     0.095,0.107,0.009,0.000,0.000,72.000,1.000,0.000,0.000,0.000,0.000,0.095,0.107,0.009,0.000,0.000,72.000,1.000,0.000,0.000,0.000,0.000: // measure 1
0000
0000
0000
0000
,  // measure 2
0000
0000
0000
0000
,  // measure 3
0000
0000
0000
0000
,  // measure 4
0000
0000
0000
0000
,  // measure 5
0010
0000
0010
0000
,  // measure 6
0010
0000
0010
0000
,  // measure 7
0010
0000
0010
0000
,  // measure 8
0010
0000
0010
0000
,  // measure 9
0010
0000
0010
0000
,  // measure 10
0000
0000
0000
0000
,  // measure 11
0100
0000
0000
0000
,  // measure 12
0010
0000
0000
0000
,  // measure 13
0001
0000
0000
0000
,  // measure 14
0010
0000
0000
0000
,  // measure 15
1000
0000
0000
0000
,  // measure 16
0100
0000
0000
0000
,  // measure 17
0010
0000
0000
0000
,  // measure 18
0001
0000
0000
0000
,  // measure 19
1000
0000
0000
0000
,  // measure 20
0000
0000
0000
0000
,  // measure 21
0010
0000
0010
0000
,  // measure 22
0010
0000
0010
0000
,  // measure 23
0001
0000
1000
0000
,  // measure 24
0010
0000
0000
0000
,  // measure 25
0100
0000
0100
0000
,  // measure 26
0100
0000
0100
0000
,  // measure 27
0010
0000
1000
0000
,  // measure 28
0100
0000
0000
0000
,  // measure 29
0001
0000
0001
0000
,  // measure 30
0001
0000
0001
0000
,  // measure 31
1000
0000
0010
0000
,  // measure 32
0100
0000
0000
0000
,  // measure 33
0010
0000
0000
0000
,  // measure 34
0000
0000
0000
0000
,  // measure 35
0100
0000
0000
0000
,  // measure 36
0000
0000
0000
0000
,  // measure 37
1000
0000
0000
0000
,  // measure 38
0000
0000
0000
0000
,  // measure 39
0001
0000
0000
0000
,  // measure 40
0000
0000
0000
0000
,  // measure 41
0000
0000
0000
0000
,  // measure 42
0010
0000
0000
0000
,  // measure 43
0100
0000
0000
0000
,  // measure 44
1000
0000
0010
0000
,  // measure 45
0100
0000
0000
0000
,  // measure 46
0010
0000
1000
0000
,  // measure 47
0010
0000
0100
0000
,  // measure 48
0001
0000
0010
0000
,  // measure 49
0100
0000
0000
0000
,  // measure 50
1000
0000
0000
0000
,  // measure 51
0010
0000
0000
0000
,  // measure 52
0100
0000
0100
0000
,  // measure 53
0001
0000
0000
0000
,  // measure 54
0010
0000
0010
0000
,  // measure 55
0100
0000
0100
0000
,  // measure 56
1000
0000
0010
0000
,  // measure 57
0100
0000
0010
0000
,  // measure 58
0001
0000
0000
0000
,  // measure 59
1000
0000
0000
1001
;
