#TITLE:Fairy Reflection;
#SUBTITLE:;
#ARTIST:Ryu☆;
#TITLETRANSLIT:;
#SUBTITLETRANSLIT:;
#ARTISTTRANSLIT:;
#GENRE:;
#CREDIT:;
#BANNER:Fairy Reflection.png;
#BACKGROUND:Fairy Reflection-bg.png;
#LYRICSPATH:;
#CDTITLE:.\CDTITLES\Konami Original.PNG;
#MUSIC:Fairy Reflection.ogg;
#OFFSET:-0.040;
#SAMPLESTART:34.740;
#SAMPLELENGTH:15.000;
#SELECTABLE:YES;
#DISPLAYBPM:158.000;
#BPMS:0.000=158.000;
#STOPS:;
#BGCHANGES:;
#KEYSOUNDS:;

//---------------dance-single - ----------------
#NOTES:
     dance-single:
     :
     Hard:
     9:
     0.591,0.567,0.433,0.243,0.178,456.000,57.000,32.000,0.000,0.000,0.000,0.591,0.567,0.433,0.243,0.178,456.000,57.000,32.000,0.000,0.000,0.000:
0000
0000
0000
0000
,
0000
0000
0000
0000
,
0000
0000
0000
0000
,
0000
0000
0000
0000
,
0000
0000
0000
0000
,
0020
0000
0000
0000
0030
0000
0100
0000
1000
0100
0000
1000
0000
0010
1000
0000
,
0200
0000
0000
0000
0300
0000
0010
0000
0001
0010
0000
0100
0000
1000
0001
0000
,
0200
0000
0000
0000
0300
0000
0010
0000
1000
0001
0000
1000
0000
0010
0100
0000
,
0001
0000
0010
0000
0001
0000
0100
0000
0001
0000
0100
0000
0010
0100
0010
0100
,
0020
0000
0000
0000
0030
0000
1000
0000
0100
0010
0000
1000
0000
0001
0100
0000
,
0020
0000
0000
0000
0030
0000
1000
0000
0100
0010
0000
0100
0000
0001
1000
0000
,
0002
0000
0000
0000
0003
0000
0100
0000
0010
1000
0000
0010
0000
0100
0001
0000
,
1000
0000
0010
0000
0100
0000
0001
0000
1000
0001
1000
0000
0000
0000
0000
0000
,
0020
0000
0030
0100
0010
0001
0010
0100
,
0002
0000
0003
1000
0010
0100
0001
1000
,
0020
0000
0030
0100
1000
0010
0100
0001
,
0100
1000
0100
1000
0100
0010
0100
0001
,
2000
0000
3000
0010
0100
0001
1000
0010
,
0200
0000
0300
0001
0100
0010
1000
0100
,
0020
0000
0030
0100
1000
0010
0100
0001
,
0010
0100
1000
0010
0100
0001
0000
0000
,
2000
0000
3000
0000
0100
0010
0100
0010
,
0200
0000
0000
0000
0300
0000
0000
0100
,
0010
0000
0000
0010
0000
0000
0100
0000
0000
0000
1000
0000
0000
0000
1100
0000
,
0000
0010
0011
0000
0100
0010
0110
0000
,
1100
0000
0000
0011
0000
0000
0101
0000
,
0000
0010
1000
0100
1000
0010
0100
0001
,
1000
0000
0000
1000
0000
0000
0010
0000
0000
0000
0100
0000
0000
0000
0010
0000
,
0000
0011
0000
0000
0000
0000
0011
0000
,
1010
1100
0000
0220
,
0330
2002
3003
0011
,
0100
0000
1000
0100
0010
0000
0100
1001
,
0000
0000
0010
0100
0010
1000
0100
0001
,
0011
0000
1000
0000
1010
0000
0100
0010
,
0000
1000
0100
0010
0001
1000
0010
0100
,
0001
1000
0000
0010
0000
0110
0000
0001
,
0000
1001
0000
0110
0000
0011
0000
1100
,
0000
0010
1000
0100
1000
0010
1000
0100
,
0010
0001
0100
0010
1000
0001
0000
0000
,
1010
0110
0011
0110
,
1010
0011
0110
1100
,
0100
0001
0010
0100
0000
1000
0000
0010
,
1000
0100
1000
0010
0100
0001
0010
1000
,
0000
1010
0000
0010
0000
0100
0010
0011
,
0000
0100
0000
0110
0000
1000
0000
1100
,
0000
0010
0100
1000
0100
0010
0100
1000
,
0100
0010
0100
1000
0100
0010
0100
1000
,
0101
0011
0110
1100
,
0110
0011
0110
1010
,
0110
0000
1000
0000
0001
1000
0010
0100
,
0000
0010
0100
1000
0100
0010
0100
0001
,
1000
1010
0000
0100
0000
0110
0000
0001
,
0000
0010
0000
0110
0000
1001
0000
0110
,
0000
1000
0100
0010
0001
1000
0100
0010
,
0001
0100
0001
0010
0100
1000
0100
0010
,
1000
0000
0000
0000
0001
0000
0100
0000
0010
0000
0000
1000
0000
0000
0100
0000
,
0000
0010
0100
0110
0000
0001
1000
1001
,
0000
0010
0100
1000
0100
0001
0010
0110
,
0000
1000
0000
1100
0000
0001
0000
0101
,
0000
0010
1000
0100
1000
0010
0100
0001
,
0000
0011
0000
0100
0000
1100
0000
0110
,
0000
1001
0000
0010
1000
0100
1000
0010
,
0100
0000
0001
0000
0100
0000
0010
0000
1000
0000
0000
0100
0000
0000
0001
0000
,
0000
1000
0000
0000
0000
0000
0000
0001
,
0100
0000
0010
0000
0000
1000
0000
0000
0001
0000
0000
0000
0100
0000
0001
0000
,
2000
0000
0000
0000
3000
0000
0100
0000
0010
0001
0000
1000
0000
0010
0100
0000
,
0002
0000
0000
0000
0003
0000
0100
0000
0010
1000
0000
0001
0000
0100
0010
0000
,
2000
0000
0000
0000
3000
0000
0100
0000
0010
0001
0000
0100
0000
0010
1000
0000
,
0100
0000
0010
0000
1000
0000
0001
0000
0100
0000
0010
0000
1000
0001
1000
0001
,
2000
0000
0000
0000
3000
0000
0010
0000
0100
0001
0000
0100
0000
0010
1000
0000
,
0002
0000
0000
0000
0003
0000
0100
0000
0010
1000
0000
0010
0000
0100
0001
0000
,
0020
0000
0000
0000
0030
0000
1000
0000
0100
0010
0000
0100
0000
0001
1000
0000
,
0010
0000
0100
0000
1000
0000
0001
0000
1000
0001
1000
0000
0000
0000
0000
0000
,
0020
0000
0030
0100
0001
0010
0100
1000
,
0002
0000
0003
0010
0100
1000
0010
0100
,
0020
0000
0030
1000
0100
0010
0001
1000
,
0100
0001
0010
0100
1000
0010
0100
0001
,
2000
0000
3000
0100
0010
1000
0001
0100
,
0020
0000
0030
0100
1000
0010
0100
0001
,
0020
0000
0030
0100
1000
0010
0100
0001
,
0010
0100
1000
0010
0100
0001
0000
0000
,
2000
0000
3000
0000
0100
0001
0010
1000
,
0020
0000
0030
0000
,
1001
0000
0000
0000
;

//---------------dance-single - ----------------
#NOTES:
     dance-single:
     :
     Easy:
     4:
     0.278,0.315,0.023,0.061,0.000,245.000,3.000,8.000,0.000,0.000,0.000,0.278,0.315,0.023,0.061,0.000,245.000,3.000,8.000,0.000,0.000,0.000:
0000
0000
0000
0000
,
0000
0000
0000
0000
,
0000
0000
0000
0000
,
0000
0000
0000
0000
,
0000
0000
0000
0000
,
1000
0000
1000
1000
,
0010
0000
0010
0010
,
0001
0000
0001
0001
,
0100
0100
0010
0010
,
1000
0000
1000
1000
,
0100
0000
0100
0100
,
0010
0000
0010
0010
,
0001
0001
0100
0100
,
0010
0000
0010
0010
,
0100
0000
1000
1000
,
0100
0000
0100
0100
,
0010
0010
0001
0001
,
1000
0000
0010
0010
,
0100
0000
0100
0100
,
0001
0000
0001
0001
,
1000
1000
0010
0010
,
0100
0000
0010
0010
,
0010
0000
0000
0000
,
0100
0100
0100
0000
,
0010
0010
0010
0000
,
1000
1000
1000
0000
,
0100
0100
0100
0000
,
0001
0001
0001
0000
,
0010
0010
0010
0000
,
0100
0100
0100
0000
,
0010
0010
0010
0000
,
0100
0100
0100
0000
,
1000
1000
1000
0000
,
0010
0010
0010
0000
,
0100
0100
0100
0000
,
0001
0001
0001
0000
,
0010
0010
0010
0000
,
0100
0001
1000
0000
,
0010
1000
0100
0000
,
0020
0031
2000
3100
,
0020
0130
0002
1003
,
0010
1000
0001
1000
,
0010
0100
0110
0000
,
1000
0100
0010
0000
,
0010
0001
0100
0000
,
0010
1000
0100
0000
,
1000
0100
0001
0010
,
0002
0013
0200
1300
,
0020
0130
0002
1003
,
0100
0010
0001
1000
,
0010
0100
0110
0000
,
1000
1000
0100
0000
,
0010
0010
0001
0000
,
0100
0100
0001
0000
,
1000
0010
1000
0100
,
1000
0000
0100
0100
,
0010
0010
0001
1000
,
0010
0000
0100
0100
,
0001
0001
1000
0010
,
1000
0000
0100
0100
,
0001
0000
0001
0001
,
1000
0000
0010
0000
,
0100
0000
0001
0000
,
0010
0010
0000
0000
,
0100
0000
0100
0000
,
0010
0000
1000
1000
,
0100
0000
0100
0100
,
0001
0000
0001
0001
,
0010
0010
0100
0100
,
1000
0000
0010
0010
,
0100
0000
0001
0001
,
0100
0000
0010
0010
,
1000
1000
0100
0100
,
0010
0000
0010
0010
,
0010
0000
0100
0100
,
0100
0000
1000
1000
,
0100
0100
0001
0001
,
1000
0000
0010
0010
,
0100
0000
0001
0001
,
1000
0000
0010
0010
,
0100
0100
0001
0001
,
1000
0000
0010
1000
,
0001
0000
0000
0000
,
1001
0000
0000
0000
;

//---------------dance-single - ----------------
#NOTES:
     dance-single:
     :
     Beginner:
     1:
     0.170,0.157,0.015,0.000,0.000,155.000,2.000,0.000,0.000,0.000,0.000,0.170,0.157,0.015,0.000,0.000,155.000,2.000,0.000,0.000,0.000,0.000:
0000
0000
0000
0000
,
0000
0000
0000
0000
,
0000
0000
0000
0000
,
0000
0000
0000
0000
,
0000
0000
0000
0000
,
1000
0000
1000
0000
,
1000
0000
1000
0000
,
0010
0000
0010
0000
,
0010
0000
0010
0000
,
0001
0000
0001
0000
,
0001
0000
0001
0000
,
0100
0000
0100
0000
,
0100
0000
0010
0000
,
0110
0000
0010
0000
,
0100
0000
0100
0000
,
0010
0000
0010
0000
,
0001
0000
0001
0000
,
1000
0000
1000
0000
,
0010
0000
0010
0000
,
0100
0000
0100
0000
,
0001
0000
0001
0000
,
0010
0000
0100
0100
,
0100
0000
0000
0000
,
0010
0000
0010
0000
,
0100
0000
0100
0000
,
0001
0000
0001
0000
,
0100
0000
0100
0000
,
0010
0000
0010
0000
,
1000
0000
1000
0000
,
0100
0000
0100
0000
,
0010
0000
0010
0000
,
0001
0000
1000
0000
,
0010
0000
0010
0000
,
1000
0000
0001
0000
,
0010
0000
0010
0000
,
0100
0000
0001
0000
,
0010
0000
0010
0000
,
1000
0000
0100
0000
,
1000
0000
0000
0000
,
0100
0100
0100
0000
,
0010
0010
0010
0000
,
0001
0000
0001
0000
,
1000
0000
1000
0000
,
0010
0000
0010
0000
,
0100
0000
0100
0000
,
0001
0000
0001
0000
,
0010
0000
0010
0000
,
0100
0100
0100
0000
,
0010
0010
0010
0000
,
1000
0000
1000
0000
,
0001
0000
0001
0000
,
0100
0000
0100
0000
,
1000
0000
1000
0000
,
0010
0000
0100
0000
,
0001
0000
0000
0000
,
0010
0000
0010
0000
,
0100
0000
0100
0000
,
0001
0000
0001
0000
,
1000
0000
1000
0000
,
0010
0000
0010
0000
,
0100
0000
0100
0000
,
0010
0000
0000
0000
,
0001
0000
0000
0000
,
1000
0000
0000
0000
,
0001
0000
0000
1000
,
0001
0000
0001
0000
,
0100
0000
0100
0000
,
0010
0000
0010
0000
,
0100
0000
0100
0000
,
0010
0000
0010
0000
,
1000
0000
1000
0000
,
0100
0000
0100
0000
,
0010
0000
0010
0000
,
1001
0000
1000
0000
,
0100
0000
0100
0000
,
0010
0000
0010
0000
,
0001
0000
0001
0000
,
0100
0000
0100
0000
,
0010
0000
0010
0000
,
0100
0000
0100
0000
,
0010
0000
0010
0000
,
0100
0000
0010
0000
,
0100
0000
0000
0000
,
0010
0000
0000
0000
;

//---------------dance-single - ----------------
#NOTES:
     dance-single:
     :
     Medium:
     6:
     0.362,0.409,0.341,0.068,0.004,280.000,45.000,9.000,0.000,0.000,0.000,0.362,0.409,0.341,0.068,0.004,280.000,45.000,9.000,0.000,0.000,0.000: // measure 1
0000
0000
0000
0000
,  // measure 2
0000
0000
0000
0000
,  // measure 3
0000
0000
0000
0000
,  // measure 4
0000
0000
0000
0000
,  // measure 5
0000
0000
0000
0000
,  // measure 6
1000
0000
1000
0100
,  // measure 7
1100
0000
0010
0001
,  // measure 8
0011
0000
0010
0100
,  // measure 9
0010
0010
0001
0001
,  // measure 10
0100
0000
0100
0010
,  // measure 11
0110
0000
1000
0001
,  // measure 12
1001
0000
0010
0010
,  // measure 13
1000
0100
1000
0010
,  // measure 14
0100
0000
0010
0100
,  // measure 15
0110
0000
0001
1000
,  // measure 16
1001
0000
0010
0010
,  // measure 17
0100
0100
0001
0001
,  // measure 18
1000
0000
0010
0001
,  // measure 19
0011
0000
0010
0100
,  // measure 20
0110
0000
1000
0100
,  // measure 21
0010
0010
0001
0001
,  // measure 22
0100
0000
0000
0000
1000
0001
1000
0001
,  // measure 23
2000
0000
3000
0000
,  // measure 24
0010
0100
0010
0100
,  // measure 25
0010
0100
0010
0100
,  // measure 26
0010
0100
0010
0100
,  // measure 27
0010
0100
0010
0100
,  // measure 28
0001
1000
0001
1000
,  // measure 29
0001
1000
0001
1000
,  // measure 30
0001
1000
0001
1000
,  // measure 31
0010
0010
0010
0010
,  // measure 32
0100
0001
0100
0001
,  // measure 33
0100
0001
0100
0001
,  // measure 34
0100
0001
0100
0001
,  // measure 35
0100
0001
0100
0001
,  // measure 36
1001
1000
0001
1000
,  // measure 37
0001
1000
0001
1000
,  // measure 38
0101
0010
0110
1000
,  // measure 39
0010
0110
1001
0000
,  // measure 40
2000
3100
0020
0031
,  // measure 41
0200
0310
2000
3100
,  // measure 42
0010
0101
0011
0010
,  // measure 43
0100
0000
1100
0000
0110
0000
0010
0010
,  // measure 44
0000
0100
0000
0010
0000
0000
0100
0100
,  // measure 45
0000
0010
0000
1000
0000
0100
0000
1001
,  // measure 46
0000
0100
0010
0010
,  // measure 47
0001
0001
0100
1000
,  // measure 48
0020
1030
0002
0103
,  // measure 49
0020
1030
0200
0301
,  // measure 50
1000
0000
1100
0000
0011
0000
0100
0100
,  // measure 51
0000
0010
0000
1000
0000
0100
0000
1000
,  // measure 52
0001
1000
0000
0010
0000
1000
0000
1100
,  // measure 53
0000
0110
0000
0011
0000
0101
0000
0110
,  // measure 54
0000
1000
0100
0001
,  // measure 55
0010
0100
1100
0110
,  // measure 56
0001
0000
0000
0000
1000
0000
0100
0010
,  // measure 57
0001
0000
0000
0000
1000
0000
0010
0100
,  // measure 58
0010
0000
0000
0000
1000
0000
0010
0001
,  // measure 59
0010
0000
0000
0000
0001
0000
0100
0010
,  // measure 60
1000
0000
0000
0000
1001
0000
1000
1000
,  // measure 61
0000
0100
0000
0001
0000
0010
0000
0100
,  // measure 62
0000
1001
0000
0000
0010
0000
0010
0000
,  // measure 63
0100
0100
0010
1000
,  // measure 64
1001
0000
0000
0000
0000
0000
0000
0010
,  // measure 65
0100
0000
0010
0000
0000
0010
0000
0000
0100
0000
0000
0000
0000
0000
0000
0000
,  // measure 66
1100
0000
0010
0010
,  // measure 67
0011
0000
0010
0010
,  // measure 68
0110
0000
0100
0100
,  // measure 69
0010
0100
0010
0100
,  // measure 70
1001
0000
0001
0001
,  // measure 71
0011
0000
0100
0100
,  // measure 72
0110
0000
1000
1000
,  // measure 73
0100
0001
0010
0100
,  // measure 74
0100
0000
0010
0001
,  // measure 75
0011
0000
0010
1000
,  // measure 76
1010
0000
0010
0010
,  // measure 77
0100
0001
1000
0010
,  // measure 78
0100
0000
0001
0100
,  // measure 79
0101
0000
0010
1000
,  // measure 80
1010
0000
0100
0010
,  // measure 81
0001
0010
0100
1000
,  // measure 82
1001
0000
1010
0101
,  // measure 83
0110
0000
0000
0000
,  // measure 84
1001
0000
0000
0000
;
