#TITLE:Everything Burns;
#SUBTITLE:;
#ARTIST:DJ Extacy featuring Ben Moody And Anastacia;
#TITLETRANSLIT:;
#SUBTITLETRANSLIT:;
#ARTISTTRANSLIT:;
#GENRE:;
#CREDIT:;
#BANNER:Everything Burns.png;
#BACKGROUND:Everything Burns-bg.png;
#LYRICSPATH:;
#CDTITLE:.\CDTITLES\DDRMAX6.PNG;
#MUSIC:Everything Burns.ogg;
#OFFSET:0.020;
#SAMPLESTART:62.480;
#SAMPLELENGTH:15.000;
#SELECTABLE:YES;
#DISPLAYBPM:140.000:280.000;
#BPMS:0.000=140.000,80.000=280.000,208.000=140.000,212.000=280.000,340.000=140.000;
#STOPS:;
#BGCHANGES:0.000=Everything Burns.avi=1.000=0=0=1=====,
377.000=Everything Burns-bg.png=1.000=0=0=1=====,
99999=-nosongbg-=1.000=0=0=0 // don't automatically add -songbackground-
;
#KEYSOUNDS:;

//---------------dance-single - ----------------
#NOTES:
     dance-single:
     :
     Hard:
     10:
     0.914,1.000,1.000,0.056,0.607,568.000,111.000,6.000,0.000,0.000,0.000,0.914,1.000,1.000,0.056,0.607,568.000,111.000,6.000,0.000,0.000,0.000:
0000
0000
0000
0000
,
0000
0000
0000
0000
,
0010
0000
0100
0010
0000
0010
0100
0010
0100
0000
0010
0001
0000
0001
1000
0001
,
1000
0000
0010
1000
0000
1000
0100
1000
0100
0000
0010
0100
0000
0010
0001
0010
,
0001
0000
0010
0100
0000
1000
0010
1000
0010
0000
0100
0010
0000
0001
0100
0001
,
0100
0000
0010
1000
0000
0001
1000
0001
1000
0000
0010
0100
0000
0001
0100
0001
,
0100
0000
0010
0000
0100
0010
0000
0010
1000
0000
0010
1001
0000
0100
0010
0100
,
0010
0000
1000
0000
0001
0100
0000
0010
1010
0000
0100
0110
0000
0001
1000
0001
,
1000
0000
0010
0000
0100
1001
0000
0010
0100
0000
0010
0011
0000
0100
0010
0100
,
0010
0000
1000
0000
0100
1100
0000
0010
0110
0000
0001
1000
0000
0010
0100
0010
,
0100
0000
0010
0000
0001
0010
0000
0100
0110
0000
1000
1001
0000
0010
0100
0010
,
0100
0000
0010
0000
1000
0001
0000
0010
0101
0000
0010
1100
0000
0010
0100
0010
,
0100
0000
0010
0000
1000
1000
0000
0100
0110
0000
0001
0101
0000
0010
0100
0010
,
0100
0000
1000
0000
0010
0100
0000
0010
1001
0000
0100
0110
0000
1000
0001
1000
,
0001
0000
0100
0000
0010
1001
0000
0010
0110
0000
0001
1001
0000
0100
0010
0100
,
0010
0000
1000
0000
0010
0110
0000
0010
0011
0000
0010
1100
0000
0010
0100
0010
,
0100
0000
0001
0000
1000
1010
0000
0010
0110
0000
0001
1001
0000
0010
0100
0010
,
0100
0000
0010
0000
1000
1010
0000
0010
0110
0000
0001
1001
0000
0010
0100
0000
,
2002
0000
0000
0000
,
3003
0000
0000
0000
0000
0000
0000
0000
0100
0010
0000
0100
0000
0010
0100
0000
,
0010
0000
0100
1000
0000
0010
1010
0000
,
0110
0000
0000
0011
0000
0000
0101
0000
,
0110
0000
0000
1010
0000
0000
0010
0100
,
1000
0000
0000
0010
0000
0000
0100
0000
,
1001
0000
0010
0100
0000
1000
0010
0000
,
0110
0000
0000
0110
0000
0100
0010
0000
,
0010
0000
0000
0011
0000
0000
0100
0000
,
0010
1000
0000
0100
0000
1000
1001
0000
,
0010
0000
0100
0010
0000
0001
1000
0000
,
0010
0000
0000
0011
0000
0000
0110
0000
,
1100
0000
0000
0100
0000
0000
0010
0001
,
0100
0000
0000
0010
0000
0000
0100
0000
,
0110
0000
1000
0010
0000
0010
1001
0000
,
0110
0000
0000
0011
0000
0010
0100
0000
,
1100
0000
0000
0110
0000
0000
1001
0000
,
0010
0110
0000
1000
0000
0001
0100
0000
,
0010
0000
0100
0010
0000
1000
1001
0000
,
0110
0000
0000
0011
0000
0000
1100
0000
,
0110
0000
0000
0011
0000
0000
1000
0010
,
1000
0000
0000
0100
0000
0000
0010
0000
,
1001
0000
0100
0010
0000
0010
1001
0000
,
1100
0000
0000
1010
0000
0100
0010
0000
,
0011
0000
0000
0110
0000
0000
1100
0000
,
0010
0100
0000
0010
0000
1000
1001
0000
,
0010
0000
0100
0010
0000
0100
0110
0000
,
1001
0000
0000
0011
0000
0000
0100
0000
,
0110
0000
0000
1010
0000
0000
0100
0010
,
1000
0000
0000
0100
0000
0000
1001
0000
,
0010
0000
0100
0010
0000
0010
0011
0000
,
0100
0000
0000
0110
0000
0010
1000
0000
,
1100
0000
0000
0100
0000
0000
0011
0000
,
0001
0100
0000
0010
0000
1000
0001
0000
,
2002
0000
0000
0000
3003
0000
0000
0000
0100
0000
0000
0010
0000
0000
0100
0000
,
0010
0000
0010
0110
0000
1000
1001
0000
,
0010
0000
0010
0011
0000
0100
0110
0000
,
1000
0000
0010
0110
0000
1000
0100
1000
,
0010
0000
0100
0010
0000
0010
0011
0000
,
0010
0000
1000
0010
0000
1000
1010
0000
,
0100
0000
0010
0110
0000
0010
1001
0000
,
0100
0000
0010
1000
0000
0010
1001
0000
,
0100
0010
0000
0100
0000
0010
0110
0000
,
1000
0000
0100
0110
0000
0010
0011
0000
,
0100
0000
0010
0100
0000
1000
0100
0000
,
0010
0000
0010
0011
0000
0100
0010
0100
,
1000
0000
0010
0100
0000
0100
0110
0000
,
1000
0000
0010
0110
0000
0010
0011
0000
,
0100
0000
0010
0110
0000
1000
1001
0000
,
0100
0000
0010
1001
0000
0100
0110
0000
,
1000
0010
0000
1000
0000
0100
1000
0000
,
0010
0000
0100
0110
0000
0010
0011
0000
,
0100
0000
0010
1010
0000
0100
0110
0000
,
0010
0000
1000
0001
0000
1000
0010
0000
,
0100
0000
0010
1000
0000
0001
0100
0000
,
0010
0000
0100
0110
0000
1000
1001
0000
,
0010
0000
0100
0010
0000
1000
0100
0000
,
0010
0000
0100
0010
0000
1000
0001
0000
,
1000
1010
0000
0010
0000
0100
0010
0000
,
1000
0000
0100
0010
0000
1000
0001
0000
,
0100
0000
0010
1001
0000
0100
0110
0000
,
0010
0000
1000
1010
0000
0010
0110
0000
,
0001
0000
1000
0010
0000
0100
0001
0000
,
0010
0000
0100
0010
0000
0100
1100
0000
,
0010
0000
0100
0010
0000
1000
0001
0000
,
0010
0000
1000
0100
0000
0010
0100
0000
,
1000
0010
0000
1000
0000
0001
0100
0000
,
0010
0000
0100
0010
0000
0100
0010
0100
0010
0000
1000
0001
0000
1000
0001
1000
,
0001
0000
0010
0100
0000
0010
0100
0010
0100
0000
1000
0001
0000
1000
0001
1000
,
0001
0000
0100
0010
0000
1000
0010
1000
0010
0000
0100
0010
0000
0100
0010
0100
,
0010
0000
0001
1000
0000
0001
1000
0000
1000
0100
0000
0010
0000
0100
0110
0000
,
1000
0000
0001
0100
0000
0010
0100
0010
0100
0000
1000
0010
0000
0100
0010
0100
,
0010
0000
0001
1000
0000
0010
0100
0010
0100
0000
1000
0010
0000
0100
0010
0100
,
0010
0000
1000
0100
0000
0010
0100
0010
0100
0000
0001
0100
0000
0010
0100
0010
,
0100
0000
1000
0010
0000
0100
0010
0000
0220
0000
0000
0000
0330
0000
0000
0000
,
1001
0000
0000
0000
;

//---------------dance-single - ----------------
#NOTES:
     dance-single:
     :
     Easy:
     6:
     0.463,0.521,0.906,0.112,0.000,238.000,97.000,12.000,0.000,0.000,0.000,0.463,0.521,0.906,0.112,0.000,238.000,97.000,12.000,0.000,0.000,0.000:
0000
0000
0000
0000
,
0000
0000
0000
0000
,
0020
1000
0130
0001
,
2000
0001
3010
0100
,
2000
0010
3100
0010
,
2000
0001
3010
0100
,
0002
1000
0103
1000
,
0020
0100
1030
0001
,
0200
0010
0301
1000
,
0020
0100
1030
0001
,
1000
1000
1000
1100
,
0010
0010
0010
0011
,
0010
0010
0010
0110
,
0100
0100
0100
1100
,
0100
0100
0100
0110
,
0001
0001
0001
0011
,
0100
0100
0100
0110
,
1000
1000
1000
1100
,
0220
0000
0330
0000
,
0000
0000
1010
0011
,
0100
0000
0001
0000
,
0101
0000
1010
0000
,
0100
0000
0010
0000
,
0110
0000
1010
0000
,
0100
0000
0010
0000
,
0011
0000
0110
0000
,
1000
0000
0010
0000
,
0110
0000
0011
0000
,
0100
0000
0010
0000
,
0110
0000
1010
0000
,
0100
0000
0010
0000
,
0110
0000
0011
0000
,
0100
0000
0010
0000
,
1010
0000
0110
0000
,
0001
0000
0100
0000
,
0110
0000
1010
0000
,
0100
0000
0010
0000
,
0110
0000
0011
0000
,
0010
0000
0100
0000
,
0110
0000
0110
0000
,
1000
0000
0010
0000
,
0011
0000
0011
0000
,
0100
0000
0010
0000
,
0110
0000
0110
0000
,
1000
0000
0010
0000
,
0110
0000
0110
0000
,
0001
0000
1000
0000
,
1001
0000
1001
0000
,
0010
0000
0100
0000
,
0110
0000
0110
0000
,
1000
0000
0010
0000
,
0100
0000
0001
0000
,
0022
0033
1100
0110
,
1000
0100
0010
0000
,
0001
0000
0011
0000
,
0100
0000
0110
0000
,
0010
0000
1001
0000
,
0100
0010
1001
0000
,
0010
0000
0110
0000
,
0010
0000
0011
0000
,
1100
0000
0110
0000
,
0010
0001
1000
0000
,
0010
0000
0110
0000
,
1000
0000
1001
0000
,
0010
0000
0110
0000
,
1000
0000
1010
0000
,
0110
0000
0011
0000
,
0010
0100
1001
0000
,
1010
0000
0110
0000
,
0010
0001
1001
0000
,
0010
0000
0110
0000
,
0010
0000
1010
0000
,
0100
0000
0110
0000
,
0001
0010
0100
0000
,
0010
0000
0110
0000
,
1000
0000
1010
0000
,
0011
0000
0110
0000
,
1000
0010
0110
0000
,
0010
0000
1000
0000
,
1010
0000
0110
0000
,
0011
0000
0010
0000
,
0110
0000
0010
0000
,
1001
0000
0110
0000
,
1001
0000
1001
0000
,
0010
0000
1100
0000
,
0010
0011
1000
1100
,
0010
0110
1000
1001
,
0010
0110
0001
0011
,
0100
0110
1000
1010
,
0100
0110
1000
1010
,
0100
0110
0001
0011
,
0100
0110
1000
1001
,
0010
0110
1010
0110
,
1001
0000
0000
0000
;

//---------------dance-single - ----------------
#NOTES:
     dance-single:
     :
     Medium:
     8:
     0.557,0.739,0.916,0.075,0.103,311.000,98.000,8.000,0.000,0.000,0.000,0.557,0.739,0.916,0.075,0.103,311.000,98.000,8.000,0.000,0.000,0.000:
0000
0000
0000
0000
,
0000
0000
0000
0000
,
2000
0001
3001
0010
,
0200
0010
0310
1000
,
0011
1000
1010
0100
,
0011
0100
0110
1010
,
0002
0100
0103
1000
,
0020
0100
0130
1000
,
0110
0010
0011
0100
,
1100
0100
0110
1001
,
0001
0000
1000
0000
1000
0000
0000
0000
0100
0000
0010
0100
0000
0100
0010
0000
,
0001
0000
0001
0000
0100
0000
0000
0000
1000
0000
0100
0010
0000
0010
0100
0000
,
1000
0000
0100
0000
0100
0000
0000
0000
0010
0000
1000
0010
0000
0010
1000
0000
,
0100
0000
0001
0000
1000
0000
0000
0000
0010
0000
0100
0010
0000
0010
0100
0000
,
1000
0000
0001
0000
0100
0000
0000
0000
1000
0000
0010
0100
0000
0001
0100
0000
,
1000
0000
0010
0000
0100
0000
0000
0000
0001
0000
1000
0010
0000
0010
0100
0000
,
0001
0000
1000
0000
1000
0000
0000
0000
0010
0000
0100
0010
0000
1000
0100
0000
,
0010
0000
0100
0000
0001
0000
0000
0000
1000
0000
0010
1000
0000
0100
0010
0000
,
2002
0000
0000
3003
,
0000
0000
0000
0000
0000
0000
0000
0000
0100
0010
0000
0100
0000
0010
0100
0000
,
1000
0000
1100
0000
,
0010
0000
0011
0000
,
0100
0000
0110
0000
,
1000
0000
1001
0000
,
0110
0000
1000
0000
,
1010
0000
0110
0000
,
0010
0000
0100
0000
,
1000
0001
0000
1000
0000
0010
1000
0000
,
0100
0000
0110
0000
,
0010
0000
0011
0000
,
0100
0000
1100
0000
,
0010
0000
0110
0000
,
1001
0000
0100
0000
,
0110
0000
1010
0000
,
0110
0000
0011
0000
,
0100
0010
0000
1000
0000
0001
0100
0000
,
0010
0000
1001
0000
,
0100
0000
0110
0000
,
1000
0000
1010
0000
,
0100
0000
0110
0000
,
0001
0000
0011
0000
,
0100
0000
0110
0000
,
1001
0000
0010
0000
,
0100
0010
0000
0010
0000
1000
0001
0000
,
0100
0000
0101
0000
,
1000
0000
1010
0000
,
0100
0000
0110
0000
,
0001
0000
0011
0000
,
1100
0000
0010
0000
,
1010
0000
0110
0000
,
0011
0000
0110
0000
,
1000
0001
0000
0100
0000
0010
1000
0000
,
2002
3003
1001
0101
,
0010
0100
0110
0000
,
0010
0000
1010
0000
,
0100
0000
0011
0000
,
0100
0000
1010
0000
,
0110
0000
1001
0000
,
0110
0000
0011
0000
,
1000
0000
0100
0000
,
0010
1000
0000
0100
0000
1000
0001
0000
,
1000
0010
0110
0000
,
0010
0000
0011
0000
,
0100
0000
1100
0000
,
0010
0000
0110
0000
,
0011
0000
1010
0000
,
0110
0000
1001
0000
,
0100
0000
0110
0000
,
1000
0010
0000
0100
0000
0001
1000
0000
,
0010
0100
1001
0000
,
0010
0000
0110
0000
,
1000
0000
1010
0000
,
0100
0000
0011
0000
,
1100
0000
0110
0000
,
1000
0000
0010
0000
,
0110
0000
0011
0000
,
0100
0010
0000
1000
0000
0001
0100
0000
,
0010
1000
1001
0000
,
0010
0000
1010
0000
,
0100
0000
0101
0000
,
0010
0000
1010
0000
,
0110
0000
1001
0000
,
0011
0000
1010
0000
,
0110
0000
0011
0000
,
1000
0010
0000
0100
0000
0001
1000
0000
,
0001
0100
1100
0000
0100
0010
0011
0000
,
0010
0100
1100
0000
0100
0010
0011
0000
,
0010
0100
1100
0000
0010
0100
0110
0000
,
1000
0000
0001
0000
1001
0000
0000
0000
0010
0100
0000
0010
0000
1000
0001
0000
,
1000
0100
1100
0000
0010
0100
0110
0000
,
1000
0010
1010
0000
0010
0001
0011
0000
,
0100
0010
0110
0000
1000
0010
0110
0000
,
0010
1000
1001
0000
0110
0000
0011
0000
,
1001
0000
0000
0000
;

//---------------dance-single - ----------------
#NOTES:
     dance-single:
     :
     Beginner:
     3:
     0.263,0.391,0.121,0.000,0.000,184.000,13.000,0.000,0.000,0.000,0.000,0.263,0.391,0.121,0.000,0.000,184.000,13.000,0.000,0.000,0.000,0.000: // measure 1
0000
0000
0000
0000
,  // measure 2
0000
0000
0000
0000
,  // measure 3
1000
0000
1000
0000
,  // measure 4
1000
0000
0010
0010
,  // measure 5
0010
0000
0010
0000
,  // measure 6
0010
0000
0001
0001
,  // measure 7
0001
0000
0001
0000
,  // measure 8
0001
0000
0100
0100
,  // measure 9
0100
0000
0100
0000
,  // measure 10
0100
0000
0010
0010
,  // measure 11
0001
0000
0100
0000
,  // measure 12
1000
0000
0100
0100
,  // measure 13
0001
0000
0010
0000
,  // measure 14
1000
0000
0001
0001
,  // measure 15
0010
0000
0100
0000
,  // measure 16
0010
0000
1000
1000
,  // measure 17
0010
0000
0010
0000
,  // measure 18
0100
0000
0000
0000
,  // measure 19
1001
0000
0000
0000
,  // measure 20
0000
0000
1001
1001
,  // measure 21
1001
0000
0010
0000
,  // measure 22
0100
0000
0010
0000
,  // measure 23
1000
0000
0010
0000
,  // measure 24
1000
0000
0100
0000
,  // measure 25
0010
0000
0001
0000
,  // measure 26
0010
0000
0001
0000
,  // measure 27
0010
0000
0100
0000
,  // measure 28
0010
0000
0100
0000
,  // measure 29
0110
0000
0100
0000
,  // measure 30
0010
0000
0100
0000
,  // measure 31
1000
0000
0100
0000
,  // measure 32
1000
0000
0100
0000
,  // measure 33
0010
0000
0001
0000
,  // measure 34
0010
0000
0001
0000
,  // measure 35
0010
0000
0000
0000
,  // measure 36
0100
0000
0000
0000
,  // measure 37
1000
0000
0100
0000
,  // measure 38
1000
0000
0100
0000
,  // measure 39
0010
0000
0100
0000
,  // measure 40
0010
0000
0100
0000
,  // measure 41
0001
0000
0010
0000
,  // measure 42
0001
0000
0010
0000
,  // measure 43
0100
0000
0010
0000
,  // measure 44
0100
0000
0010
0000
,  // measure 45
1000
0000
0100
0000
,  // measure 46
1000
0000
0100
0000
,  // measure 47
0010
0000
0100
0000
,  // measure 48
0010
0000
0010
0000
,  // measure 49
0100
0000
0001
0000
,  // measure 50
0001
0000
1000
0000
,  // measure 51
0010
0000
0100
0000
,  // measure 52
0010
0000
0000
0000
,  // measure 53
1001
0000
1001
1001
,  // measure 54
1001
0000
0010
0000
,  // measure 55
0100
0000
0010
0000
,  // measure 56
1000
0000
0100
0000
,  // measure 57
1000
0000
0100
0000
,  // measure 58
0010
0000
0001
0000
,  // measure 59
0010
0000
0001
0000
,  // measure 60
0100
0000
0000
0000
,  // measure 61
0010
0000
0000
0000
,  // measure 62
0100
0100
0000
0000
,  // measure 63
0010
0000
0100
0000
,  // measure 64
1000
0000
0100
0000
,  // measure 65
0010
0000
0001
0000
,  // measure 66
0100
0100
0000
0000
,  // measure 67
0010
0000
1000
0000
,  // measure 68
0010
0000
0000
0000
,  // measure 69
0100
0000
0001
0000
,  // measure 70
1000
0000
1000
0000
,  // measure 71
0010
0000
0010
0000
,  // measure 72
0100
0000
0100
0000
,  // measure 73
0001
0000
0001
0000
,  // measure 74
1000
0000
1000
0000
,  // measure 75
0010
0000
0010
0000
,  // measure 76
0100
0000
0000
0000
,  // measure 77
0010
0000
0000
0000
,  // measure 78
0100
0100
0000
0000
,  // measure 79
0010
0000
1000
0000
,  // measure 80
0100
0000
0010
0000
,  // measure 81
0001
0000
0100
0000
,  // measure 82
1000
0000
0010
0000
,  // measure 83
0100
0000
0001
0000
,  // measure 84
1001
0000
0000
0000
,  // measure 85
0010
0000
0100
0000
,  // measure 86
0010
0000
0010
0000
,  // measure 87
0100
0000
0100
0100
,  // measure 88
0100
0000
0010
0000
,  // measure 89
0001
0000
1000
1000
,  // measure 90
1000
0000
0100
0000
,  // measure 91
0010
0000
0001
0001
,  // measure 92
0100
0000
0010
0000
,  // measure 93
1000
0000
1001
1001
,  // measure 94
1001
0000
0000
0000
;
