#TITLE:Every Heartbeat (Moto Blanco Remix);
#SUBTITLE:;
#ARTIST:Amy Grant;
#TITLETRANSLIT:;
#SUBTITLETRANSLIT:;
#ARTISTTRANSLIT:;
#GENRE:;
#CREDIT:;
#BANNER:Every Heartbeat (Moto Blanco Remix).png;
#BACKGROUND:Every Heartbeat (Moto Blanco Remix)-bg.png;
#LYRICSPATH:;
#CDTITLE:./CDTITLES/The Witch's Bakery Lunne Bonus.PNG;
#MUSIC:Every Heartbeat (Moto Blanco Remix).ogg;
#OFFSET:0.012;
#SAMPLESTART:46.761;
#SAMPLELENGTH:15.000;
#SELECTABLE:YES;
#DISPLAYBPM:128.000;
#BPMS:0.000=128.160;
#STOPS:;
#BGCHANGES:;
#KEYSOUNDS:;

//---------------dance-single - ----------------
#NOTES:
     dance-single:
     :
     Easy:
     3:
     0.239,0.249,0.090,0.016,0.000,192.000,11.000,2.000,0.000,0.000,0.000,0.239,0.249,0.090,0.016,0.000,192.000,11.000,2.000,0.000,0.000,0.000:
0000
0000
0000
0000
,
0000
0000
0000
0000
,
0000
0000
0000
0000
,
0000
0000
0000
0000
,
0000
0000
0000
0000
,
0000
0000
0000
0000
,
0000
0000
0000
0000
,
0020
0000
0000
0000
,
0032
0000
0000
0000
,
1003
1000
0100
1000
,
0100
0100
0010
0000
,
0001
0001
0100
0001
,
0010
0100
0100
1000
,
0010
0010
0001
0010
,
0010
0100
1000
0000
,
0100
0100
0001
0010
,
0001
0100
0100
0010
,
1000
1000
1000
1000
,
1000
1000
1000
1000
,
0001
0001
0001
0001
,
0001
0001
0001
0001
,
0010
0010
0010
0010
,
0010
0010
0010
0010
,
0100
0100
0100
0100
,
0010
1000
1001
0000
,
0010
0010
0010
0010
,
0001
0100
0010
0000
,
1000
1000
1000
1000
,
0100
0010
0001
0000
,
1000
1000
1000
1000
,
0010
0100
0001
0000
,
0010
0010
0010
0010
,
0001
0100
0010
0000
,
1001
0001
1001
0000
,
0110
0010
0110
0000
,
1001
0001
1001
0000
,
0110
0010
0110
0000
,
1000
1000
0100
0100
,
0001
0010
0010
0000
,
0001
0001
0100
0100
,
0010
1000
1000
0100
,
0010
0010
0001
0001
,
0100
0010
0010
0000
,
0100
0100
0010
0010
,
1000
0001
0001
0000
,
0010
0010
0010
0010
,
0010
0010
0010
0010
,
0001
0001
0001
0001
,
0001
0001
0001
0001
,
1000
1000
1000
1000
,
1000
1000
1000
1000
,
0100
0100
0100
0100
,
1001
0001
0110
0000
,
1000
1000
1000
1000
,
0100
0001
0010
0000
,
0001
0001
0001
0001
,
0100
0010
0100
0000
,
1000
1000
1000
1000
,
0010
0100
0010
0000
,
0001
0001
0001
0001
,
1000
0010
0100
0000
,
0010
0000
0000
0000
;

//---------------dance-single - ----------------
#NOTES:
     dance-single:
     :
     Medium:
     4:
     0.279,0.299,0.180,0.049,0.000,211.000,22.000,6.000,0.000,0.000,0.000,0.279,0.299,0.180,0.049,0.000,211.000,22.000,6.000,0.000,0.000,0.000:
0000
0000
0000
0000
,
0000
0000
0000
0000
,
0000
0000
0000
0000
,
0000
0000
0000
0000
,
0000
0000
0000
0000
,
0000
0000
0000
0000
,
0000
0000
0000
0000
,
0020
0000
0000
0000
,
0032
0000
0000
0000
,
1003
1000
0010
0010
,
0100
0000
0001
0000
1001
0000
0001
0100
,
1000
1000
0010
0010
,
0100
0010
1001
0001
,
0100
0100
0010
0010
,
0001
0000
0010
0000
1001
0000
0010
1000
,
0100
0100
0010
0010
,
0001
1000
1001
1000
,
0010
0010
0010
0010
,
0010
0000
0010
0000
0010
0000
0010
0001
,
0010
0010
0010
0010
,
0010
0000
0010
0000
0010
0000
0010
1000
,
0010
0010
0010
0010
,
0010
0000
0010
0000
0010
0000
0010
0100
,
0010
0010
0010
0010
,
0001
0100
2002
3003
,
1000
1000
1000
1000
,
0010
0100
1001
0000
,
0010
0010
0010
0010
,
0001
0100
1001
0000
,
0010
0010
0010
0010
,
1000
0100
1001
0000
,
0010
0010
0010
0010
,
0100
0010
1001
0000
,
0001
0001
0001
0001
,
0001
0001
0001
0001
,
0010
0010
0010
0010
,
0010
0010
0010
0010
,
0100
0100
0010
0010
,
1000
0000
0001
0000
1001
0000
1000
0010
,
1000
1000
0001
0001
,
0100
0010
0110
0100
,
0010
0010
0001
0001
,
0100
0000
0010
0000
1010
0000
0010
0100
,
0010
0010
0010
0010
,
0001
0100
1100
0010
,
0001
0001
0001
0001
,
0001
0000
0001
0000
0001
0000
0001
0100
,
0010
0010
0010
0010
,
0010
0000
0010
0000
0010
0000
0010
0001
,
1000
1000
1000
1000
,
1000
0000
1000
0000
1000
0000
1000
0100
,
0001
0010
0110
0010
,
1010
0110
0022
0033
,
0010
0010
0010
0010
,
1000
0001
1001
0000
,
0100
0100
0100
0100
,
0010
0100
0110
0000
,
1000
1000
1000
1000
,
0010
0001
0011
0000
,
0100
0100
0100
0100
,
0010
0100
0110
0000
,
1001
0000
0000
0000
;

//---------------dance-single - ----------------
#NOTES:
     dance-single:
     :
     Beginner:
     1:
     0.146,0.149,0.033,0.000,0.000,121.000,4.000,0.000,0.000,0.000,0.000,0.146,0.149,0.033,0.000,0.000,121.000,4.000,0.000,0.000,0.000,0.000:
0000
0000
0000
0000
,
0000
0000
0000
0000
,
0000
0000
0000
0000
,
0000
0000
0000
0000
,
0000
0000
0000
0000
,
0000
0000
0000
0000
,
0000
0000
0000
0000
,
0010
0000
0000
0000
,
0001
0000
0000
0000
,
1000
1000
0000
0000
,
1000
1000
0000
0000
,
1000
1000
0000
0000
,
1000
1000
0000
0000
,
0001
0001
0000
0000
,
0001
0001
0000
0000
,
0001
0001
0000
0000
,
0001
0001
0000
0000
,
0010
0010
0010
0000
,
0100
0100
0100
0000
,
0010
0010
0010
0000
,
0100
0100
0100
0000
,
0010
0000
0001
0000
,
0100
0000
1000
0000
,
0010
0000
0110
0000
,
1000
0000
1001
0000
,
0100
0100
0000
0000
,
0010
0010
0000
0000
,
1000
1000
0000
0000
,
0001
0001
0000
0000
,
0100
0000
1000
0000
,
0100
0000
0001
0000
,
0010
0010
0000
0000
,
0100
0100
0100
0000
,
1000
1000
0100
0000
,
0001
0001
0010
0000
,
0100
0100
1000
0000
,
0010
0010
0001
0000
,
0100
0100
0000
0000
,
1000
1000
0000
0000
,
0010
0010
0000
0000
,
0100
0100
0000
0000
,
0001
1000
0000
0000
,
0010
0001
0000
0000
,
0100
0100
0000
0000
,
1000
0100
0000
0000
,
0001
0001
0001
0000
,
0100
0100
0100
0000
,
1000
1000
1000
0000
,
0100
0100
0100
0000
,
1000
0000
0100
0000
,
0001
0000
1000
0000
,
0010
0000
0001
0000
,
1001
0000
0110
0000
,
0100
0100
0000
0000
,
0010
0010
0000
0000
,
0001
0001
0000
0000
,
1000
1000
0000
0000
,
0010
0000
0100
0000
,
1000
0000
0010
0000
,
0100
0010
0000
0000
,
0010
0010
0010
0000
,
0100
0000
0000
0000
;

//---------------dance-single - ----------------
#NOTES:
     dance-single:
     :
     Hard:
     6:
     0.351,0.324,0.474,0.114,0.000,229.000,58.000,14.000,0.000,0.000,0.000,0.351,0.324,0.474,0.114,0.000,229.000,58.000,14.000,0.000,0.000,0.000:
0000
0000
0000
0000
,
0000
0000
0000
0000
,
0000
0000
0000
0000
,
0000
0000
0000
0000
,
0000
0000
0000
0000
,
0000
0000
0000
0000
,
0000
0000
0000
0000
,
0200
0000
0000
0000
,
0302
0000
0000
0000
,
1003
1000
1000
1000
,
0010
0000
0110
0000
1001
0000
0001
0010
,
0100
0100
0100
0100
,
1000
0000
0011
0000
0101
0000
0001
0010
,
0100
0100
0100
0100
,
0010
0000
1100
0000
0110
0000
0001
1000
,
0010
0010
0010
0010
,
0100
0000
0110
0000
0011
0000
0001
1000
,
0020
0100
0100
0130
,
1100
0000
0010
0000
0011
0000
0001
1000
,
0200
0010
0010
0310
,
0011
0000
0100
0000
1100
0000
0010
0100
,
2000
0001
0001
3001
,
0101
0000
0010
0000
0011
0000
0001
0100
,
0020
1000
1000
1030
,
0100
0010
0022
0033
,
1000
1000
1000
1000
,
1100
0000
0110
0000
0011
0000
0010
0100
,
1000
1000
1000
1000
,
1100
0000
0110
0000
0011
0000
0001
0010
,
0100
0100
0100
0100
,
0110
0000
0011
0000
1001
0000
1000
0100
,
0010
0010
0010
0010
,
0011
0110
1100
0000
,
0010
0010
0010
0010
,
0010
0000
0010
0000
0010
0000
0010
0100
,
1000
1000
1000
1000
,
1000
0000
1000
0000
1000
0000
1000
0010
,
0001
0001
0001
0001
,
0110
0000
0001
0000
0011
0000
0010
0100
,
1000
1000
1000
1000
,
1100
0000
0100
0000
0011
0000
0010
0100
,
1000
1000
1000
1000
,
1100
0000
0100
0000
0011
0000
0010
0100
,
0001
0001
0001
0001
,
0011
0000
0100
0000
1010
0000
0010
0100
,
2000
0001
0001
3001
,
1100
0000
0011
0000
0101
0000
0010
1000
,
0002
0010
0010
0013
,
0011
0000
0110
0000
1100
0000
0010
0100
,
2000
0001
0001
3001
,
0101
0000
0011
0000
1001
0000
0010
0100
,
2000
0010
0010
3010
,
0010
0100
0202
0303
,
0010
0010
0010
0010
,
1100
0000
0110
0000
0011
0000
0010
0100
,
1000
1000
1000
1000
,
1010
0000
0110
0000
0011
0000
0001
0100
,
0010
0010
0010
0010
,
1100
0000
0110
0000
0011
0000
0001
0100
,
1000
1000
1000
1000
,
1010
0110
0011
0000
,
1001
0000
0000
0000
;

//---------------dance-single - ----------------
#NOTES:
     dance-single:
     :
     Challenge:
     8:
     0.441,0.424,0.417,0.090,0.176,316.000,51.000,11.000,0.000,0.000,0.000,0.441,0.424,0.417,0.090,0.176,316.000,51.000,11.000,0.000,0.000,0.000: // measure 1
0000
0000
0000
0000
,  // measure 2
0000
0000
0000
0000
,  // measure 3
0000
0000
0000
0000
,  // measure 4
0000
0000
0000
0000
,  // measure 5
0000
0000
0000
0000
,  // measure 6
0000
0000
0000
0000
,  // measure 7
0000
0000
0000
0000
,  // measure 8
2002
0000
0000
3003
,  // measure 9
0220
0000
0000
0330
,  // measure 10
1000
0000
0100
0000
0000
0010
0000
0000
0100
0000
0000
0000
0010
0000
0000
0000
,  // measure 11
1001
0000
0011
0000
0110
0000
0010
1000
,  // measure 12
0001
0100
0000
1000
1100
0000
0010
0000
,  // measure 13
1100
0000
0011
0000
0101
0000
0010
1000
,  // measure 14
0001
0100
0000
0010
0110
0000
1000
0000
,  // measure 15
0011
0000
0110
0000
1100
0000
0010
1000
,  // measure 16
0001
0000
0100
0000
0000
0010
0000
0000
0100
0000
0000
0000
1000
0000
0000
0000
,  // measure 17
0010
0011
0000
0010
0100
0000
1000
0000
,  // measure 18
0100
0000
0010
0000
0000
0001
0000
0000
0100
0000
0000
0000
0010
0000
0000
0000
,  // measure 19
1000
0000
0000
0000
1100
0000
0000
0000
0011
0000
0000
0000
0010
0000
0001
0100
,  // measure 20
1001
0000
0000
0000
0010
0000
0000
0000
0100
0000
0010
0001
0000
0000
0010
0000
,  // measure 21
0000
0100
1000
0000
1010
0000
0100
0010
,  // measure 22
0001
0000
0010
0000
0000
0000
0100
0010
0110
0000
0000
1000
0000
0000
0100
0000
,  // measure 23
0010
0000
0000
0001
0000
0000
0100
0000
0010
0000
0000
0000
1000
0000
0010
0000
,  // measure 24
0100
0000
0000
0100
0000
0000
0010
0000
0001
0000
0000
0001
0000
0000
0010
0000
,  // measure 25
0100
0000
0000
0010
0000
0000
0110
0000
0010
0000
0000
0000
1000
0001
1000
0001
,  // measure 26
1000
0100
1000
0100
1000
0100
1000
0100
,  // measure 27
0010
0000
0001
0000
0101
0000
0001
0100
,  // measure 28
1000
0010
1000
0010
1000
0010
1000
0010
,  // measure 29
1000
0000
0100
0000
0011
0000
0010
0100
,  // measure 30
1000
0000
0001
0000
0100
0000
0000
0010
0001
0000
0000
0001
0100
0000
0000
0100
,  // measure 31
1000
0000
0000
1000
0010
0000
0000
0010
0100
0000
0000
0000
0100
0000
0010
0000
,  // measure 32
0100
0000
0000
0100
0010
0000
0000
0010
0001
0000
0000
0001
0100
0000
0000
0100
,  // measure 33
0010
1000
2200
3300
,  // measure 34
0010
0001
0010
0001
0010
0001
0010
0001
,  // measure 35
0010
0001
0010
0001
0010
0001
0010
0001
,  // measure 36
1000
0100
1000
0100
1000
0100
1000
0100
,  // measure 37
1000
0100
1000
0100
1000
0100
1000
0100
,  // measure 38
0010
0000
0001
0000
0000
0010
0000
0000
0100
0000
0000
0000
0110
0000
0000
0000
,  // measure 39
0001
0000
0011
0000
1100
0000
0010
0100
,  // measure 40
1000
0100
0000
0010
1001
0000
0100
0000
,  // measure 41
0010
0000
0001
0000
0000
0000
0010
0000
0100
0000
0000
0000
0010
0000
0100
1000
,  // measure 42
0010
0000
0001
0000
0000
0010
0000
0000
0100
0000
0000
0000
1000
0000
0000
0000
,  // measure 43
0100
0000
0000
0000
0010
0000
0011
0000
0000
0000
0010
0000
0000
0000
0001
0010
,  // measure 44
0100
0010
0000
1100
1100
0000
0011
0000
,  // measure 45
0100
0000
0010
0000
0000
0000
0100
0000
1001
0000
0000
0000
0010
0000
1001
0010
,  // measure 46
0100
0000
0001
0000
0000
0010
0000
0000
0100
0000
0000
0000
1000
0000
0000
0000
,  // measure 47
1100
0000
0011
0000
0101
0000
0010
0100
,  // measure 48
0002
0023
0230
1300
,  // measure 49
1100
0000
0011
0000
1001
0000
0100
0010
,  // measure 50
1000
0000
0100
0000
0000
0000
0010
0100
0001
0000
0000
0010
0000
0000
0100
0000
,  // measure 51
1000
0000
0000
1000
0000
0000
0010
0000
0110
0000
0000
0000
1000
0000
0001
0000
,  // measure 52
0100
0000
0000
0001
0000
0000
0100
0000
0010
0000
0000
0110
0000
0000
0100
0000
,  // measure 53
1000
0000
0000
0010
0000
0000
0100
0000
1001
0000
0000
0000
1000
0001
1000
0001
,  // measure 54
1000
0100
1000
0100
1000
0100
1000
0100
,  // measure 55
1000
0000
0100
0000
0011
0000
0010
0100
,  // measure 56
0001
0010
0001
0010
0001
0010
0001
0010
,  // measure 57
0100
0000
0110
0000
1001
0000
0001
0100
,  // measure 58
1000
0000
0000
1000
0000
0000
1100
0000
0010
0000
0000
0010
0000
0000
0011
0000
,  // measure 59
0100
0000
0000
0100
0000
0000
0110
0000
1001
0000
0000
0000
0001
0000
0100
0000
,  // measure 60
0010
0000
0000
0010
0100
0000
0000
1000
0001
0000
0000
0100
0010
0000
0000
1000
,  // measure 61
0100
0010
2002
3003
,  // measure 62
1001
0000
0000
0000
;
