#TITLE:Disney Hardcore;
#SUBTITLE:;
#ARTIST:Walter Keta;
#TITLETRANSLIT:;
#SUBTITLETRANSLIT:;
#ARTISTTRANSLIT:;
#GENRE:;
#CREDIT:;
#BANNER:Disney Hardcore.png;
#BACKGROUND:Disney Hardcore Mix-bg.png;
#LYRICSPATH:;
#CDTITLE:.\CDTITLES\DDRMAX6.PNG;
#MUSIC:Disney Hardcore.ogg;
#OFFSET:0.600;
#SAMPLESTART:46.040;
#SAMPLELENGTH:15.000;
#SELECTABLE:YES;
#DISPLAYBPM:180.000;
#BPMS:0.000=180.000;
#STOPS:;
#BGCHANGES:;
#KEYSOUNDS:;

//---------------dance-single - ----------------
#NOTES:
     dance-single:
     :
     Easy:
     4:
     0.292,0.260,0.000,0.000,0.000,216.000,0.000,0.000,0.000,0.000,0.000,0.292,0.260,0.000,0.000,0.000,216.000,0.000,0.000,0.000,0.000,0.000: // measure 1
0000
0000
0000
0000
,  // measure 2
0000
0000
0000
0000
,  // measure 3
0000
0000
0000
0000
,  // measure 4
0000
0000
0000
0000
,  // measure 5
0000
0000
0000
0000
,  // measure 6
0010
0010
0001
1000
,  // measure 7
0010
0010
0100
0000
,  // measure 8
0001
0001
1000
0010
,  // measure 9
0100
0001
1000
0000
,  // measure 10
0010
0010
1000
0100
,  // measure 11
0001
0001
1000
0000
,  // measure 12
0010
0010
1000
0100
,  // measure 13
0001
0001
1000
0000
,  // measure 14
0010
0010
1000
0100
,  // measure 15
0010
0001
0100
0000
,  // measure 16
0010
0010
1000
0100
,  // measure 17
0010
0100
0100
0000
,  // measure 18
0001
0001
1000
0010
,  // measure 19
0100
0001
0001
0000
,  // measure 20
0010
1000
0100
0010
,  // measure 21
1000
0001
0001
0000
,  // measure 22
0010
1000
0100
0100
,  // measure 23
0001
1000
1000
0000
,  // measure 24
0010
1000
0100
0100
,  // measure 25
0001
1000
1000
0000
,  // measure 26
0000
0000
0000
0000
,  // measure 27
0000
0000
0000
0000
,  // measure 28
0001
0010
0100
0000
,  // measure 29
0100
0010
0001
0000
,  // measure 30
0001
0010
0100
0000
,  // measure 31
1000
0100
0010
0000
,  // measure 32
0001
0010
0100
0000
,  // measure 33
0001
0010
0100
0000
,  // measure 34
1000
0100
0010
0000
,  // measure 35
0001
0010
0100
0000
,  // measure 36
1000
0010
0100
0000
,  // measure 37
0001
0010
0100
0000
,  // measure 38
0010
0001
1000
0000
,  // measure 39
0100
0001
0010
0000
,  // measure 40
0100
1000
0010
0000
,  // measure 41
0100
0001
0010
0000
,  // measure 42
0100
1000
0010
0000
,  // measure 43
0100
0001
0010
0000
,  // measure 44
0100
1000
0010
0000
,  // measure 45
0100
0001
0010
0000
,  // measure 46
0100
1000
0010
0000
,  // measure 47
0100
0001
0010
0000
,  // measure 48
1000
0001
0100
0000
,  // measure 49
0010
1000
0001
0000
,  // measure 50
0100
0010
0001
0000
,  // measure 51
0001
1000
0010
0000
,  // measure 52
0000
0000
0000
0000
,  // measure 53
0000
0000
0000
0000
,  // measure 54
0001
0010
0100
0000
,  // measure 55
0100
0010
0001
0000
,  // measure 56
0001
1000
0010
0000
,  // measure 57
1000
0100
0010
0000
,  // measure 58
0001
0100
1000
0000
,  // measure 59
1000
0100
0010
0000
,  // measure 60
0001
0100
1000
1000
,  // measure 61
0010
0100
0001
0000
,  // measure 62
0001
0010
0100
0000
,  // measure 63
1000
0010
0100
0000
,  // measure 64
0100
0001
0010
0000
,  // measure 65
0100
1000
0010
0000
,  // measure 66
0100
0001
0010
0000
,  // measure 67
0100
1000
0010
0000
,  // measure 68
0000
0000
0000
0000
,  // measure 69
0000
0000
0000
0000
,  // measure 70
0001
0010
0010
0000
,  // measure 71
0100
1000
1000
0000
,  // measure 72
0100
0001
0001
0000
,  // measure 73
0100
1000
1000
0000
,  // measure 74
0010
0100
0100
0000
,  // measure 75
0001
1000
1000
0000
,  // measure 76
0010
0100
0100
0000
,  // measure 77
0001
1000
1000
0000
,  // measure 78
0010
0100
0001
0001
,  // measure 79
1000
0010
0100
0000
;

//---------------dance-single - ----------------
#NOTES:
     dance-single:
     :
     Hard:
     9:
     0.582,0.484,0.000,0.000,0.218,430.000,0.000,0.000,0.000,0.000,0.000,0.582,0.484,0.000,0.000,0.218,430.000,0.000,0.000,0.000,0.000,0.000:
0000
0000
0000
0000
,
0000
0000
0000
0000
,
0000
0000
0000
0000
,
0000
0000
0000
0000
,
0000
0000
0000
0000
,
0010
0001
0010
0001
0010
0000
0100
0000
,
1000
0010
1000
0010
1000
0001
0000
0010
,
0100
0010
0100
0010
0100
0000
0001
0000
,
1000
0010
1000
0010
1000
0001
0000
1000
,
0010
0100
0010
0100
0010
0000
0100
0000
,
0001
1000
0001
1000
0001
1000
0000
0010
,
0100
0010
0100
0010
0100
0000
0001
0000
,
1000
0010
1000
0010
1000
0010
0000
0100
,
0010
0100
0010
0100
0010
0000
1000
0000
,
0001
1000
0001
1000
0001
1000
0000
0010
,
0100
0010
0100
0010
0100
0000
0001
0000
,
1000
0001
1000
0001
1000
0001
0000
0010
,
0100
0010
0100
0010
0100
0000
1000
0000
,
0001
1000
0001
1000
0001
1000
0000
0010
,
0100
0010
0100
0010
0100
0000
0001
0000
,
1000
0010
1000
0010
1000
0010
0000
0100
,
0001
1000
0001
1000
0001
0000
0010
0000
,
0100
0010
0100
0010
0100
0010
0000
1000
,
0001
1000
0001
1000
0001
0000
0010
0000
,
0100
0010
0100
0010
0100
0010
0000
1000
,
0000
0000
0000
0000
,
0000
0000
0000
0000
,
0010
0000
0000
0000
1000
0000
0010
0000
0100
0000
0001
1000
0000
0000
0000
0000
,
0001
0000
0000
0000
0100
0000
0001
0000
1000
0000
0100
0010
0000
0000
0000
0000
,
0010
0000
0000
0000
1000
0000
0100
0000
0001
0000
1000
0001
0000
0000
0000
0000
,
0010
0000
0000
0000
1000
0000
0010
0000
0100
0000
0001
1000
0000
0000
0000
0000
,
0001
0000
0000
0000
0100
0000
0010
0000
1000
0000
0001
1000
0000
0000
0000
0000
,
0010
0000
0000
0000
1000
0000
0010
0000
0100
0000
0001
1000
0000
0000
0000
0000
,
0010
0000
0000
0000
1000
0000
0001
0000
0100
0000
0010
1000
0000
0000
0000
0000
,
0010
0000
0000
0000
1000
0000
0001
0000
1000
0000
0010
0100
0000
0000
0000
0000
,
0001
0000
0000
0000
1000
0000
0010
0000
0100
0000
0001
1000
0000
0000
0000
0000
,
0010
0000
0000
0000
1000
0000
0001
0000
0100
0000
1000
0010
0000
0000
0000
0000
,
0100
0000
0000
0000
0001
0000
1000
0000
0010
0000
0100
0001
0000
0000
0000
0000
,
1000
0000
0000
0000
0010
0000
1000
0000
0001
0000
0100
0010
0000
0000
0000
0000
,
0001
0000
0000
0000
1000
0000
0010
0000
0100
0000
0001
1000
0000
0000
0000
0000
,
0010
0000
0000
0000
1000
0000
0001
0000
0100
0000
0010
0100
0000
0000
0000
0000
,
1000
0000
0000
0000
0010
0000
1000
0000
0100
0000
0010
0100
0000
0000
0000
0000
,
0001
0000
0000
0000
0100
0000
1000
0000
0010
0000
0100
0001
0000
0000
0000
0000
,
0010
0000
0000
0000
1000
0000
0010
0000
0100
0000
0001
1000
0000
0000
0000
0000
,
0010
0000
0000
0000
1000
0000
0100
0000
0010
0000
0100
0001
0000
0000
0000
0000
,
0010
0000
0000
0000
1000
0000
0010
0000
0100
0000
0001
1000
0000
0000
0000
0000
,
0010
0000
0000
0000
1000
0000
0001
0000
0100
0000
1000
0010
0000
0000
0000
0000
,
0100
0000
0000
0000
0001
0000
0010
0000
0100
0000
1000
0010
0000
0000
0000
0000
,
0100
0000
0000
0000
0001
0000
0010
0000
0100
0000
1000
0001
0000
0000
0000
0000
,
0100
0000
0000
0000
0001
0000
1000
0000
0010
0000
0100
1000
0000
0000
0000
0000
,
0001
0000
0000
0000
1000
0000
0010
0000
0100
0000
0001
1000
0000
0000
0000
0000
,
0000
0000
0000
0000
,
0000
0000
0000
0000
,
1000
0000
0000
0000
0001
0000
0010
0000
0100
0000
1000
0010
0000
0000
0000
0000
,
0100
0000
0000
0000
0001
0000
1000
0000
0010
0000
0100
1000
0000
0000
0000
0000
,
0010
0000
0000
0000
1000
0000
0010
0000
0100
0000
0001
1000
0000
0000
0000
0000
,
0010
0000
0000
0000
1000
0000
0010
0000
0100
0000
0001
1000
0000
0000
0000
0000
,
0010
0000
0000
0000
1000
0000
0010
0000
0100
0000
0001
1000
0000
0000
0000
0000
,
0010
0000
0000
0000
1000
0000
0010
0000
0100
0000
0001
1000
0000
0000
0000
0000
,
0010
1000
0100
0010
0100
0000
0001
0000
,
0100
1000
0010
0100
0001
1000
0000
0000
,
0010
0000
0000
0000
1000
0000
0100
0000
0010
0000
0100
0001
0000
0000
0000
0000
,
0010
0000
0000
0000
0100
0000
0001
0000
1000
0000
0010
1000
0000
0000
0000
0000
,
0001
0000
0000
0000
0010
0000
0100
0000
1000
0000
0010
0100
0000
0000
0000
0000
,
0001
0000
0000
0000
1000
0000
0010
0000
0100
0000
0001
1000
0000
0000
0000
0000
,
0010
0000
0000
0000
1000
0000
0010
0000
0100
0000
0001
1000
0000
0000
0000
0000
,
0010
0000
0000
0000
1000
0000
0010
0000
0100
0000
0001
1000
0000
0000
0000
0000
,
0010
0000
0000
0000
1000
0000
0010
0000
0100
0000
0001
1000
0000
0000
0000
0000
,
0010
0000
0000
0000
1000
0000
0010
0000
0100
0000
0001
1000
0000
0000
0000
0000
,
0010
0000
0000
0000
1000
0000
0001
0000
0100
0000
1000
0010
0000
0000
0000
0000
,
0100
0000
0000
0000
0001
0000
1000
0000
0010
0000
0100
1000
0000
0000
0000
0000
,
0010
0000
0000
0000
1000
0000
0010
0000
0100
0000
0001
1000
0000
0000
0000
0000
,
0010
0000
0000
0000
1000
0000
0010
0000
0100
0000
0001
1000
0000
0000
0000
0000
,
0010
0000
0000
0000
1000
0000
0010
0000
0100
0000
0001
1000
0000
0000
0000
0000
,
0010
0000
0000
0000
1000
0000
0010
0000
0100
0000
0001
1000
0000
0000
0000
0000
,
0010
0000
0000
0000
1000
0000
0010
0000
0100
0000
0001
1000
0000
0000
0000
0000
,
0001
0000
0000
0000
1000
0000
0010
0000
0100
0000
0001
1000
0000
0000
0000
0000
,
0010
0100
1000
0010
0100
0000
0001
0000
,
1000
0010
0100
0001
1000
0010
0000
0000
;

//---------------dance-single - ----------------
#NOTES:
     dance-single:
     :
     Medium:
     6:
     0.395,0.335,0.000,0.114,0.000,280.000,0.000,12.000,0.000,0.000,0.000,0.395,0.335,0.000,0.114,0.000,280.000,0.000,12.000,0.000,0.000,0.000:
0000
0000
0000
0000
,
0000
0000
0000
0000
,
0000
0000
0000
0000
,
0000
0000
0000
0000
,
0000
0000
0000
0000
,
0020
1000
0100
0100
,
0031
0000
1000
0000
0001
1000
0000
0000
,
0020
0001
0100
0100
,
1030
0000
0001
0000
1000
0001
0000
0000
,
0020
0001
1000
1030
,
0100
0000
0001
0000
1000
0001
0000
0000
,
0020
0100
0001
0031
,
0100
0000
0001
0000
1000
0001
0000
0000
,
0200
0010
0001
0301
,
0010
0000
1000
0000
0010
0100
0000
0000
,
0020
1000
0001
0031
,
0100
0000
0010
0000
0100
0001
0000
0000
,
2000
0001
0100
3100
,
0010
0000
0100
0000
0001
1000
0000
0000
,
0020
1000
0001
0031
,
0100
0000
0001
0000
1000
0010
0000
0000
,
0200
0001
0010
0310
,
0010
0000
1000
0000
0010
0100
0000
0000
,
0002
1000
0010
0013
,
0100
0000
1000
0000
0010
0100
0000
0000
,
0000
0000
0000
0000
,
0000
0000
0000
0000
,
0010
0010
0001
1000
,
0010
0010
0100
1000
,
0001
0001
1000
0010
,
0100
0100
0001
0010
,
1000
1000
0010
1000
,
0001
0001
0100
0001
,
0100
0100
0001
0100
,
1000
1000
0010
1000
,
0010
0010
0001
0100
,
1000
1000
0010
0001
,
0100
0100
0001
0010
,
0100
0100
0001
0100
,
1000
1000
0001
1000
,
0010
0010
0100
0010
,
0001
0001
0010
0001
,
0100
0100
0001
0100
,
1000
1000
0010
0001
,
0100
0100
0001
0100
,
1000
1000
0100
0001
,
0010
0010
0100
1000
,
0001
0001
1000
0100
,
0001
0001
0010
0001
,
0100
0100
0010
0001
,
1000
1000
0010
0100
,
0000
0000
0000
0000
,
0000
0000
0000
0000
,
0001
0001
0010
0100
,
1000
1000
0010
0100
,
0001
0001
1000
0100
,
0001
0001
0100
1000
,
0001
0001
0100
1000
,
0010
0010
1000
0010
,
0200
1000
0010
0310
,
0001
0000
0010
0000
1000
0001
0000
0000
,
0100
0100
1000
0100
,
0001
0001
1000
0100
,
0001
0001
1000
0100
,
0001
0001
1000
0100
,
0001
0001
1000
0100
,
0010
0010
0100
1000
,
0010
0010
1000
0010
,
0001
0001
1000
0010
,
0100
0100
0001
0010
,
1000
1000
0010
0100
,
0001
0001
1000
0010
,
0100
0100
0001
1000
,
0010
0010
0100
1000
,
0001
0001
0100
1000
,
0010
0010
1000
0010
,
0100
0100
0001
0100
,
2000
0001
0100
3100
,
0010
0000
0100
0000
0001
1000
0000
0000
;

//---------------dance-single - ----------------
#NOTES:
     dance-single:
     :
     Beginner:
     2:
     0.206,0.186,0.000,0.000,0.000,152.000,0.000,0.000,0.000,0.000,0.000,0.206,0.186,0.000,0.000,0.000,152.000,0.000,0.000,0.000,0.000,0.000:
0000
0000
0000
0000
,
0000
0000
0000
0000
,
0000
0000
0000
0000
,
0000
0000
0000
0000
,
0000
0000
0000
0000
,
0010
0000
0010
0000
,
0100
0100
0100
0000
,
0001
0000
0001
0000
,
1000
1000
1000
0000
,
0010
0000
0010
0000
,
0100
0100
0100
0000
,
0001
0000
0001
0000
,
1000
1000
1000
0000
,
0010
0000
0010
0000
,
0100
0100
0100
0000
,
0001
0000
0001
0000
,
0100
0100
0100
0000
,
0010
0000
0100
0000
,
0001
0001
1000
0000
,
0010
0000
0001
0000
,
0100
0100
0001
0000
,
1000
0000
0100
0000
,
0010
0010
0100
0000
,
0001
0000
0100
0000
,
0001
0001
1000
0000
,
0000
0000
0000
0000
,
0000
0000
0000
0000
,
0010
0000
0010
0000
,
1000
0000
1000
0000
,
0100
0000
0100
0000
,
0001
0000
0001
0000
,
0010
0000
0010
0000
,
1000
0000
1000
0000
,
0100
0000
0100
0000
,
0001
0000
0001
0000
,
0010
0000
0010
0000
,
1000
0000
1000
0000
,
0100
0000
0100
0000
,
0001
0000
0001
0000
,
0010
0000
0010
0000
,
1000
0000
1000
0000
,
0100
0000
0100
0000
,
0001
0000
0001
0000
,
0010
0000
0010
0000
,
1000
0000
1000
0000
,
0100
0000
0100
0000
,
0001
0000
0001
0000
,
0010
0000
0010
0000
,
1000
0000
1000
0000
,
0100
0000
0100
0000
,
0001
0000
0001
0000
,
0000
0000
0000
0000
,
0000
0000
0000
0000
,
0010
0000
0010
0000
,
0100
0000
0100
0000
,
0001
0000
0001
0000
,
1000
0000
1000
0000
,
0100
0000
0100
0000
,
0010
0000
0010
0000
,
0001
0000
0001
0000
,
1000
1000
1000
0000
,
0100
0000
0100
0000
,
0010
0000
0010
0000
,
0001
0000
0001
0000
,
0100
0000
0100
0000
,
1000
0000
1000
0000
,
0010
0000
0010
0000
,
0100
0000
0100
0000
,
0010
0000
0010
0000
,
0100
0000
0100
0000
,
0001
0000
0001
0000
,
1000
0000
1000
0000
,
0010
0000
0010
0000
,
0100
0000
0100
0000
,
0001
0000
0001
0000
,
0010
0000
0010
0000
,
0100
0000
0100
0000
,
1000
0000
0010
0000
,
0001
0001
1000
0000
;
