#TITLE:Detektive;
#SUBTITLE:;
#ARTIST:Blümchen;
#TITLETRANSLIT:;
#SUBTITLETRANSLIT:;
#ARTISTTRANSLIT:;
#GENRE:;
#CREDIT:;
#BANNER:Detektive.png;
#BACKGROUND:Detektive-bg.png;
#LYRICSPATH:;
#CDTITLE:.\CDTITLES\DDRMAX6.PNG;
#MUSIC:Detektive.ogg;
#OFFSET:1.760;
#SAMPLESTART:38.480;
#SAMPLELENGTH:15.000;
#SELECTABLE:YES;
#DISPLAYBPM:152.000;
#BPMS:0.000=152.000;
#STOPS:;
#BGCHANGES:0.000=Detektive-bg.png=1.000=0=0=1=====,
4.500=Detektive.avi=1.000=0=0=1=====,
236.000=Detektive-bg.png=1.000=0=0=1=====,
99999=-nosongbg-=1.000=0=0=0 // don't automatically add -songbackground-
;
#KEYSOUNDS:;

//---------------dance-single - ----------------
#NOTES:
     dance-single:
     :
     Easy:
     4:
     0.346,0.343,0.248,0.000,0.000,202.000,23.000,0.000,0.000,0.000,0.000,0.346,0.343,0.248,0.000,0.000,202.000,23.000,0.000,0.000,0.000,0.000:
0000
0000
0000
0000
,
0000
0000
0000
0000
,
0010
0010
0100
0100
,
0010
0010
0100
0100
,
0010
0010
0100
0100
,
0010
0010
0100
0100
,
0010
0010
0001
0001
,
0010
0010
0001
0001
,
0010
0010
1000
1000
,
0001
1000
0001
0000
,
1000
0100
0010
0100
,
0010
0100
0010
0100
,
1000
0001
1000
0001
,
1000
0001
1000
0001
,
0100
0010
0001
0010
,
0001
0010
0001
0010
,
0100
1000
0100
0010
,
1001
0010
0110
0100
,
1000
0100
0010
0100
,
0010
0100
1000
0000
,
0001
0010
0100
0010
,
0100
0010
0001
0000
,
0010
0100
0110
0000
,
0001
1000
1001
0110
,
1100
0000
0000
0101
0000
0000
0110
0000
,
0000
0000
0010
0000
,
0100
0010
0100
0010
,
0100
0010
0100
0001
,
1000
0001
1000
0001
,
1000
0000
0100
0010
,
0001
0010
0001
0010
,
0001
0100
1000
0000
,
0100
1000
0100
1000
,
0100
0010
0001
0000
,
0010
0110
0010
0110
,
0010
0110
1001
0000
,
0001
1001
1000
1001
,
0001
1001
0101
0000
,
0010
0001
0010
0001
,
0010
0100
1000
0000
,
0100
0010
0100
1000
,
0100
0010
0001
0000
,
0010
0010
0100
0100
,
0010
0010
0100
0100
,
0010
0010
0100
0100
,
0010
0010
0100
0100
,
1000
1000
0100
0100
,
0001
0001
0010
0010
,
0100
0100
1000
1000
,
0100
0010
0100
0010
,
0100
0001
1001
0000
,
0010
1000
1001
0000
,
0010
0100
0110
0000
,
1000
0100
1000
0000
,
0010
0100
0110
0000
,
0001
1000
1001
0000
,
0010
0100
0110
0000
,
0001
0010
0001
0000
,
1001
0000
0000
0000
;

//---------------dance-single - ----------------
#NOTES:
     dance-single:
     :
     Medium:
     5:
     0.372,0.375,0.355,0.000,0.000,209.000,33.000,0.000,0.000,0.000,0.000,0.372,0.375,0.355,0.000,0.000,209.000,33.000,0.000,0.000,0.000,0.000:
0000
0000
0000
0000
,
0000
0000
0000
0000
,
1000
0100
0010
0010
,
0100
1000
0100
0100
,
0010
0001
0010
0010
,
0100
1000
0100
0100
,
0010
0001
1000
1000
,
0010
0001
1000
1000
,
0100
0001
0010
0010
,
0101
1010
0110
0011
,
0010
0000
0001
1000
0000
0010
0000
0100
,
0000
1000
0000
0010
0100
0000
0001
0000
,
1000
1100
0100
0101
,
0001
0011
0110
1000
,
0001
0000
1000
0001
0000
0010
0000
0100
,
0000
1000
0000
0000
0001
0000
0100
0000
,
0110
0000
0000
1001
0000
0000
0011
0000
,
0000
0100
1000
0100
,
0010
0001
0010
0010
,
0001
0010
0001
0001
,
1000
0100
1000
1000
,
0100
1000
0100
0100
,
0010
1000
0001
0000
,
0001
1000
0110
1001
,
0010
0000
0000
0100
0000
0000
0010
0000
,
0000
0000
1100
0011
,
0010
1000
0010
1000
,
0010
0000
1000
0000
0100
0000
0000
0001
,
0010
0100
0010
0100
,
0010
0000
0100
0000
1000
0000
0000
1000
,
0100
0010
0100
0010
,
0100
0000
0010
0000
0100
0000
0000
0001
,
0010
0100
0010
0100
,
1001
0000
0011
0110
,
1000
0100
0010
0100
,
1000
0000
0100
0000
0110
0000
0000
0100
,
0010
0001
0010
0100
,
0010
0000
0001
0000
0011
0000
0000
1000
,
0001
0010
0001
0010
,
0100
0000
0010
0000
1010
0000
0000
0100
,
0010
0001
0010
0100
,
0110
0011
1100
0011
,
0100
0010
0100
0010
,
0100
0010
0100
0000
,
0010
0001
0010
0001
,
0010
0001
0010
0000
,
0100
1000
0100
1000
,
0100
1000
0100
0000
,
0010
0001
0010
0001
,
0010
0100
0010
0100
,
0010
0100
0110
0000
,
0001
1000
1001
0000
,
0010
0001
0011
0000
,
0010
0100
0110
0000
,
0010
1000
1010
0000
,
0100
0010
0011
0000
,
0010
0100
0110
0000
,
1000
0001
1000
0001
,
1001
0000
0000
0000
;

//---------------dance-single - ----------------
#NOTES:
     dance-single:
     :
     Hard:
     7:
     0.423,0.406,0.409,0.000,0.000,237.000,38.000,0.000,0.000,0.000,0.000,0.423,0.406,0.409,0.000,0.000,237.000,38.000,0.000,0.000,0.000,0.000:
0000
0000
0000
0000
,
0000
0000
0000
0000
,
1000
0000
0100
0000
1000
0000
0001
0010
,
0000
0100
0010
0000
0100
0000
0010
0000
,
1000
0000
0001
0000
1000
0000
0001
0100
,
0000
0010
0100
0000
1000
0000
0010
0000
,
0100
0000
0001
0000
0100
0000
1000
0010
,
0000
0100
0010
0000
0100
0000
0010
0000
,
0001
0000
0010
0000
0001
0000
1000
0100
,
0000
0010
0000
0100
0001
0000
1000
0000
,
0010
0000
1000
0001
0000
0100
0000
0010
,
0000
1000
0000
0001
0100
0000
0010
1000
,
0000
0000
0100
0010
0000
0000
0010
0100
,
0000
0011
0011
0010
,
0100
0000
1000
0001
0000
0010
0000
0100
,
0000
1000
0000
0010
1010
0000
0011
0000
,
0010
0000
0000
0100
0000
0000
0010
0000
,
0110
0100
0110
0001
,
1000
0100
0010
0100
,
1000
0100
0010
0100
,
1100
0000
0110
0000
,
0011
0000
0000
0010
,
0100
0010
0100
0000
,
0010
0100
0010
0100
,
0110
0000
0000
0011
0000
0000
1100
0000
,
0000
0000
0000
0000
0010
0000
1000
0001
,
0000
0010
0000
0100
0000
1000
0000
1010
,
0000
0101
0000
0000
0010
0000
0100
0010
,
0000
0100
0000
1000
0000
0100
0000
0101
,
0000
0000
0000
0000
0010
0000
0100
0001
,
0000
0010
0000
0100
0000
1000
0000
0010
,
0000
0100
0000
0000
0010
0000
1000
1000
,
0001
0000
0100
0010
0000
1000
0000
0001
,
0000
0000
0000
0000
0100
0000
0001
0011
,
0000
0100
0000
0110
0000
1000
0000
1001
,
0000
0110
0000
0000
0010
0000
0100
1001
,
0000
0010
0000
0110
0000
1100
0000
0011
,
0000
0000
0000
0000
0010
0000
0100
0110
,
0000
1000
0000
1100
0000
0010
0000
0011
,
0000
0110
0000
0000
1000
0000
0001
0100
,
0010
0000
0100
0110
0000
1000
0000
1001
,
0000
0100
0010
0100
0010
0000
0001
0010
,
0000
1100
0000
0010
0000
0011
0000
0010
,
0000
0100
0010
0100
0010
0000
1000
0001
,
0000
0101
0000
0010
0000
1010
0000
0100
,
0000
0010
0100
0010
0100
0000
0001
1000
,
0000
0110
0000
0010
0000
0011
0000
0010
,
0000
0010
1000
0100
1000
0000
0010
0100
,
0001
0000
0010
0100
0000
1000
0000
0001
,
0000
0010
0100
0010
0100
0000
1000
0001
,
1000
0000
0100
0000
0010
0000
1000
0001
,
0000
0100
0010
0000
0100
0000
1000
0000
,
0001
0000
0100
0000
0010
0000
1000
1000
,
0000
0100
0100
0000
0010
0000
0100
0001
,
1000
0000
0010
0000
0001
0000
0010
0100
,
0000
1000
0000
0001
0000
0010
0000
0100
,
0000
0110
0000
0010
0000
1001
0000
0100
,
0010
0100
0010
1000
,
1001
0000
0000
0000
;

//---------------dance-single - ----------------
#NOTES:
     dance-single:
     :
     Challenge:
     8:
     0.464,0.500,0.452,0.000,0.054,260.000,42.000,0.000,0.000,0.000,0.000,0.464,0.500,0.452,0.000,0.054,260.000,42.000,0.000,0.000,0.000,0.000:
0000
0000
0000
0000
,
0000
0000
0000
0000
,
1000
0000
0000
0010
0100
0000
0000
0010
0010
0000
0000
0000
1000
0000
0001
0000
,
0000
0010
0110
0000
1000
0000
0001
0101
,
0000
0010
1010
0000
0100
0000
0010
1001
,
0000
0100
1001
0000
0010
0000
0100
0010
,
0001
0000
0000
0001
0010
0000
0000
0100
0010
0000
0000
0000
0100
0000
1100
0000
,
0000
0010
0110
0000
0001
0000
0010
0011
,
0000
0100
0110
0000
0010
0000
1000
1001
,
0000
0010
0110
0000
1000
0000
0110
0000
,
0001
0000
1000
0010
0000
0100
0000
0010
,
0000
0100
0000
0001
1000
0000
0010
0100
,
0000
0000
0010
0101
0000
0000
0010
1100
,
0000
0000
0100
0000
0010
0000
1000
0100
,
1000
0000
0010
0100
0000
0010
0000
0001
,
0000
0010
0000
0100
0010
0000
1000
0000
,
1001
0000
0000
0011
0000
0000
0100
0010
,
0000
0010
1000
0001
0000
0000
0001
0100
,
0001
0000
0010
0100
0000
1000
0000
0100
,
0000
1000
0000
0001
0001
0000
0010
0010
,
0000
0000
0100
0110
0000
0000
0001
1001
,
0000
0000
0110
0101
,
1000
0000
0100
0010
0100
0001
0000
0010
,
0000
1000
0001
0000
0010
0000
1001
0000
,
1010
0000
0000
0011
0000
0000
0101
0000
,
0000
0000
0000
0000
1000
0000
0001
0100
,
0000
0010
0000
0100
0000
1000
0000
0010
,
0000
0100
0000
0000
0010
0000
0001
0100
,
0000
0010
0000
0100
0000
1000
0000
0001
,
0000
0000
0000
0000
0010
0000
1000
0001
,
0000
0010
0000
0100
0000
1000
0000
0010
,
0000
0100
0000
0000
0001
0000
1000
0001
,
1000
0000
0010
0100
0000
0001
0000
1000
,
0000
0000
0000
0000
0100
0000
0010
0110
,
0000
1010
0000
0101
0000
0011
0000
0110
,
0000
0000
1010
0000
0000
1000
0010
0000
0100
0000
0000
0000
0010
0000
0110
0000
,
0000
0011
0000
0110
0000
1010
0000
0110
,
0000
0000
0000
0010
0001
0000
0000
0000
1000
0000
0000
0000
0010
0000
0110
0000
,
0000
1000
0000
1001
0000
0010
0000
0110
,
0000
0011
0000
0000
0010
0000
1000
0100
,
1000
0000
0010
0100
0000
0010
0000
1000
,
0000
0100
0001
0100
0001
0000
0100
0110
,
0000
0000
1000
0000
0000
1000
0100
0000
0000
0100
1000
0000
0000
1000
0010
0000
,
0000
0010
0001
0000
0010
0000
0000
0000
0100
0000
0000
0000
0010
0000
0100
0000
,
0000
0010
0000
1000
0000
0001
0000
0010
,
0000
0100
0010
0000
1000
0000
0100
1000
,
0000
0100
0000
0010
0000
0100
0000
0001
,
0000
0010
0100
0010
0100
0000
0010
1000
,
0001
0100
0000
0010
0000
1000
0000
1001
,
0000
0100
0010
0100
0010
0000
1000
0001
,
1000
0001
0000
0010
0100
0000
0010
0000
,
0100
0000
0010
0000
0100
0000
0010
0100
,
0000
0100
0010
0000
0100
0000
0001
0000
,
0100
0001
0100
0001
,
0010
0100
0000
0010
1000
0000
0100
0000
,
1000
0100
1000
0100
,
0010
0100
0000
0010
0001
0000
0010
0000
,
0001
0100
1000
0001
,
1001
0000
0000
0000
;

//---------------dance-single - ----------------
#NOTES:
     dance-single:
     :
     Beginner:
     1:
     0.137,0.156,0.054,0.000,0.000,84.000,5.000,0.000,0.000,0.000,0.000,0.137,0.156,0.054,0.000,0.000,84.000,5.000,0.000,0.000,0.000,0.000: // measure 1
0000
0000
0000
0000
,  // measure 2
0000
0000
0000
0000
,  // measure 3
1000
0000
0000
0000
,  // measure 4
0001
0000
0000
0000
,  // measure 5
1000
0000
0000
0000
,  // measure 6
0001
0000
0000
0000
,  // measure 7
0010
0000
0000
0000
,  // measure 8
0100
0000
0000
0000
,  // measure 9
0010
0000
0000
0000
,  // measure 10
0100
0000
0000
0000
,  // measure 11
0000
0000
0000
0000
,  // measure 12
0000
0000
0000
0010
,  // measure 13
0010
0000
0001
0000
,  // measure 14
0100
0000
0000
1000
,  // measure 15
1000
0000
0100
0000
,  // measure 16
0001
0000
0010
0010
,  // measure 17
0100
0000
0000
0000
,  // measure 18
0010
0000
0000
0000
,  // measure 19
0100
0000
0100
0000
,  // measure 20
0010
0000
0010
0000
,  // measure 21
0001
0000
0000
0000
,  // measure 22
0000
0000
0000
0000
,  // measure 23
0010
0000
0010
0000
,  // measure 24
0100
0000
0100
0100
,  // measure 25
0100
0000
0000
0000
,  // measure 26
0000
0000
0010
0000
,  // measure 27
0100
0000
0100
0000
,  // measure 28
0010
0000
0000
0000
,  // measure 29
0001
0000
0001
0000
,  // measure 30
0100
0000
0000
0000
,  // measure 31
0010
0000
0010
0000
,  // measure 32
1000
0000
0000
0000
,  // measure 33
0100
0000
0100
0000
,  // measure 34
0010
0000
0000
0000
,  // measure 35
0001
0000
0010
0000
,  // measure 36
0110
0000
0000
0000
,  // measure 37
1000
0000
0010
0000
,  // measure 38
0110
0000
0000
0000
,  // measure 39
0001
0000
1000
0000
,  // measure 40
1001
0000
0000
0000
,  // measure 41
1000
0000
0001
0000
,  // measure 42
1001
0000
0000
0000
,  // measure 43
0010
0000
0000
0000
,  // measure 44
0001
0000
0000
0000
,  // measure 45
0100
0000
0000
0000
,  // measure 46
1000
0000
0000
0000
,  // measure 47
0010
0000
0010
0000
,  // measure 48
0100
0000
0100
0000
,  // measure 49
0001
0000
0001
0000
,  // measure 50
1000
0000
0000
0000
,  // measure 51
0010
0000
0010
0000
,  // measure 52
0100
0000
0100
0000
,  // measure 53
0010
0000
0010
0000
,  // measure 54
0100
0000
0100
0000
,  // measure 55
0001
0000
0001
0000
,  // measure 56
1000
0000
1000
0000
,  // measure 57
0100
0000
0100
0000
,  // measure 58
0010
0000
0010
0000
,  // measure 59
1001
0000
0000
0000
;
