#TITLE:Cyber Girl;
#SUBTITLE:;
#ARTIST:good-cool;
#TITLETRANSLIT:;
#SUBTITLETRANSLIT:;
#ARTISTTRANSLIT:;
#GENRE:;
#CREDIT:;
#BANNER:Cyber Girl.png;
#BACKGROUND:Cyber Girl-bg.png;
#LYRICSPATH:;
#CDTITLE:.\CDTITLES\DDRMAX6.PNG;
#MUSIC:Cyber Girl.ogg;
#OFFSET:-0.020;
#SAMPLESTART:30.640;
#SAMPLELENGTH:15.000;
#SELECTABLE:YES;
#DISPLAYBPM:133.000;
#BPMS:0.000=133.000;
#STOPS:;
#BGCHANGES:;
#KEYSOUNDS:;

//---------------dance-single - ----------------
#NOTES:
     dance-single:
     :
     Easy:
     4:
     0.296,0.297,0.320,0.000,0.000,159.000,29.000,0.000,0.000,0.000,0.000,0.296,0.297,0.320,0.000,0.000,159.000,29.000,0.000,0.000,0.000,0.000:
0000
0000
0000
0000
,
0010
0100
0010
0100
,
0010
1000
0010
1000
,
0100
0001
0100
0001
,
0100
0010
0100
0010
,
1000
0010
1000
0010
,
0100
0010
0100
0010
,
0100
0001
0100
0001
,
1000
0100
1000
0100
,
0010
0100
0010
1000
,
0010
0100
0010
1000
,
0010
0100
0010
0001
,
0010
0100
0010
1000
,
0010
0100
0010
0001
,
0010
0100
0010
1000
,
0010
0100
0010
0001
,
1001
0000
0110
0000
,
1000
1000
0100
0100
,
0010
0010
0001
0001
,
0110
1000
1001
0010
,
0110
0001
1001
0110
,
1000
1000
0100
0100
,
0010
0010
0001
0001
,
0110
0001
0110
1000
,
1001
0010
0110
1001
,
0100
0000
0110
0000
,
0001
0000
1001
0000
,
0010
0000
0110
0000
,
1000
0000
0000
0001
,
1001
0000
0110
0000
,
1000
0000
1100
0000
,
0001
0000
0011
0000
,
0100
0000
0110
0000
,
1000
1100
0000
0000
,
0001
0101
0000
0000
,
0010
0110
0000
0000
,
1000
1001
0000
0000
,
0010
0011
0000
0000
,
0100
0110
0000
0000
,
1000
1001
0000
0000
,
0010
0110
0000
0000
,
1000
0100
1000
0100
,
0010
0100
0010
0100
,
0001
0010
0001
0010
,
0100
0010
0100
0010
,
1000
0100
1000
0100
,
0010
0001
0010
0001
,
0100
0010
0100
0010
,
1000
0001
1000
0001
,
1001
0000
0000
0000
;

//---------------dance-single - ----------------
#NOTES:
     dance-single:
     :
     Hard:
     8:
     0.558,0.594,0.496,0.000,0.281,309.000,45.000,0.000,0.000,0.000,0.000,0.558,0.594,0.496,0.000,0.281,309.000,45.000,0.000,0.000,0.000,0.000:
0000
0000
0000
0000
,
1000
0000
0100
0000
0010
0000
0100
0000
0000
0001
0000
0000
1000
0000
0000
0000
,
0010
0001
0010
0001
0100
1000
0100
1000
,
0010
0000
0100
0000
0001
0000
0100
0000
0000
0010
0000
0000
1000
0000
0000
0000
,
0100
0000
0010
0000
0001
0000
0010
0000
0100
0010
0000
0000
0100
0000
0000
0000
,
0001
0000
0010
0000
0100
0000
1000
0000
0000
0010
0000
0000
0100
0000
0000
0000
,
0010
0100
1000
0100
0010
0100
1000
0010
,
0100
0000
0001
0000
1000
0000
0010
0000
0000
0100
0000
0000
0001
0000
0000
0000
,
0010
0100
0010
0100
1000
1001
1001
0000
,
0010
0000
0000
0010
0000
0000
0010
0000
0000
0010
0000
0000
0010
0000
0100
0000
,
1000
0000
0000
1000
0000
0000
1000
0000
0000
1000
0000
0000
1000
0000
0010
0000
,
0100
0000
0000
0100
0000
0000
0100
0000
0000
0100
0000
0000
0100
0000
0001
0000
,
0010
0000
0000
0000
1000
0001
0000
0000
0100
0010
0000
0000
0100
0000
0000
0000
,
0010
0000
0000
0010
0000
0000
0010
0000
0000
0010
0000
0000
0010
0000
0100
0000
,
1000
0000
0000
1000
0000
0000
1000
0000
0000
1000
0000
0000
1000
0000
0010
0000
,
0100
0000
0000
0100
0000
0000
0100
0000
0000
0100
0000
0000
0100
0000
0001
0000
,
0010
1000
0100
0010
0000
1001
1001
0000
,
0011
0011
0110
0000
1100
1100
0110
0110
,
0001
0010
0100
0010
1000
0001
0000
0000
,
1010
0110
0011
0110
,
1100
0110
0011
0110
,
1100
1100
0110
0000
0110
0110
0011
0011
,
0001
0100
0010
0100
1000
0010
0000
0000
,
1010
0110
0011
0110
,
1100
0110
0011
0110
,
1000
0000
0010
0100
0000
0100
0010
0000
0010
0100
0000
0100
0010
0000
0010
0000
,
0001
0000
0010
0001
0000
0001
0010
0000
0010
0100
0000
0100
0010
0000
1000
0000
,
0100
0000
0100
0010
0000
0010
0100
0000
0100
0001
0000
0001
0100
0000
1000
0000
,
0010
0000
0100
0010
0000
0010
0100
0000
1000
0000
0100
0000
0011
0000
0000
0000
,
0100
0000
0001
0100
0000
0100
1000
0000
1000
0010
0000
0010
0100
0000
0100
0000
,
0001
0000
0100
0010
0000
0010
0100
0000
0100
0010
0000
0010
1000
0000
0100
0000
,
0010
0000
0001
0100
0000
0100
0010
0000
0010
0100
0000
1000
0010
0000
0010
0000
,
0100
0000
0001
0100
0000
0100
0010
0000
1000
0000
0001
0000
0110
0000
0000
0000
,
1000
0000
1100
0000
0000
0010
0010
0000
,
0010
0000
0011
0000
0000
0100
0100
0000
,
0100
0000
1100
0000
0000
0010
0010
0000
,
0010
0000
0110
0000
0000
0010
0010
0000
,
0010
0000
0110
0000
0000
1000
1000
0000
,
1000
0000
1100
0000
0000
0010
0010
0000
,
0010
0000
0011
0000
0000
0010
0010
0000
,
0010
0000
0110
0000
0000
1000
1000
0000
,
0100
0000
0010
0000
0100
0000
0010
0000
0000
1000
0000
0000
0001
0000
0000
0000
,
0100
0010
0100
0010
0100
0010
0100
0010
,
1000
0000
0100
0000
1000
0000
0010
0000
0000
0100
0000
0000
0001
0000
0000
0000
,
0100
0010
0100
0010
1000
0010
1000
0010
,
0100
0000
0010
0000
0100
0000
0001
0000
0000
0100
0000
0000
0010
0000
0000
0000
,
1000
0100
1000
0100
0010
0001
0010
0100
,
0010
0000
1000
0000
0010
0000
0100
0000
0000
0010
0000
0000
0100
0000
0000
0000
,
0001
0010
0001
0010
0100
1000
0100
1000
,
1001
0000
0000
0000
;

//---------------dance-single - ----------------
#NOTES:
     dance-single:
     :
     Medium:
     6:
     0.402,0.351,0.408,0.000,0.077,218.000,37.000,0.000,0.000,0.000,0.000,0.402,0.351,0.408,0.000,0.077,218.000,37.000,0.000,0.000,0.000,0.000:
0000
0000
0000
0000
,
1000
0001
1000
1001
,
0100
0010
0100
0010
0100
0010
0100
0010
,
0100
0010
0100
0110
,
0001
0100
0001
0000
0000
0000
1000
0000
,
0010
0100
0010
0110
,
1000
0001
1000
0001
1000
0001
1000
0000
,
0010
0110
0001
0011
,
0100
0010
0100
0010
,
0110
0000
0010
0100
,
1100
0000
1000
0010
,
0011
0000
0010
0100
,
1100
0110
0011
1001
,
0010
0000
0010
0100
,
0011
0000
0010
0100
,
1100
0000
0010
0100
,
0110
0000
1001
0000
,
1000
1000
0010
0000
0010
0010
0100
1000
,
0010
0100
0010
0100
,
0011
0011
0110
0110
,
1000
0100
1000
0100
,
0010
0010
0100
0000
1000
0100
1000
0010
,
0100
0100
0001
0001
,
1100
0110
0011
0110
,
1000
0001
1000
0001
,
0100
0000
0000
0100
0000
0000
0100
0000
0000
0100
0000
0000
0100
0000
0010
0000
,
0001
0000
0000
0001
0000
0000
0001
0000
0000
0001
0000
0000
0001
0000
0010
0000
,
0100
0000
0000
0100
0000
0000
0100
0000
0000
0100
0000
0000
0100
0000
1000
0000
,
0010
0000
0000
0010
0000
0000
0010
0000
0000
0000
0000
0000
0100
0000
0000
0000
,
0010
0000
0000
0010
0000
0000
0010
0000
0000
0010
0000
0000
0010
0000
0100
0000
,
1000
0000
0000
1000
0000
0000
1000
0000
0000
1000
0000
0000
1000
0000
0010
0000
,
0001
0000
0000
0001
0000
0000
0001
0000
0000
0001
0000
0000
0001
0000
0100
0000
,
0010
0000
0000
0010
0000
0000
0010
0000
0000
0000
0000
0000
0100
0000
0000
0000
,
1000
0000
1100
0000
0000
0010
0010
0000
,
0010
0000
0011
0000
0000
0100
0100
0000
,
0100
0000
0110
0000
0000
0001
0001
0000
,
0001
0000
1001
0000
0000
0100
0100
0000
,
0100
0000
0110
0000
0000
1000
1000
0000
,
1000
0000
1001
0000
0000
0010
0010
0000
,
0010
0000
0110
0000
0000
0001
0001
0000
,
0001
0000
0011
0000
0000
0010
0010
0000
,
0100
0010
0100
0110
,
1000
0100
1000
0100
1000
0100
1000
0100
,
0010
0001
0010
0011
,
0100
0010
0100
0000
0000
0000
0100
0000
,
1000
0001
1000
1001
,
0010
0001
0010
0001
0010
0001
0010
0001
,
0010
0100
0010
0110
,
1000
0100
0010
0001
,
1001
0000
0000
0000
;

//---------------dance-single - ----------------
#NOTES:
     dance-single:
     :
     Beginner:
     1:
     0.099,0.108,0.088,0.000,0.000,55.000,8.000,0.000,0.000,0.000,0.000,0.099,0.108,0.088,0.000,0.000,55.000,8.000,0.000,0.000,0.000,0.000: // measure 1
0000
0000
0000
0000
,  // measure 2
1000
0000
0000
0000
,  // measure 3
0000
0000
0000
0000
,  // measure 4
0001
0000
0000
0000
,  // measure 5
0000
0000
0000
0000
,  // measure 6
1000
0000
0000
0000
,  // measure 7
0000
0000
0000
0000
,  // measure 8
0001
0000
0000
0000
,  // measure 9
0000
0000
0000
0000
,  // measure 10
1000
0000
0000
1000
,  // measure 11
1000
0000
0000
0010
,  // measure 12
0010
0000
0000
0001
,  // measure 13
0001
0000
0000
0000
,  // measure 14
0100
0000
0000
0010
,  // measure 15
0010
0000
0000
0100
,  // measure 16
0100
0000
0000
0001
,  // measure 17
1000
0000
0000
0000
,  // measure 18
0001
0000
0000
0000
,  // measure 19
0100
0000
0000
0000
,  // measure 20
0010
0000
0000
0000
,  // measure 21
0000
0000
0000
0000
,  // measure 22
1000
0000
0000
0000
,  // measure 23
0100
0000
0000
0000
,  // measure 24
0010
0000
0000
0000
,  // measure 25
0000
0000
0000
0000
,  // measure 26
0001
0000
0000
0001
,  // measure 27
0001
0000
0000
0010
,  // measure 28
0010
0000
0000
0100
,  // measure 29
0100
0000
0000
0000
,  // measure 30
1000
0000
0000
0001
,  // measure 31
0001
0000
0000
0100
,  // measure 32
0100
0000
0000
0010
,  // measure 33
0100
0000
0000
0000
,  // measure 34
1001
0000
0000
0000
,  // measure 35
1001
0000
0000
0000
,  // measure 36
1001
0000
0000
0000
,  // measure 37
1001
0000
0000
0000
,  // measure 38
0110
0000
0000
0000
,  // measure 39
0110
0000
0000
0000
,  // measure 40
0110
0000
0000
0000
,  // measure 41
0110
0000
0000
0000
,  // measure 42
0010
0000
0000
0000
,  // measure 43
0010
0000
0000
0000
,  // measure 44
0100
0000
0000
0000
,  // measure 45
0100
0000
0000
0000
,  // measure 46
0001
0000
0000
0000
,  // measure 47
0001
0000
0000
0000
,  // measure 48
1000
0000
0000
0000
,  // measure 49
1000
0000
0000
0000
,  // measure 50
0100
0000
0000
0000
;
