#TITLE:Come Chameleon;
#SUBTITLE:;
#ARTIST:SMiLE.dk;
#TITLETRANSLIT:;
#SUBTITLETRANSLIT:;
#ARTISTTRANSLIT:;
#GENRE:;
#CREDIT:;
#BANNER:Come Chameleon.png;
#BACKGROUND:Come Chameleon-bg.png;
#LYRICSPATH:;
#CDTITLE:.\CDTITLES\DDRMAX6.PNG;
#MUSIC:Come Chameleon.ogg;
#OFFSET:0.500;
#SAMPLESTART:52.540;
#SAMPLELENGTH:15.000;
#SELECTABLE:YES;
#DISPLAYBPM:131.000;
#BPMS:0.000=131.000;
#STOPS:;
#BGCHANGES:0.000=Come Chameleon-bg.png=1.000=0=0=1=====,
1.000=Come Chameleon.avi=1.000=0=0=1=====,
243.000=Come Chameleon-bg.png=1.000=0=0=1=====,
99999=-nosongbg-=1.000=0=0=0 // don't automatically add -songbackground-
;
#KEYSOUNDS:;

//---------------dance-single - ----------------
#NOTES:
     dance-single:
     :
     Easy:
     3:
     0.213,0.210,0.213,0.000,0.000,144.000,24.000,0.000,0.000,0.000,0.000,0.213,0.210,0.213,0.000,0.000,144.000,24.000,0.000,0.000,0.000,0.000:
0000
0000
0000
0000
,
0000
0000
0000
0000
,
0000
0000
0000
0000
,
0000
0000
0000
0000
,
0000
0000
0000
0000
,
1001
0000
0100
0010
,
1000
1000
0001
0000
,
0010
0100
1000
0000
,
0100
0001
1000
0000
,
1001
0000
0010
0010
,
0100
1000
0001
0000
,
0010
1000
0001
0000
,
1000
0010
0100
0000
,
1001
0000
0010
1000
,
0001
1000
0010
0000
,
0010
1000
0001
0000
,
1000
0010
0100
0000
,
0110
0000
0010
0001
,
1000
0000
0000
0000
,
0010
1000
0001
0000
,
0100
0010
0110
0000
,
1001
0000
0010
1000
,
0001
0000
0000
0000
,
0010
0100
1000
0000
,
0010
0100
0110
0000
,
0000
1001
1001
0000
,
0010
0100
0010
0000
,
0000
1000
0001
0010
,
0110
0000
0000
0000
,
1001
0000
0010
1000
,
0100
1000
0010
0000
,
0100
0001
1000
0000
,
0010
0100
0010
0000
,
1001
0000
0010
0100
,
1000
0001
1000
0000
,
0010
0100
1000
0000
,
0010
0100
0110
0000
,
1001
0000
0000
0000
,
0000
0000
0000
0000
,
1001
0000
0001
1000
,
0010
0000
0000
0000
,
1000
0100
0100
0000
,
0001
0100
0100
0000
,
1001
0000
0010
1000
,
0100
0000
0000
0000
,
0010
0010
0001
0000
,
0010
1000
0001
0000
,
0000
1001
1001
0000
,
0010
0100
0110
0000
,
0000
1000
0100
0001
,
1001
0000
0000
0000
,
1001
0000
0010
0100
,
1000
0010
0001
0000
,
0010
1000
0001
0000
,
0010
1000
1000
0000
,
1001
0000
0010
1000
,
0001
1000
0010
0000
,
1000
0001
1000
0000
,
0010
0100
1001
0000
,
1001
0000
0000
0000
;

//---------------dance-single - ----------------
#NOTES:
     dance-single:
     :
     Medium:
     4:
     0.255,0.262,0.347,0.000,0.000,162.000,39.000,0.000,0.000,0.000,0.000,0.255,0.262,0.347,0.000,0.000,162.000,39.000,0.000,0.000,0.000,0.000:
0000
0000
0000
0000
,
0000
0000
0000
0000
,
0000
0000
0000
0000
,
0000
0000
0000
0000
,
0000
0000
0000
0000
,
1001
0000
1000
0010
,
1000
0100
0101
0000
,
0010
0100
0110
0000
,
0001
0000
1000
0000
0001
1000
0000
0000
,
0110
0000
1000
0010
,
0100
0001
1001
0000
,
0010
1000
1100
0000
,
0010
0000
0100
0000
0001
1000
0000
0000
,
1001
0000
0001
0100
,
0010
1000
1001
0000
,
0010
0001
0011
0000
,
0010
0000
0100
0000
0010
0100
0000
0000
,
1001
0000
0001
1000
,
0010
0000
0000
0000
,
1000
0100
0010
0001
,
1000
0010
0001
0000
,
0010
0000
1000
0100
,
1000
0000
0000
0000
,
0001
0010
0100
1000
,
0010
0100
0001
0000
,
0000
1001
1001
0000
,
0010
0100
0110
0000
,
0000
0000
1001
0000
0101
0000
0001
1000
,
0000
0000
0000
0000
,
1001
0000
0010
0100
,
1000
0010
0110
0000
,
0010
0001
0011
0000
,
0010
0000
0100
0000
0001
1000
0000
0000
,
1001
0000
0001
0100
,
1000
0010
0110
0000
,
0001
1000
1001
0000
,
1000
0000
0001
0000
1000
0001
0000
0000
,
0010
0010
0010
0010
,
0010
0010
0010
0100
,
1001
0000
0010
1000
,
1001
0000
0000
0000
,
0010
0100
0010
1000
,
0001
1000
1001
0000
,
1001
0000
0010
0100
,
0110
0000
0000
0000
,
1000
0100
0010
0001
,
1000
0010
0110
0000
,
0000
1001
1001
0000
,
0010
0100
0110
0000
,
0000
0000
1100
0000
0011
0000
0001
1000
,
0000
0000
0000
0000
,
1001
0000
0010
1000
,
0100
1000
1010
0000
,
0010
0100
0110
0000
,
0001
0000
1000
0000
0001
1000
0000
0000
,
1001
0000
0010
0100
,
1000
0010
0110
0000
,
0001
1000
1001
0000
,
1000
0000
0001
0000
1000
0001
0000
0000
,
1001
0000
0000
0000
;

//---------------dance-single - ----------------
#NOTES:
     dance-single:
     :
     Hard:
     6:
     0.381,0.367,0.320,0.000,0.027,264.000,36.000,0.000,0.000,0.000,0.000,0.381,0.367,0.320,0.000,0.027,264.000,36.000,0.000,0.000,0.000,0.000:
0000
0000
0000
0000
,
0000
0000
0000
0000
,
0000
0000
0000
0000
,
0000
0000
0000
0000
,
0000
0000
0000
0000
,
1001
0000
0000
0010
1000
0001
1000
0100
,
0010
0000
1000
0100
0010
0100
0000
0000
,
0101
0000
1000
0010
1000
0001
0000
0100
,
0110
0000
1000
0001
1000
0001
0000
0000
,
1001
0000
0000
0010
0100
1000
0010
0001
,
0100
0000
0010
1000
0001
1000
0000
0000
,
0001
0000
0100
1000
0010
0100
0000
0001
,
1001
0000
0010
0100
1000
0001
0000
0000
,
1001
0000
0000
0010
0100
1000
0010
0100
,
0001
0000
0010
1000
0001
1000
0000
0000
,
0010
0000
1000
0100
1000
0001
0000
1000
,
1010
0000
0100
0001
1000
0010
0000
0000
,
1001
0000
0000
0010
0100
1000
0010
0100
,
0101
0000
0000
0000
0000
0000
0000
0010
,
0110
0000
0010
1000
0001
0000
0010
0100
,
1000
0010
0000
1010
0000
0000
0000
0000
,
1001
0000
0000
0010
1000
0100
1000
0001
,
1001
0000
0000
0000
0000
0000
0010
0001
,
0100
1000
0000
1010
0000
0000
0010
1000
,
0001
1000
0000
0011
0000
0000
0000
0000
,
0000
0100
0010
1000
0001
0000
0000
0010
,
1000
0001
0000
1001
0000
0000
0000
0000
,
0000
0010
0100
0010
0100
0000
0010
1001
,
0000
0000
0000
0000
,
0011
0000
0000
0010
0100
1000
0001
0010
,
0100
0000
0010
1000
0001
1000
0000
0000
,
0010
0000
0100
1000
0001
1000
0000
0010
,
0110
0000
1000
0001
1000
0001
0000
0000
,
1010
0000
0000
0010
0100
1000
0001
1000
,
0010
0000
0100
0001
0100
0001
0000
0000
,
0010
0000
1000
0001
1000
0010
0000
0100
,
0101
0000
1000
0001
1000
0001
0000
0000
,
0100
0000
0000
0010
0100
0000
0000
0010
0100
0000
0000
0010
0100
0000
0000
0000
,
1000
0000
0000
1000
0001
0000
0000
1000
0001
0000
0000
1000
0001
0000
0000
0000
,
1001
0000
0000
0010
1000
0001
1000
0010
,
1010
0000
0000
0000
0000
0000
0000
0100
,
0110
0000
0001
0010
0100
0000
0010
1000
,
0001
1000
0000
1010
0000
0000
0000
0000
,
0101
0000
0000
0010
1000
0001
1000
0010
,
1010
0000
0000
0000
0000
0000
0010
0100
,
0001
1000
0000
1001
0000
0000
0010
0100
,
1000
0010
0000
1001
0000
0000
0000
0000
,
0000
0010
0100
0010
0100
0000
0000
0001
,
1000
0010
0000
1100
0000
0000
0000
0000
,
0000
0100
0010
0100
0010
0000
0100
1001
,
0000
0000
0000
0000
,
1010
0000
0000
0010
1000
0001
1000
0000
,
0010
0000
0100
0010
0100
0010
0000
0000
,
0100
0000
0001
1000
0001
1000
0000
0010
,
1010
0000
0010
0100
0010
0001
0000
0000
,
1001
0000
0000
0010
1000
0001
1000
0010
,
1000
0000
0001
1000
0010
0100
0000
0000
,
0010
0000
1000
0100
0010
0100
0000
0001
,
1001
0000
0010
0100
0010
0100
0000
0000
,
1001
0000
0000
0000
;

//---------------dance-single - ----------------
#NOTES:
     dance-single:
     :
     Beginner:
     1:
     0.130,0.131,0.044,0.000,0.000,97.000,5.000,0.000,0.000,0.000,0.000,0.130,0.131,0.044,0.000,0.000,97.000,5.000,0.000,0.000,0.000,0.000: // measure 1
0000
0000
0000
0000
,  // measure 2
0000
0000
0000
0000
,  // measure 3
0000
0000
0000
0000
,  // measure 4
0000
0000
0000
0000
,  // measure 5
0000
0000
0000
0000
,  // measure 6
1000
0000
1000
0000
,  // measure 7
0010
0000
0010
0000
,  // measure 8
0100
0000
0100
0000
,  // measure 9
0001
0001
0001
0000
,  // measure 10
0010
0000
0010
0000
,  // measure 11
0100
0000
0100
0000
,  // measure 12
1000
0000
1000
0000
,  // measure 13
0010
0000
0010
0000
,  // measure 14
0100
0000
0100
0000
,  // measure 15
0010
0000
0010
0000
,  // measure 16
1000
0000
1000
0000
,  // measure 17
0100
0000
0000
0000
,  // measure 18
0010
0000
0001
0000
,  // measure 19
1001
0000
0000
0000
,  // measure 20
0010
0000
1000
0000
,  // measure 21
0010
0000
0000
0000
,  // measure 22
0010
0000
1000
0000
,  // measure 23
0110
0000
0000
0000
,  // measure 24
0001
0000
1000
0000
,  // measure 25
0010
0000
0000
0000
,  // measure 26
0000
0010
0010
0000
,  // measure 27
0100
0000
0000
0000
,  // measure 28
0000
0010
0010
0000
,  // measure 29
1001
0000
0000
0000
,  // measure 30
0100
0000
0100
0000
,  // measure 31
0010
0000
0010
0000
,  // measure 32
0100
0000
0100
0000
,  // measure 33
0010
0010
0010
0000
,  // measure 34
1000
0000
1000
0000
,  // measure 35
0001
0000
0001
0000
,  // measure 36
0010
0000
0010
0000
,  // measure 37
0100
0100
0100
0000
,  // measure 38
0000
0000
0000
0000
,  // measure 39
0000
0000
0000
0000
,  // measure 40
0010
0000
0100
0000
,  // measure 41
0100
0000
0000
0000
,  // measure 42
0010
0000
0010
0000
,  // measure 43
1000
0000
0000
0000
,  // measure 44
0010
0000
0100
0000
,  // measure 45
1001
0000
0000
0000
,  // measure 46
0010
0000
0010
0000
,  // measure 47
0100
0000
0000
0000
,  // measure 48
0000
0001
0001
0000
,  // measure 49
1000
0000
0000
0000
,  // measure 50
0000
1000
1000
0000
,  // measure 51
1001
0000
0000
0000
,  // measure 52
0010
0000
0010
0000
,  // measure 53
0100
0000
0100
0000
,  // measure 54
0010
0000
0010
0000
,  // measure 55
0100
0100
0100
0000
,  // measure 56
1000
0000
1000
0000
,  // measure 57
0010
0000
0010
0000
,  // measure 58
0100
0000
0100
0000
,  // measure 59
0010
0010
0010
0000
,  // measure 60
0100
0000
0000
0000
;
