#TITLE:Chocolate Disco;
#SUBTITLE:;
#ARTIST:Perfume;
#TITLETRANSLIT:;
#SUBTITLETRANSLIT:;
#ARTISTTRANSLIT:;
#GENRE:;
#CREDIT:;
#BANNER:Chocolate Disco.png;
#BACKGROUND:Chocolate Disco-bg.png;
#LYRICSPATH:;
#CDTITLE:.\CDTITLES\DDRMAX6.PNG;
#MUSIC:Chocolate Disco.ogg;
#OFFSET:-0.020;
#SAMPLESTART:63.740;
#SAMPLELENGTH:15.000;
#SELECTABLE:YES;
#DISPLAYBPM:128.000;
#BPMS:0.000=127.970;
#STOPS:;
#BGCHANGES:0.000=Chocolate Disco.avi=1.000=0=0=1=====,
190.000=Chocolate Disco-bg.png=1.000=0=0=1=====,
99999=-nosongbg-=1.000=0=0=0 // don't automatically add -songbackground-
;
#KEYSOUNDS:;

//---------------dance-single - ----------------
#NOTES:
     dance-single:
     :
     Challenge:
     9:
     0.700,0.642,0.581,0.045,0.480,383.000,52.000,4.000,0.000,0.000,0.000,0.700,0.642,0.581,0.045,0.480,383.000,52.000,4.000,0.000,0.000,0.000:
0000
0000
0000
0000
,
0000
0000
0000
0000
,
1000
0000
0010
0000
0001
0000
0010
0000
1000
0000
0010
0000
0001
0000
0100
0010
,
0001
0000
0010
0000
1000
0000
0010
0000
0001
0000
0010
0000
1000
0000
0010
0100
,
1000
0000
0010
0000
0001
0000
0010
0000
1000
0000
0010
0000
0001
0000
1000
0010
,
1000
0100
0001
1100
1001
0000
0010
1000
,
0001
0000
1001
0000
0100
0000
0110
0000
1000
0001
0000
0001
1000
0000
0010
0000
,
0100
1000
0010
0100
0011
0000
0010
1000
,
0001
0000
0100
0000
0010
0000
1000
0000
0001
1000
0000
0010
0100
0000
1000
0000
,
1001
0110
0011
0000
,
1010
0000
1010
0000
0010
0000
0100
0000
0001
0000
0010
0100
0000
1000
0010
0000
,
0100
0000
0001
0000
1000
0000
0010
1000
0000
0001
0000
0100
0010
0100
0010
0000
,
0100
0000
1010
0000
1010
0000
0100
0000
0010
0000
0001
0100
0000
0010
1000
0000
,
0110
0000
0001
0000
1001
0000
1000
0010
0000
0100
0000
0010
0001
0010
0001
0000
,
0100
0000
0010
0000
0110
0000
0110
0000
1000
0000
0001
1000
0000
0010
0100
0000
,
1000
0000
0010
0000
0100
0000
0001
0100
0000
0010
0000
1000
0001
1000
0001
0000
,
0100
0000
0010
0000
0011
0000
0010
0000
0100
0000
0010
0100
0000
1000
0001
0000
,
1010
0000
1001
0000
0001
0000
0100
0010
0000
0000
0100
0010
0100
0010
0100
0000
,
0010
0000
1000
0000
1001
0000
0100
0000
0011
0000
0010
0100
0000
1000
0001
0000
,
0110
0000
0101
0000
0011
0000
0001
0010
0000
0100
0000
1000
0010
1000
0010
0000
,
0100
0000
0010
0000
1100
0000
0110
0000
0001
0000
1000
0001
0000
0100
0010
0000
,
1100
0000
1100
0000
0110
0000
0001
0100
0000
0010
0000
1000
0010
1000
0010
0000
,
0100
0000
0001
0000
1001
0000
0010
0000
0100
0000
0001
1000
0000
0010
0100
0000
,
1001
0000
0101
0000
0011
0000
0001
0100
0000
0010
0000
1000
0001
1000
0001
0000
,
0100
0000
0010
0000
1001
0000
1001
0000
0010
0000
0100
0010
0000
1000
0001
0000
,
0101
0000
1100
0000
0110
0000
0001
1000
0000
0100
0001
0100
0001
0100
0001
0000
,
0100
0000
0010
1000
0000
0001
1000
0000
0010
0000
0100
0001
0000
0100
0001
0000
,
1000
0000
0010
1000
0000
0001
0100
0000
0010
0100
0010
0000
0000
0000
1000
0000
,
0001
0000
0100
0001
0000
1000
0010
0000
0100
0000
0001
0100
0000
1000
0010
0000
,
0100
0000
0001
1000
0000
0010
0100
0000
0001
1000
0001
0000
0000
0000
0010
0000
,
0110
0000
0100
0010
0000
0010
0100
0000
0101
0000
0001
0100
0000
0100
0001
0000
,
1001
0000
1000
0001
0000
0001
1000
0000
0010
0100
0010
0000
0000
0000
1000
0000
,
1020
0031
0102
1003
,
0120
1030
1002
0103
,
0010
0000
0001
0000
0010
0000
0100
0000
0010
0000
0001
0000
0010
0000
0100
1000
,
0100
0000
0010
0000
0100
0000
1000
0000
0100
0000
0010
0000
0100
0000
0001
0010
,
0001
0000
0010
0000
0100
0000
0010
0000
0001
0000
0010
0000
0100
0000
1000
0100
,
0010
0000
0100
0000
1000
0000
0100
0000
0010
0000
0100
0000
1000
0000
0100
0010
,
0001
0000
0010
0000
0100
0000
0010
0000
0001
0000
0010
0000
0100
0000
1000
0010
,
1000
0000
0100
0000
0010
0000
0100
0000
1000
0000
0100
0000
0010
0000
0100
0001
,
0100
0000
1000
0000
0100
0000
0010
0000
0100
0000
1000
0000
0100
0000
0010
0001
,
0010
0100
0010
0001
0100
0000
0011
0101
,
1000
0000
0010
0000
0100
0000
0001
0000
1000
0100
0000
0010
0100
0000
0001
0000
,
1000
0100
0010
0100
1000
0000
0101
1001
,
0010
0000
0001
0000
0010
0000
0100
0000
1000
0100
0000
0010
0100
0000
0001
0000
,
1000
0100
0010
0001
1000
0000
0011
0101
,
1001
0000
0000
0000
;

//---------------dance-single - ----------------
#NOTES:
     dance-single:
     :
     Medium:
     6:
     0.367,0.334,0.279,0.000,0.000,205.000,25.000,0.000,0.000,0.000,0.000,0.367,0.334,0.279,0.000,0.000,205.000,25.000,0.000,0.000,0.000,0.000:
0000
0000
0000
0000
,
0000
0000
0000
0000
,
1000
0100
0100
0000
0010
0100
0100
0000
,
0001
1000
1000
0000
0010
0100
0100
0000
,
0001
1000
1000
0000
0010
0100
0100
0000
,
0001
0010
1000
0100
0010
0000
0100
0001
,
1000
0100
0010
0001
,
0100
0001
0010
0001
0100
0000
1000
0001
,
1000
0000
0100
0000
0010
0000
0001
0010
,
1001
0101
1010
0000
,
0010
0100
1000
0100
,
0010
0001
1001
0000
,
0010
0100
0010
1000
,
0100
0001
0011
0000
,
0010
1000
0010
0100
,
0001
1000
1001
0000
,
0010
0100
0010
0100
,
1000
0100
0110
0000
,
0001
1000
0001
1000
,
0010
0100
1001
0000
,
0010
0100
0010
0100
,
0001
0100
1001
0000
,
0010
1000
0010
0100
,
0010
0001
0011
0000
,
0010
1000
0010
1000
,
0010
0000
0100
0000
1001
0000
0000
0100
,
0010
0110
0010
0110
,
0010
0000
0110
0000
1001
0000
0000
0001
,
1000
1001
0001
1001
,
0001
0000
1001
0000
0101
0000
0000
1000
,
0010
1010
0010
1010
,
0010
0000
0110
0000
1001
0000
0000
0001
,
0100
1000
0100
0010
,
0100
0010
1001
0101
,
0001
0001
0100
0000
0010
0010
0100
0000
,
1000
1000
1000
0000
0100
0100
0100
0000
,
0010
0010
0100
0000
0001
0001
0001
0000
,
0100
0100
0010
0000
1000
1000
1000
0000
,
0010
1000
0001
0000
1000
0010
1000
0000
,
0010
0001
0010
0000
0100
0010
0100
0000
,
0100
0100
0100
0000
0010
0010
0010
0000
,
1000
0001
1000
0001
1000
0000
0010
0100
,
0001
0010
0100
1000
,
0001
0010
0001
0010
0001
0000
1000
0100
,
1000
0100
0010
0001
,
1000
0100
1000
0100
1000
0000
0010
0001
,
0010
0000
0000
0000
;

//---------------dance-single - ----------------
#NOTES:
     dance-single:
     :
     Easy:
     3:
     0.287,0.283,0.324,0.000,0.000,151.000,29.000,0.000,0.000,0.000,0.000,0.287,0.283,0.324,0.000,0.000,151.000,29.000,0.000,0.000,0.000,0.000:
0000
0000
0000
0000
,
0000
0000
0000
0000
,
1000
0100
0100
0100
,
0001
0010
0010
0010
,
0100
1000
1000
1000
,
0010
0100
0010
1001
,
1001
0001
0100
0001
,
0010
0100
0010
0110
,
0110
0100
0010
0100
,
1001
0110
1001
0000
,
1000
0001
1000
0001
,
0010
0100
0110
0000
,
1000
0001
1000
0001
,
0100
0010
0110
0000
,
1000
0001
1000
0001
,
0010
0100
0110
0000
,
1000
0010
1000
0010
,
0100
0010
0110
0000
,
0001
1000
0001
1000
,
0010
0100
0110
0000
,
1000
0001
1000
0001
,
1000
0010
0110
0000
,
1000
0001
1000
0001
,
0100
0010
0110
0000
,
0001
1000
0001
1000
,
0010
0100
0110
0000
,
0110
0010
0110
0000
,
1001
0001
1001
0000
,
0110
0010
0110
0000
,
1001
0001
1001
0000
,
0100
0010
0100
0000
,
1000
0001
1000
0000
,
0100
0100
0100
0100
,
0010
0010
0010
0010
,
1000
0100
0010
0000
,
1000
0100
0010
0000
,
0001
0010
0100
0000
,
0001
0010
0100
0000
,
0001
0100
0001
0000
,
0010
0100
0010
0000
,
1000
0100
1000
0000
,
0010
1000
0001
0110
,
0110
0000
0100
0000
,
0010
0100
0010
1001
,
1001
0000
1000
0000
,
0100
0010
0100
0110
,
1001
0000
0000
0000
;

//---------------dance-single - ----------------
#NOTES:
     dance-single:
     :
     Hard:
     8:
     0.549,0.462,0.313,0.045,0.201,312.000,28.000,4.000,0.000,0.000,0.000,0.549,0.462,0.313,0.045,0.201,312.000,28.000,4.000,0.000,0.000,0.000:
0000
0000
0000
0000
,
0000
0000
0000
0000
,
1000
0100
1000
0100
0010
0100
0010
0000
,
0001
0010
0001
0010
0100
0010
0100
0000
,
1000
0010
1000
0010
0100
0010
0100
0000
,
0001
1000
0001
1000
0001
0000
0010
0100
,
0110
0000
0010
0000
0100
0000
0010
0000
1000
0001
0000
1000
0001
0000
0100
0000
,
0010
1000
0010
0100
0001
0000
0100
0010
,
0110
0000
0010
0000
0100
0000
1000
0000
0010
0100
0000
0100
0010
0000
0100
0000
,
0110
1010
0110
0000
,
0100
0000
0001
0000
1000
0000
0010
0000
0100
0000
0000
0010
0000
0000
0100
0000
,
0001
0000
1000
0000
0010
0000
0100
0001
0000
0000
0010
0000
0100
0000
1000
0000
,
0010
0000
0100
0000
0001
0000
1000
0000
0010
0000
0000
0100
0000
0000
0001
0000
,
1000
0000
0010
0000
0100
0000
0001
1000
0000
0000
0010
0000
0100
0000
0001
0000
,
1000
0000
0010
0000
0100
0000
0010
0000
0100
0000
0000
0001
0000
0000
1000
0000
,
0010
0000
0100
0000
0001
0000
1000
0010
0000
0000
0100
0000
0001
0000
1000
0000
,
0010
0000
0100
0000
0010
0000
1000
0000
0100
0000
0000
0010
0000
0000
1000
0000
,
0001
0000
0100
0000
0010
0000
1000
0001
0000
0000
0100
0000
0100
0000
0010
0000
,
0100
0000
0110
0000
0110
0000
0011
0000
0001
0000
0000
0100
0000
0000
0010
0000
,
1000
0000
0001
0000
0100
0000
0010
1000
0000
0000
0100
0000
0010
0000
0100
0000
,
1000
0000
1100
0000
1100
0000
1100
0000
0010
0000
0000
0100
0000
0000
0010
0000
,
0100
0000
0001
0000
0100
0000
0010
1000
0000
0000
0100
0000
0010
0000
0100
0000
,
0010
0000
0101
0000
1001
0000
1010
0000
0100
0000
0000
0100
0000
0000
0010
0000
,
1000
0000
0100
0000
0010
0000
0001
1000
0000
0000
0010
0000
0100
0000
0010
0000
,
0100
0000
0110
0000
0011
0000
0011
0000
0100
0000
0000
1000
0000
0000
0010
0000
,
0100
0000
0010
0000
1000
0000
0001
1000
0000
0000
0010
0000
0100
0000
1000
0000
,
0010
0000
0000
0010
0000
0000
0100
0000
1000
0000
0000
1000
0000
0000
0100
0000
,
0010
0000
0000
0010
0000
0000
0001
0000
0100
0010
0100
0000
0000
0000
0010
0000
,
1000
0000
0000
1000
0000
0000
0010
0000
0100
0000
0000
0100
0000
0000
0001
0000
,
0010
0000
0000
0010
0000
0000
0100
0000
1000
0001
1000
0000
0000
0000
0010
0000
,
0100
0000
0000
0100
0000
0000
0001
0000
1000
0000
0000
1000
0000
0000
0010
0000
,
0100
0000
0000
0100
0000
0000
0001
0000
1000
0010
1000
0000
0000
0000
0100
0000
,
2001
3100
1200
0310
,
1002
0013
0120
1030
,
0100
0010
0001
0010
0100
0010
0001
0000
,
0010
0100
1000
0100
0010
0100
1000
0000
,
0010
0001
0010
0100
0010
0001
0010
0000
,
0100
1000
0100
0010
0100
1000
0100
0000
,
0010
1000
0001
1000
0010
1000
0100
0000
,
0010
0100
1000
0100
0010
0100
0010
0000
,
0001
0010
0100
0010
0001
0010
0100
0000
,
1000
0100
0010
0100
0001
0000
0110
1010
,
1000
0000
0100
0000
0010
0000
0001
0000
1000
0100
0000
0010
0100
0000
0001
0000
,
1000
0010
0100
0010
1000
0000
0101
0011
,
1000
0000
0100
0000
0010
0000
0100
0000
1000
0001
0000
1000
0010
0000
0100
0000
,
0001
1000
0010
0100
1000
0000
1010
1001
,
0101
0000
0000
0000
;

//---------------dance-single - ----------------
#NOTES:
     dance-single:
     :
     Beginner:
     1:
     0.077,0.103,0.000,0.000,0.000,48.000,0.000,0.000,0.000,0.000,0.000,0.077,0.103,0.000,0.000,0.000,48.000,0.000,0.000,0.000,0.000,0.000: // measure 1
0000
0000
0000
0000
,  // measure 2
0000
0000
0000
0000
,  // measure 3
1000
0000
0000
0000
,  // measure 4
1000
0000
0000
0000
,  // measure 5
0001
0000
0000
0000
,  // measure 6
0001
0000
0000
0000
,  // measure 7
0010
0000
0000
0000
,  // measure 8
0010
0000
0000
0000
,  // measure 9
0100
0000
0000
0000
,  // measure 10
0100
0100
0100
0000
,  // measure 11
0010
0000
0000
0000
,  // measure 12
0000
0000
0000
0000
,  // measure 13
0010
0000
0000
0000
,  // measure 14
0000
0000
0000
0000
,  // measure 15
0100
0000
0000
0000
,  // measure 16
0000
0000
0000
0000
,  // measure 17
0100
0000
0000
0000
,  // measure 18
0000
0000
0000
0000
,  // measure 19
0010
0000
0000
0000
,  // measure 20
0000
0000
0000
0000
,  // measure 21
0010
0000
0000
0000
,  // measure 22
0000
0000
0000
0000
,  // measure 23
0100
0000
0000
0000
,  // measure 24
0000
0000
0000
0000
,  // measure 25
0100
0000
0000
0000
,  // measure 26
0000
0000
0000
0000
,  // measure 27
0010
0000
0010
0000
,  // measure 28
0100
0000
0100
0000
,  // measure 29
1000
0000
1000
0000
,  // measure 30
0001
0000
0001
0000
,  // measure 31
0100
0000
0100
0000
,  // measure 32
0010
0000
0010
0000
,  // measure 33
0100
0000
0000
0000
,  // measure 34
0010
0000
0000
0000
,  // measure 35
0001
0000
0000
0000
,  // measure 36
0100
0000
0000
0000
,  // measure 37
1000
0000
0000
0000
,  // measure 38
0010
0000
0000
0000
,  // measure 39
0100
0000
0000
0000
,  // measure 40
0001
0000
0000
0000
,  // measure 41
0010
0000
0000
0000
,  // measure 42
0100
0000
0000
1000
,  // measure 43
1000
0000
0000
0000
,  // measure 44
0010
0000
0000
0001
,  // measure 45
0001
0000
0000
0000
,  // measure 46
0100
0000
0000
0010
,  // measure 47
0010
0000
0000
0000
;
